Subcategories

John Barry - From Russia With Love: Original Motion Picture Soundtrack (1963) Remastered 2003

Posted By: Efgrapha
John Barry - From Russia With Love: Original Motion Picture Soundtrack (1963) Remastered 2003

John Barry - From Russia With Love: Original Motion Picture Soundtrack (1963/2003)
EAC | FLAC (Image) + cue.+log ~ 215 Mb | Mp3, CBR320 kbps ~ 96 Mb | Scans included
Soundtrack, Score, Easy Listening | Label: EMI, Capitol | # 72435-80588-2-6 | 00:36:54

After the surprise success of 1962's Dr. No, the producers of the budding James Bond series began to establish what would become its trademark elements, with its debonair anti-hero frolicking libidinously through increasingly amped-up foreign intrigue and exotic locales. Musically, this soundtrack represents perhaps their most crucial decision: hiring band leader/budding composer John Barry as scorer. Abandoning the first film's calypso kitsch for an orchestra powered cocktail of elegance and jazzy sophistication, Barry immediately gave the Bond saga a focused musical language that would become arguably its most consistent element over the decades and amidst a revolving series of lead actors and increasingly improbable cinematic predicaments. While anchored by a medley that includes Monty Norman's "James Bond Theme," this soundtrack also introduced another longstanding Bond tradition, the pop-ballad title track/single, here penned by Lionel Bart and sung with urgent conviction by British crooner Matt Munro. This digitally remastered new edition features new liner notes, as well as artwork and stills from the film.

Jerry McCulley

The first James Bond soundtrack composed from beginning to end by John Barry, From Russia With Love set the pattern for the score of every movie that followed in the series – except for the title song (sung by Matt Munro) which, in this particular instance, was the least impressive element of the soundtrack. In later releases, the producers would see the value of getting singers perceived as a little more on the cutting edge of popular music in one way or another, and they would gain some major hits as a result. However, in this case it was the instrumental music that was among the most startling and unusual ever heard in a film score up to that time, beginning with "007," a horn-driven piece with a driving beat. (New versions of "007" would end up in two of the next three Bond movies as well as several more that followed.) The other highlight of this flavorful soundtrack was "Girl Trouble," a suspense theme that played off the dynamics of a solo cello, strings, and horns in a relentless beat; this piece was so inspiring as action music that a big chunk of it was used as the opening and closing theme of a local news show in New York for decades. Everything on this album sounded special in one way or another – whether the actual music or the dynamics and timbres involved – and although it never yielded a hit single, From Russia With Love deservedly remained in print for decades on vinyl. [Note: As with most of the classic James Bond soundtracks, From Russia With Love is reportedly due for a major upgrade in sound and a repackaging sometime in 2001.]

Bruce Eder, All Music Guide

John Barry - From Russia With Love: Original Motion Picture Soundtrack (1963) Remastered 2003


~ John Barry at Allmusic
~ John Barry Website
~ John Barry at Wiki

~ Film at IMDB
~ Film at Wiki

Tracklist:

01. Opening Titles - James Bond Is Back - From Russia With Love - James Bond Theme (2:29)
02. Tania Meets Klebb (1:30)
03. Meeting In St. Sophia (1:09)
04. The Golden Horn (2:27)
05. Girl Trouble (2:25)
06. Bond Meets Tania (1:20)
07. 007 (2:46)
08. Gypsy Camp (1:17)
09. Death Of Grant (2:00)
10. From Russia With Love (2:35) Vocals - Matt Munro
11. Spectre Island (1:18)
12. Guitar Lament (1:12)
13. Man Overboard - Smersh In Action (2:19)
14. James Bond With Bongos (2:33)
15. Stalking (2:05)
16. Leila Dances (1:57)
17. Death Of Kerim (2:30)
18. 007 Takes The Lektor (3:01)


Exact Audio Copy V0.99 prebeta 5 from 4. May 2009

Отчёт EAC об извлечении, выполненном 5. октября 2010, 16:53

John Barry / From Russia With Love

Дисковод: TSSTcorpCDDVDW SH-S202H Adapter: 3 ID: 0

Режим чтения : Достоверность
Использование точного потока : Да
Отключение кэша аудио : Да
Использование указателей C2 : Нет

Коррекция смещения при чтении : 6
Способность читать области Lead-in и Lead-out : Нет
Заполнение пропущенных сэмплов тишиной : Да
Удаление блоков с тишиной в начале и конце : Нет
При вычислениях CRC использовались нулевые сэмплы : Да
Интерфейс : Встроенный Win32-интерфейс для Win NT/2000

Выходной формат : Внутренние WAV-операции
Формат сэмплов : 44.100 Гц; 16 бит; стерео


TOC извлечённого CD

Трек | Старт | Длительность | Начальный сектор | Конечный сектор
––––––––––––––––––––––––––––––––––-
1 | 0:00.00 | 2:29.27 | 0 | 11201
2 | 2:29.27 | 1:29.63 | 11202 | 17939
3 | 3:59.15 | 1:09.15 | 17940 | 23129
4 | 5:08.30 | 2:26.55 | 23130 | 34134
5 | 7:35.10 | 2:25.25 | 34135 | 45034
6 | 10:00.35 | 1:20.05 | 45035 | 51039
7 | 11:20.40 | 2:46.37 | 51040 | 63526
8 | 14:07.02 | 1:16.60 | 63527 | 69286
9 | 15:23.62 | 1:59.63 | 69287 | 78274
10 | 17:23.50 | 2:35.00 | 78275 | 89899
11 | 19:58.50 | 1:18.17 | 89900 | 95766
12 | 21:16.67 | 1:11.68 | 95767 | 101159
13 | 22:28.60 | 2:18.67 | 101160 | 111576
14 | 24:47.52 | 2:32.40 | 111577 | 123016
15 | 27:20.17 | 2:05.05 | 123017 | 132396
16 | 29:25.22 | 1:56.55 | 132397 | 141151
17 | 31:22.02 | 2:30.25 | 141152 | 152426
18 | 33:52.27 | 3:01.18 | 152427 | 166019


Характеристики диапазона извлечения и сообщения об ошибках

Выбранный диапазон

Имя файла C:\Torrent\Мои раздачи\James Bond Collection\02. From Russia With Love (1963)\John Barry - From Russia With Love.wav

Пиковый уровень 98.6 %
Качество диапазона 100.0 %
CRC теста 09657B7C
CRC копии 09657B7C
Копирование… OK

Ошибок не произошло


AccurateRip: сводка

Трек 1 точное извлечение (доверие 8) [CD8B7EEF]
Трек 2 точное извлечение (доверие 9) [BB9AAB96]
Трек 3 точное извлечение (доверие 9) [3AF14D8D]
Трек 4 точное извлечение (доверие 9) [0BB75FF4]
Трек 5 точное извлечение (доверие 9) [CB8E7313]
Трек 6 точное извлечение (доверие 9) [6128C87F]
Трек 7 точное извлечение (доверие 9) [3095CF64]
Трек 8 точное извлечение (доверие 9) [7358C738]
Трек 9 точное извлечение (доверие 9) [8E9BF12A]
Трек 10 точное извлечение (доверие 9) [F92E13E1]
Трек 11 точное извлечение (доверие 9) [FEE612A1]
Трек 12 точное извлечение (доверие 9) [B7838637]
Трек 13 точное извлечение (доверие 9) [0C0A969A]
Трек 14 точное извлечение (доверие 9) [291A5658]
Трек 15 точное извлечение (доверие 9) [9EA758CA]
Трек 16 точное извлечение (доверие 9) [09B06B8C]
Трек 17 точное извлечение (доверие 9) [036A150A]
Трек 18 точное извлечение (доверие 9) [6F4C3615]

Все треки извлечены точно

Конец отчёта

[CUETools log; Date: 29.07.2018 17:47:23; Version: 2.1.4]
[CTDB TOCID: SdnQdwN44T7Mt.mUAou6xXwsyz0-] found.
Track | CTDB Status
1 | (41/41) Accurately ripped
2 | (41/41) Accurately ripped
3 | (41/41) Accurately ripped
4 | (41/41) Accurately ripped
5 | (41/41) Accurately ripped
6 | (41/41) Accurately ripped
7 | (41/41) Accurately ripped
8 | (41/41) Accurately ripped
9 | (41/41) Accurately ripped
10 | (41/41) Accurately ripped
11 | (41/41) Accurately ripped
12 | (41/41) Accurately ripped
13 | (41/41) Accurately ripped
14 | (41/41) Accurately ripped
15 | (41/41) Accurately ripped
16 | (41/41) Accurately ripped
17 | (41/41) Accurately ripped
18 | (36/41) Accurately ripped, or (5/41) differs in 4930 samples @01:43:47-01:43:48,01:43:63-01:43:64,01:44:05-01:44:06,01:44:21-01:44:22,01:44:38-01:44:39,01:44:54-01:44:55,01:44:70-01:44:71,01:45:12-01:45:13,01:45:28-01:45:29,01:45:45-01:45:46,01:45:61-01:45:62,01:46:03-01:46:04,01:46:19-01:46:20,01:46:35-01:46:36,01:46:52-01:46:53,01:46:68-01:46:69,01:47:10-01:47:11,01:47:26-01:47:27,01:47:43-01:47:44,01:47:59-01:47:60,01:48:00-01:48:01,01:48:17-01:48:18
[AccurateRip ID: 0016feac-0133961a-df08a512] found.
Track [ CRC | V2 ] Status
01 [cd8b7eef|aa20ccc3] (11+22/50) Accurately ripped
02 [bb9aab96|58c38fe5] (12+22/52) Accurately ripped
03 [3af14d8d|3d176b08] (12+22/52) Accurately ripped
04 [0bb75ff4|26820b3e] (12+22/52) Accurately ripped
05 [cb8e7313|cdebe713] (12+22/52) Accurately ripped
06 [6128c87f|26ab0f36] (12+22/52) Accurately ripped
07 [3095cf64|f84ae433] (12+22/52) Accurately ripped
08 [7358c738|453137ca] (12+22/52) Accurately ripped
09 [8e9bf12a|68ce2f48] (12+22/52) Accurately ripped
10 [f92e13e1|f25bb1e4] (12+22/52) Accurately ripped
11 [fee612a1|6ace9a9b] (12+22/52) Accurately ripped
12 [b7838637|75778cc2] (12+22/52) Accurately ripped
13 [0c0a969a|4d4f7c8a] (12+22/52) Accurately ripped
14 [291a5658|cc78b962] (12+22/52) Accurately ripped
15 [9ea758ca|e8ac1336] (12+23/52) Accurately ripped
16 [09b06b8c|e4c96502] (12+23/52) Accurately ripped
17 [036a150a|33040013] (12+23/52) Accurately ripped
18 [6f4c3615|2c636d21] (12+22/50) Accurately ripped
Offsetted by -691:
01 [ea0cd13f] (02/50) Accurately ripped
02 [63b8572b] (02/52) Accurately ripped
03 [1cfbcd53] (02/52) Accurately ripped
04 [eabfc1f7] (02/52) Accurately ripped
05 [cd3dd683] (02/52) Accurately ripped
06 [769c4720] (02/52) Accurately ripped
07 [eb01dc4a] (02/52) Accurately ripped
08 [d282b8e4] (02/52) Accurately ripped
09 [1b55d34c] (02/52) Accurately ripped
10 [0f9e2d0e] (02/52) Accurately ripped
11 [17d7dac2] (02/52) Accurately ripped
12 [ed155e4b] (02/52) Accurately ripped
13 [b47ea958] (02/52) Accurately ripped
14 [6c3ef6fa] (02/52) Accurately ripped
15 [2de7d7ef] (02/52) Accurately ripped
16 [c5427ced] (02/52) Accurately ripped
17 [95f0ddf0] (02/52) Accurately ripped
18 [58face4f] (02/50) Accurately ripped
Offsetted by -6:
01 [df93498f] (00/50) No match (V2 was not tested)
02 [76ac5720] (02/52) Accurately ripped
03 [d4cd1659] (02/52) Accurately ripped
04 [44daa49a] (02/52) Accurately ripped
05 [ba289bf3] (02/52) Accurately ripped
06 [737fbca1] (02/52) Accurately ripped
07 [e1cf6e70] (02/52) Accurately ripped
08 [451f5910] (02/52) Accurately ripped
09 [926ca72e] (02/52) Accurately ripped
10 [0d616f9b] (02/52) Accurately ripped
11 [38e8e9c3] (02/52) Accurately ripped
12 [556e8fdf] (02/52) Accurately ripped
13 [da60ce56] (02/52) Accurately ripped
14 [3648395c] (02/52) Accurately ripped
15 [28f96974] (02/52) Accurately ripped
16 [22a86d2e] (02/52) Accurately ripped
17 [e415ac16] (02/52) Accurately ripped
18 [a134bd8a] (00/50) No match (V2 was not tested)

Track Peak [ CRC32 ] [W/O NULL] [ LOG ]
– 98,6 [09657B7C] [4F68F412] CRC32
01 98,5 [5C690CBD] [B2F2371B]
02 77,0 [E80A5217] [3EE40748]
03 76,4 [39F318EE] [6C4EEF6C]
04 86,2 [F2DE0987] [5A11501B]
05 93,0 [8C529D98] [C80756F7]
06 59,4 [548CBAC8] [53D01BD5]
07 90,3 [3582D06E] [5ED3D75C]
08 64,5 [ACA42A29] [CD90781E]
09 95,6 [3D716398] [CDA5EFF5]
10 78,2 [57A14618] [BB468BD3]
11 67,9 [B757D403] [552C512D]
12 61,0 [41301741] [3DC80EA3]
13 73,3 [5ED72FB5] [E9DFF767]
14 85,5 [004461DC] [BBE4487F]
15 98,6 [5C688348] [53419AF0]
16 79,1 [ADF37FAC] [3FE434D0]
17 85,1 [AFC6988A] [F9EABA8F]
18 95,7 [AC96CF91] [22045681]

foobar2000 1.2 / Dynamic Range Meter 1.1.1
log date: 2018-07-29 17:48:01

––––––––––––––––––––––––––––––––––––––––
Analyzed: John Barry / From Russia With Love
––––––––––––––––––––––––––––––––––––––––

DR Peak RMS Duration Track
––––––––––––––––––––––––––––––––––––––––
DR9 -0.13 dB -12.00 dB 2:29 01-Opening Titles - James Bond Is Back - From Russia With Love - James Bond Theme
DR12 -2.26 dB -18.04 dB 1:30 02-Tania Meets Klebb
DR11 -2.33 dB -17.79 dB 1:09 03-Meeting In St. Sophia
DR10 -1.29 dB -13.93 dB 2:27 04-The Golden Horn
DR11 -0.63 dB -16.88 dB 2:25 05-Girl Trouble
DR14 -4.52 dB -23.31 dB 1:20 06-Bond Meets Tania
DR9 -0.88 dB -13.56 dB 2:46 07-007
DR10 -3.80 dB -20.98 dB 1:17 08-Gypsy Camp
DR10 -0.39 dB -16.38 dB 2:00 09-Death Of Grant
DR8 -2.13 dB -13.21 dB 2:35 10-From Russia With Love
DR12 -3.36 dB -23.95 dB 1:18 11-Spectre Island
DR14 -4.29 dB -24.95 dB 1:12 12-Guitar Lament
DR14 -2.69 dB -22.83 dB 2:19 13-Man Overboard - Smersh In Action
DR10 -1.35 dB -16.47 dB 2:33 14-James Bond With Bongos
DR12 -0.12 dB -18.61 dB 2:05 15-Stalking
DR13 -2.03 dB -17.56 dB 1:57 16-Leila Dances
DR11 -1.40 dB -18.62 dB 2:30 17-Death Of Kerim
DR10 -0.38 dB -12.81 dB 3:01 18-007 Takes The Lektor
––––––––––––––––––––––––––––––––––––––––

Number of tracks: 18
Official DR value: DR11

Samplerate: 44100 Hz
Channels: 2
Bits per sample: 16
Bitrate: 773 kbps
Codec: FLAC
================================================================================

John Barry - From Russia With Love: Original Motion Picture Soundtrack (1963) Remastered 2003

John Barry - From Russia With Love: Original Motion Picture Soundtrack (1963) Remastered 2003

All thanks to original uploader - Composer's fan

More Movies & Soundtracks in Efgrapha Blog



John Barry - The Knack …... Picture Score (1965) Ltd 2011

John Barry - Born Free: Origin...rding, Conducted by John Barry

John Barry - Born Free: Origin... conducted by Frederic Talgorn

John Barry - The Quiller Memor...Soundtrack (1966) Reissue 2012

John Barry - The Whisperers (1...oundtracks, 2 LP in 1 CD, 2010

John Barry - The Lion In Winte...Soundtrack (1968) Reissue 1995

The Appointment: Original Moti..., Stu Phillips, Michel Legrand

John Barry & The Royal Phi...ncert (1972) [Remastered 2010]

John Barry - The Day Of The Locust (1974) Limited Edition 2010

John Barry - Americans (1976) ...Polydor years 1972-1976 (2010)

John Barry - King Kong: Original Motion Picture Soundtrack (1976)

John Barry - Robin And Marian:...tion Picture Soundtrack (1976)

John Barry - The Deep: Origina...977) 2CD Expanded Edition 2010

John Barry - The Black Hole: O...ecial Edition, Remastered 2011

John Barry - Hammett: Original...ck (1982) Limited Edition 2000

John Barry, Dana Kaproff - The... Intrada, Limited Edition 2009

John Barry - High Road To Chin...ck (1983) Limited Edition 2010

John Barry & VA - The Cott...tion Picture Soundtrack (1984)

John Barry - Mike's Murder: Or...ck (1984) Limited Edition 2009

John Barry - Until September: ...ure Soundtrack (1984, RM 2011)

John Barry - Jagged Edge: Orig...ited Collector's Edition, 2016

John Barry - Peggy Sue Got Mar...tion Picture Soundtrack (1986)

John Barry, Michel Colombier &...re, 3 CDs Limited Edition 2011

John Barry - Masquerade: Origi...(1988) Limited CD Release 2002

John Barry - Dances With Wolve...k (1990) Expanded Edition 2004

John Barry - Chaplin: Music fr...tion Picture Soundtrack (1992)

John Barry - Ruby Cairo: Origi...Soundtrack (1993) Reissue 2001

John Barry & VA - Indecent...tion Picture Soundtrack (1993)

John Barry - Themeology: The Best Of John Barry (1997)

John Barry - Mercury Rising: Original Motion Picture Soundtrack (1998)

John Barry ‎- The Real… ...timate Collection (2016) 3 CDs