Tags
Language
Tags

John Barry - Goldfinger: Original Motion Picture Soundtrack (1964) Remastered 2003

Posted By: Efgrapha
John Barry - Goldfinger: Original Motion Picture Soundtrack (1964) Remastered 2003

John Barry - Goldfinger: Original Motion Picture Soundtrack (1964/2003)
EAC | FLAC (Image) + cue.+log ~ 225 Mb | Mp3, CBR320 kbps ~ 105 Mb | Scans included
Soundtrack, Score | Label: EMI, Capitol | # 72435-80891-2-7 | 00:41:13

One of John Barry's best efforts, with a particularly striking title song belted out by Shirley Bassey between blasting brass fills, Goldfinger was also the first James Bond soundtrack to hit the number one spot on the U.S. charts (ironically, displacing another United Artists soundtrack, A Hard Day's Night), even as Bassey's performance hit number eight as a single. While Barry effectively expanded his collection of Bond themes with Thunderball (underwater themes) and You Only Live Twice (space themes), Goldfinger was a prime opportunity to lock in some of the action themes that would recur over the next 35 years. Of particular note is the track compiling Barry's cues for the robbery of Fort Knox ("Dawn Raid on Fort Knox"), which provides a slow build so wonderfully agonizing that the remainder of the album, including "The Arrival of the Bomb and Count Down," with its pounding drums and roaring brass, actually serves as stress relief. In February of 2003, Goldfinger was issued in a remastered edition that featured not only significantly improved sound but also added an extra nine minutes of music, contained in four sections of the soundtrack that originally appeared only on the British LP edition. Rather than mere filler, those cuts – "Golden Girl," "Death of Tilley," "The Laser Beam," and "Pussy Galore's Flying Circus," the latter particularly entertaining – add significant elements to the score, which otherwise always seemed somewhat sketchy on the album. The sound is also a significant improvement over any previous edition of the soundtrack, and the only flaw is that the makers didn't program the bonus tracks into the body of previously extant music, but on CD it's easy enough to do that ourselves.

Steven McDonald, All Music Guide

John Barry - Goldfinger: Original Motion Picture Soundtrack (1964) Remastered 2003


~ John Barry at Allmusic
~ John Barry at Wiki

~ Film at IMDB
~ Film at Wiki

Tracklist:

01. Main Title - Goldfinger (2:48)
Lyrics By - Anthony Newley, Leslie Bricusse; Vocals - Shirley Bassey
02. Into Miami (0:57)
03. Alpine Drive - Auric's Factory (4:28)
04. Oddjob's Pressing Engagement (3:08)
05. Gunbarrel / Bond Back In Action Again (2:31)
06. Teasing The Korean (2:17)
07. Gassing The Gangsters (1:05)
08. Goldfinger (Instrumental Version) (2:10)
09. Dawn Raid On Fort Knox (5:48)
10. The Arrival Of The Bomb And Count Down (3:29)
11. The Death Of Goldfinger - End Titles (2:35)

Bonus Tracks:
12. Golden Girl (2:11)
13. Death Of Tilley (2:05)
14. The Laser Beam (2:54)
15. Pussy Galore's Flying Circus (2:46)


Exact Audio Copy V0.99 prebeta 5 from 4. May 2009

Отчёт EAC об извлечении, выполненном 12. сентября 2010, 16:19

John Barry / Goldfinger

Дисковод: TSSTcorpCDDVDW SH-S202H Adapter: 3 ID: 0

Режим чтения : Достоверность
Использование точного потока : Да
Отключение кэша аудио : Да
Использование указателей C2 : Нет

Коррекция смещения при чтении : 6
Способность читать области Lead-in и Lead-out : Нет
Заполнение пропущенных сэмплов тишиной : Да
Удаление блоков с тишиной в начале и конце : Нет
При вычислениях CRC использовались нулевые сэмплы : Да
Интерфейс : Встроенный Win32-интерфейс для Win NT/2000

Выходной формат : Внутренние WAV-операции
Формат сэмплов : 44.100 Гц; 16 бит; стерео


TOC извлечённого CD

Трек | Старт | Длительность | Начальный сектор | Конечный сектор
––––––––––––––––––––––––––––––––––-
1 | 0:00.00 | 2:48.07 | 0 | 12606
2 | 2:48.07 | 0:57.13 | 12607 | 16894
3 | 3:45.20 | 4:27.57 | 16895 | 36976
4 | 8:13.02 | 3:08.30 | 36977 | 51106
5 | 11:21.32 | 2:31.35 | 51107 | 62466
6 | 13:52.67 | 2:16.60 | 62467 | 72726
7 | 16:09.52 | 1:05.13 | 72727 | 77614
8 | 17:14.65 | 2:10.12 | 77615 | 87376
9 | 19:25.02 | 5:48.10 | 87377 | 113486
10 | 25:13.12 | 3:29.05 | 113487 | 129166
11 | 28:42.17 | 2:34.50 | 129167 | 140766
12 | 31:16.67 | 2:10.38 | 140767 | 150554
13 | 33:27.30 | 2:04.67 | 150555 | 159921
14 | 35:32.22 | 2:54.08 | 159922 | 172979
15 | 38:26.30 | 2:46.15 | 172980 | 185444


Характеристики диапазона извлечения и сообщения об ошибках

Выбранный диапазон

Имя файла C:\Torrent\Мои раздачи\James Bond Collection\03. Goldfinger (1964)\John Barry - Goldfinger.wav

Пиковый уровень 77.0 %
Качество диапазона 100.0 %
CRC теста D6584D3B
CRC копии D6584D3B
Копирование… OK

Ошибок не произошло


AccurateRip: сводка

Трек 1 точное извлечение (доверие 9) [1F6924A5]
Трек 2 точное извлечение (доверие 9) [B589F471]
Трек 3 точное извлечение (доверие 9) [0B4DFF55]
Трек 4 точное извлечение (доверие 9) [0F5C3BB3]
Трек 5 точное извлечение (доверие 9) [5C3DBCC0]
Трек 6 точное извлечение (доверие 9) [BD9DCEF0]
Трек 7 точное извлечение (доверие 9) [330FF6AE]
Трек 8 точное извлечение (доверие 9) [7151BE0E]
Трек 9 точное извлечение (доверие 9) [9976A81A]
Трек 10 точное извлечение (доверие 9) [2E5EAF2A]
Трек 11 точное извлечение (доверие 9) [CB125AFF]
Трек 12 точное извлечение (доверие 9) [FF5329E0]
Трек 13 точное извлечение (доверие 9) [7B6B410A]
Трек 14 точное извлечение (доверие 9) [80C4CC80]
Трек 15 точное извлечение (доверие 9) [D5B48904]

Все треки извлечены точно

Конец отчёта

[CUETools log; Date: 31.07.2018 1:06:51; Version: 2.1.4]
[CTDB TOCID: s0lXsAChKe5L.TbcDbE0cvovZpQ-] found.
Track | CTDB Status
1 | (56/56) Accurately ripped
2 | (56/56) Accurately ripped
3 | (56/56) Accurately ripped
4 | (56/56) Accurately ripped
5 | (56/56) Accurately ripped
6 | (56/56) Accurately ripped
7 | (56/56) Accurately ripped
8 | (56/56) Accurately ripped
9 | (56/56) Accurately ripped
10 | (56/56) Accurately ripped
11 | (56/56) Accurately ripped
12 | (56/56) Accurately ripped
13 | (56/56) Accurately ripped
14 | (56/56) Accurately ripped
15 | (56/56) Accurately ripped
[AccurateRip ID: 00166e8f-00fff119-c509a80f] found.
Track [ CRC | V2 ] Status
01 [1f6924a5|644db5cd] (10+22/44) Accurately ripped
02 [b589f471|cd6db47f] (10+22/43) Accurately ripped
03 [0b4dff55|053d3fb5] (10+22/43) Accurately ripped
04 [0f5c3bb3|53a81eac] (10+22/43) Accurately ripped
05 [5c3dbcc0|f99b4fa8] (10+22/43) Accurately ripped
06 [bd9dcef0|79397808] (10+22/43) Accurately ripped
07 [330ff6ae|e30fc971] (10+22/43) Accurately ripped
08 [7151be0e|a665c28c] (10+22/43) Accurately ripped
09 [9976a81a|0502dce2] (10+22/43) Accurately ripped
10 [2e5eaf2a|bc6d7434] (10+22/43) Accurately ripped
11 [cb125aff|69d83125] (10+22/43) Accurately ripped
12 [ff5329e0|d6c010a1] (10+22/43) Accurately ripped
13 [7b6b410a|b7e2bcc8] (10+22/43) Accurately ripped
14 [80c4cc80|67acc3cf] (10+22/43) Accurately ripped
15 [d5b48904|035fa4fe] (10+22/43) Accurately ripped
Offsetted by -6:
01 [cd5fbe61] (00/44) No match (V2 was not tested)
02 [05121011] (00/43) No match (V2 was not tested)
03 [dddbff79] (00/43) No match (V2 was not tested)
04 [b1104023] (00/43) No match (V2 was not tested)
05 [abe59698] (00/43) No match (V2 was not tested)
06 [9f6006ea] (00/43) No match (V2 was not tested)
07 [91be8e5c] (00/43) No match (V2 was not tested)
08 [f1b806fe] (00/43) No match (V2 was not tested)
09 [a09eeb9a] (00/43) No match (V2 was not tested)
10 [d2bcef48] (00/43) No match (V2 was not tested)
11 [065b3cc7] (00/43) No match (V2 was not tested)
12 [d8a99150] (00/43) No match (V2 was not tested)
13 [924ca4c6] (00/43) No match (V2 was not tested)
14 [2086921e] (00/43) No match (V2 was not tested)
15 [4d6d8448] (00/43) No match (V2 was not tested)

Track Peak [ CRC32 ] [W/O NULL] [ LOG ]
– 77,0 [D6584D3B] [7AB8E16C] CRC32
01 68,0 [5286043D] [150D18A9]
02 62,4 [A2FFAFD3] [D589AC48]
03 66,0 [8610AA01] [E97FC89D]
04 75,6 [81A00203] [D3CC458D]
05 67,7 [B0B8F92E] [8D403C30]
06 66,4 [EC46DD22] [128D8820]
07 73,3 [69E00135] [6E4A4765]
08 73,1 [D7B5F095] [AC091E08]
09 77,0 [C06CE30F] [EBF5C22A]
10 69,2 [72E62389] [FC0564F1]
11 76,2 [2E32F740] [D5FD1A75]
12 69,2 [FF599D4B] [1D2FC62B]
13 69,2 [F0CE54EE] [E9487F65]
14 62,6 [1CDD643F] [615B062E]
15 56,8 [D72B4945] [0DE6CAAB]

foobar2000 1.2 / Dynamic Range Meter 1.1.1
log date: 2018-07-31 01:20:47

––––––––––––––––––––––––––––––––––––––––
Analyzed: John Barry / Goldfinger
––––––––––––––––––––––––––––––––––––––––

DR Peak RMS Duration Track
––––––––––––––––––––––––––––––––––––––––
DR9 -3.34 dB -16.33 dB 2:48 01-Main Title - Goldfinger
DR10 -4.08 dB -17.91 dB 0:57 02-Into Miami
DR13 -3.61 dB -23.56 dB 4:28 03-Alpine Drive - Auric's Factory
DR9 -2.42 dB -15.71 dB 3:08 04-Oddjob's Pressing Engagement
DR12 -3.38 dB -19.98 dB 2:31 05-Gunbarrel / Bond Back In Action Again
DR14 -3.55 dB -24.29 dB 2:17 06-Teasing The Korean
DR11 -2.69 dB -19.57 dB 1:05 07-Gassing The Gangsters
DR10 -2.71 dB -13.43 dB 2:10 08-Goldfinger (Instrumental Version)
DR9 -2.26 dB -15.55 dB 5:48 09-Dawn Raid On Fort Knox
DR11 -3.20 dB -18.28 dB 3:29 10-The Arrival Of The Bomb And Count Down
DR9 -2.36 dB -15.98 dB 2:35 11-The Death Of Goldfinger - End Titles
DR13 -3.19 dB -24.79 dB 2:11 12-Golden Girl
DR13 -3.19 dB -23.52 dB 2:05 13-Death Of Tilley
DR11 -4.06 dB -20.82 dB 2:54 14-The Laser Beam
DR11 -4.91 dB -22.30 dB 2:46 15-Pussy Galore's Flying Circus
––––––––––––––––––––––––––––––––––––––––

Number of tracks: 15
Official DR value: DR11

Samplerate: 44100 Hz
Channels: 2
Bits per sample: 16
Bitrate: 727 kbps
Codec: FLAC
================================================================================

John Barry - Goldfinger: Original Motion Picture Soundtrack (1964) Remastered 2003

John Barry - Goldfinger: Original Motion Picture Soundtrack (1964) Remastered 2003

All thanks to original uploader - Composer's fan

More Movies & Soundtracks in Efgrapha Blog