Subcategories

John Barry - The Black Hole: Original Motion Picture Soundtrack (1979) Intrada Special Edition, Remastered 2011 [Re-Up]

Posted By: Efgrapha
John Barry - The Black Hole: Original Motion Picture Soundtrack (1979) Intrada Special Edition, Remastered 2011 [Re-Up]

John Barry - The Black Hole: Original Motion Picture Soundtrack (1979)
Intrada Special Edition, Remastered 2011

EAC | FLAC (Image) + cue.+log ~ 278 Mb | Mp3, CBR320 kbps ~ 129 Mb | Scans ~ 83 Mb
Soundtrack, Score, Modern Classical | Label: Intrada/Walt Disney | # D001383402 | 00:55:02

World premiere release of complete John Barry score for 1979 Walt Disney sci-fi tale with Anthony Perkins, Maximilian Schell, Ernest Borgnine, directed by Gary Nelson. Spectacular CD production, co-branded by Walt Disney Records & Intrada, offers every note of Barry's oft-requested score in stunning digital stereo from 32-track digital masters vaulted at Disney. Original LP offered 30 minutes of scoring highlights but new CD has every LP selection plus over 20 minutes of never-before released material, all newly mastered in true digital audio, playing in picture sequence! Exciting overture, swirling main title motifs are memorable but equally fun are numerous devices literally spotlighting favorite signatures of composer: melodic ideas played in one register by French horns, then another register by trumpets; massive block minor chords for suspense; repeating rhythmic ideas generating action; many other musical trademarks. Lengthy history of bringing complete score to CD, location of long-obsolete digital machines, creation of all-new digital mixes plus more info all notated in fascinating detail by producer Randy Thornton. But there's more! Original campaign artwork, production stills, full color shots of composer at recording sessions plus generous notes on film & scoring by Jeff Bond add more icing to sweet cake. A legendary soundtrack album now gets the "Special Edition" treatment at last! John Barry conducts.

In keeping with the cosmological phenomenon of the title, this is John Barry in big, bold terms – there is certainly no mistaking the style, with its swirling string figures and forceful horns. Unfortunately, Disney have never seen fit to accommodate a CD release of the film's music (perhaps because the film itself was such an expensive embarrassment to the company), rendering the vinyl release an expensive collector's item. John Barry fans will note that the music includes something not often seen from Barry – an overture. Curiously enough, this is a rather benign piece of music that seems to have little in common with the rest of the music.

Review by Steven McDonald, Allmusic.com

~ John Barry at Allmusic
~ John Barry at Wiki

~ Film at Wiki
~ Film at IMDB

Tracklist:

01. Overture (02:27)
02. Main Title (01:49)
03. That's It (01:43)
04. Closer Look (02:02)
05. Zero Gravity (05:48)
06. Cygnus Floating (02:06)
07. The Door Opens (04:09)
08. Pretty Busy (00:48)
09. Six Robots (01:57)
10. Can You Speak? (01:18)
11. Poor Creatures (01:40)
12. Ready To Embark (00:44)
13. Start The Countdown (03:47)
14. Durant Is Dead (02:30)
15. Laser (01:00)
16. Kate's O.K. (02:48)
17. Hot And Heavy (02:42)
18. Meteorites (01:30)
19. Raging Inferno (00:53)
20. Hotter And Heavier (01:58)
21. Bob And V.I.N.C.E.N.T. (00:53)
22. Into The Hole (04:55)
23. End Title (02:38)
Bonus Track:
24. In, Through… And Beyond! (02:45)


Exact Audio Copy V1.0 beta 1 from 15. November 2010

EAC extraction logfile from 2. November 2011, 22:21

John Barry / The Black Hole

Used drive : TSSTcorpCDDVDW SH-S202H Adapter: 3 ID: 0

Read mode : Secure
Utilize accurate stream : Yes
Defeat audio cache : Yes
Make use of C2 pointers : No

Read offset correction : 6
Overread into Lead-In and Lead-Out : No
Fill up missing offset samples with silence : Yes
Delete leading and trailing silent blocks : No
Null samples used in CRC calculations : Yes
Used interface : Native Win32 interface for Win NT & 2000

Used output format : Internal WAV Routines
Sample format : 44.100 Hz; 16 Bit; Stereo


TOC of the extracted CD

Track | Start | Length | Start sector | End sector
––––––––––––––––––––––––––––-
1 | 0:00.00 | 2:27.50 | 0 | 11074
2 | 2:27.50 | 1:49.20 | 11075 | 19269
3 | 4:16.70 | 1:43.29 | 19270 | 27023
4 | 6:00.24 | 2:02.36 | 27024 | 36209
5 | 8:02.60 | 5:48.17 | 36210 | 62326
6 | 13:51.02 | 2:06.36 | 62327 | 71812
7 | 15:57.38 | 4:09.09 | 71813 | 90496
8 | 20:06.47 | 0:48.14 | 90497 | 94110
9 | 20:54.61 | 1:57.55 | 94111 | 102940
10 | 22:52.41 | 1:18.58 | 102941 | 108848
11 | 24:11.24 | 1:40.66 | 108849 | 116414
12 | 25:52.15 | 0:44.11 | 116415 | 119725
13 | 26:36.26 | 3:47.49 | 119726 | 136799
14 | 30:24.00 | 2:30.61 | 136800 | 148110
15 | 32:54.61 | 1:00.45 | 148111 | 152655
16 | 33:55.31 | 2:48.36 | 152656 | 165291
17 | 36:43.67 | 2:42.23 | 165292 | 177464
18 | 39:26.15 | 1:30.57 | 177465 | 184271
19 | 40:56.72 | 0:53.69 | 184272 | 188315
20 | 41:50.66 | 1:58.72 | 188316 | 197237
21 | 43:49.63 | 0:53.27 | 197238 | 201239
22 | 44:43.15 | 4:55.48 | 201240 | 223412
23 | 49:38.63 | 2:38.36 | 223413 | 235298
24 | 52:17.24 | 2:45.27 | 235299 | 247700


Range status and errors

Selected range

Filename C:\Torrent\Мои раздачи\The Black Hole\John Barry - The Black Hole.wav

Peak level 98.8 %
Extraction speed 0.3 X
Range quality 100.0 %
Test CRC 81681836
Copy CRC 81681836
Copy OK

No errors occurred


AccurateRip summary

Track 1 accurately ripped (confidence 2) [777561E9]
Track 2 accurately ripped (confidence 2) [674080B9]
Track 3 accurately ripped (confidence 2) [91911CCD]
Track 4 accurately ripped (confidence 2) [14F1738A]
Track 5 accurately ripped (confidence 2) [F4043BA3]
Track 6 accurately ripped (confidence 2) [B2419DE1]
Track 7 accurately ripped (confidence 2) [FB3F7AE9]
Track 8 accurately ripped (confidence 2) [A370F580]
Track 9 accurately ripped (confidence 2) [70AF479C]
Track 10 accurately ripped (confidence 2) [F5D68BF3]
Track 11 accurately ripped (confidence 2) [3D59B1A4]
Track 12 accurately ripped (confidence 2) [BB60A6BD]
Track 13 accurately ripped (confidence 2) [BC65C9FE]
Track 14 accurately ripped (confidence 2) [7A722D86]
Track 15 accurately ripped (confidence 2) [93F4DE10]
Track 16 accurately ripped (confidence 2) [DDB53D4A]
Track 17 accurately ripped (confidence 2) [337AB176]
Track 18 accurately ripped (confidence 2) [2BE7D742]
Track 19 accurately ripped (confidence 2) [35BC3449]
Track 20 accurately ripped (confidence 2) [EDA2B96C]
Track 21 accurately ripped (confidence 2) [0DF70D89]
Track 22 accurately ripped (confidence 2) [7E923EDD]
Track 23 accurately ripped (confidence 2) [27B409E5]
Track 24 accurately ripped (confidence 2) [9EA74914]

All tracks accurately ripped

End of status report

foobar2000 1.1.16 / Dynamic Range Meter 1.1.1
log date: 2012-12-20 22:06:42

––––––––––––––––––––––––––––––––––––––––
Analyzed: John Barry / The Black Hole
––––––––––––––––––––––––––––––––––––––––

DR Peak RMS Duration Track
––––––––––––––––––––––––––––––––––––––––
DR12 -0.48 dB -15.69 dB 2:28 01-Overture
DR12 -0.10 dB -15.98 dB 1:49 02-Main Title
DR12 -4.89 dB -21.14 dB 1:43 03-That's It
DR11 -4.84 dB -19.38 dB 2:02 04-Closer Look
DR13 -0.64 dB -17.37 dB 5:48 05-Zero Gravity
DR13 -1.39 dB -23.15 dB 2:06 06-Cygnus Floating
DR13 -1.56 dB -20.24 dB 4:09 07-The Door Opens
DR10 -12.35 dB -25.95 dB 0:48 08-Pretty Busy
DR15 -4.29 dB -25.10 dB 1:58 09-Six Robots
DR11 -13.80 dB -28.92 dB 1:19 10-Can You Speak?
DR10 -7.06 dB -23.47 dB 1:41 11-Poor Creatures
DR10 -15.15 dB -28.89 dB 0:44 12-Ready to Embark
DR13 -2.41 dB -22.94 dB 3:48 13-Start the Countdown
DR11 -4.10 dB -18.20 dB 2:31 14-Durant is Dead
DR12 -0.12 dB -14.37 dB 1:01 15-Laser
DR12 -0.90 dB -16.84 dB 2:48 16-Kate's O.K.
DR11 -4.78 dB -19.20 dB 2:42 17-Hot and Heavy
DR10 -0.14 dB -18.49 dB 1:31 18-Meteorites
DR9 -7.11 dB -21.19 dB 0:54 19-Raging Inferno
DR11 -3.12 dB -16.96 dB 1:59 20-Hotter and Heavier
DR10 -9.54 dB -23.03 dB 0:53 21-Bob and V.I.N.C.E.N.T.
DR13 -0.33 dB -17.11 dB 4:56 22-Into the Hole
DR11 -2.58 dB -16.93 dB 2:38 23-End Title
DR12 -3.28 dB -17.84 dB 2:45 24-In, Through… And Beyond!
––––––––––––––––––––––––––––––––––––––––

Number of tracks: 24
Official DR value: DR11

Samplerate: 44100 Hz
Channels: 2
Bits per sample: 16
Bitrate: 699 kbps
Codec: FLAC
================================================================================

John Barry - The Black Hole: Original Motion Picture Soundtrack (1979) Intrada Special Edition, Remastered 2011 [Re-Up]

John Barry - The Black Hole: Original Motion Picture Soundtrack (1979) Intrada Special Edition, Remastered 2011 [Re-Up]

All thanks to original uploader - Composer's fan

More Movies & Soundtracks in Efgrapha Blog



John Barry - The Knack …And How to Get It: Original MGM Motion Picture Score (1965) Ltd 2011

John Barry - The Quiller Memorandum: Original Motion Picture Soundtrack (1966) Reissue 2012

John Barry - The Whisperers (1967) + Richard Rodney Bennett - Equus (1977)
Original MGM Motion Picture Soundtracks, 2 LP in 1 CD, 2010


John Barry - The Lion In Winter: Original Motion Picture Soundtrack (1968) Reissue 1995

The Appointment: Original Motion Picture Soundtrack (1969) [Limited Edition 2003]
music by John Barry, Don Walker, Stu Phillips, Michel Legrand


John Barry - The Day Of The Locust (1974) Limited Edition 2010

John Barry - King Kong: Original Motion Picture Soundtrack (1976)

John Barry - The Deep: Original Motion Picture Soundtrack (1977) 2CD Expanded Edition 2010

John Barry - High Road To China: Original Motion Picture Soundtrack (1983) Limited Edition 2010

John Barry & VA - The Cotton Club: Original Motion Picture Soundtrack (1984)

John Barry - Until September: Original MGM Motion Picture Soundtrack (1984, RM 2011)

John Barry - Jagged Edge: Original Motion Picture Soundtrack (1985) Limited Collector's Edition, 2016

John Barry - Peggy Sue Got Married: Original Motion Picture Soundtrack (1986)

John Barry, Michel Colombier & VA - The Golden Child (1986)
Music From The Motion Picture, 3 CDs Limited Edition 2011


John Barry - Dances With Wolves: Original Motion Picture Soundtrack (1990) Expanded Edition 2004

John Barry - Chaplin: Music from the Original Motion Picture Soundtrack (1992)

John Barry - Themeology: The Best Of John Barry (1997)

John Barry ‎- The Real… John Barry: The Ultimate Collection (2016) 3 CDs