Subcategories

John Illsley (Ex-Dire Straits) - Solo Albums Collection 1984-2014 (6CD) [Re-Up]

Posted By: Designol
John Illsley (Ex-Dire Straits) - Solo Albums Collection 1984-2014 (6CD) [Re-Up]

John Illsley (Ex-Dire Straits) - Solo Albums Collection 1984-2014 (6CD)
EAC | FLAC | Image (Cue&Log) ~ 1.75 Gb | Mp3 (CBR320) ~ 678 Mb | Scans ~ 691 Mb
Classic Rock, Folk Rock, Blues Rock, Pop Rock | Time: 04:55:56

John Illsley is an English musician who rose to fame as the bass guitarist of the critically acclaimed band Dire Straits. With Dire Straits, John has been the recipient of multiple BRIT and Grammy Awards and a Heritage Award. As one of the founding band members, with Mark Knopfler, his brother David and drummer Pick Withers, John played a major role in the development of the Dire Straits’ sound.

Throughout it all, John and Mark were the only founding members to remain in the line up of Dire Straits right through from 1977 until they decided to call it a day in 1995. They still remain close friends and recently produced a programme “Guitar Stories” for Sky Arts.

During their time together as Dire Straits they sold over 120 million albums and toured extensively across the world. When Dire Straits took a couple of well earned breaks John released two albums; Never Told a Soul (1984) and Glass(1988). Both featured Mark Knopfler as a guest musician.

John happened upon the Irish band Cunla in a Leicestershire pub in March 2005. He appeared with them on several occasions, most notably on 23 September 2006 at Cathedrale d’Image in Les Baux de Provence, France. The performance was recorded and subsequently released as an album, Live in Les Baux, in 2007.

In October 2008 John released Beautiful You, an album with Greg Pearle from Cunla and followed the release with a a short tour of Ireland. May 2010 saw the release of Streets of Heaven, with appearances from Mark Knopfler and a host of other musicians. The album was recorded at British Grove studios and produced by John and Guy Fletcher.

John signed Native Roses to his label, Creek Publishing, in February 2011. He produced their debut album alongside Guy Fletcher between December 2011 and July 2012.

John Illsley (Ex-Dire Straits) - Solo Albums Collection 1984-2014 (6CD) [Re-Up]

John Illsley (Ex-Dire Straits) - Solo Albums Collection 1984-2014 (6CD) [Re-Up]






John Illsley (Ex-Dire Straits) - Solo Albums Collection 1984-2014 (6CD) [Re-Up]

John Illsley - Never Told A Soul (1984) [Reissue 2009]
EAC | FLAC | Image (Cue&Log) ~ 232 Mb | Mp3 (CBR320) ~ 92 Mb
Label: Creek Records | # CREEKCD4 | 00:40:18 | Scans ~ 100 Mb

Never Told A Soul is John Illsley's first solo album and sees him growing in stature as a performer and writer. As on previous records he is ably assisted by Mark Knopfler who plays on four of the seven tracks as well as star drummer Terry Williams and Chris White on sax.

Tracklist:

01. Boy With Chinese Eyes (5:05)
02. The Night Cafe (4:57)
03. Never Told A Soul (5:45)
04. Jimmy On The Central Line (4:43)
05. Northern Land (8:57)
06. Another Alibi (4:27)
07. Let The River Flow (6:25)


Exact Audio Copy V1.0 beta 3 from 29. August 2011

EAC extraction logfile from 16. August 2014, 15:52

John Illsley / Never Told A Soul

Used drive : PLEXTOR DVDR PX-L890SA Adapter: 1 ID: 0

Read mode : Secure
Utilize accurate stream : Yes
Defeat audio cache : Yes
Make use of C2 pointers : No

Read offset correction : 6
Overread into Lead-In and Lead-Out : No
Fill up missing offset samples with silence : Yes
Delete leading and trailing silent blocks : No
Null samples used in CRC calculations : Yes
Used interface : Native Win32 interface for Win NT & 2000

Used output format : User Defined Encoder
Selected bitrate : 768 kBit/s
Quality : High
Add ID3 tag : No
Command line compressor : G:\Program Files\Exact Audio Copy\FLAC\FLAC.EXE
Additional command line options : -V -8 -T "Date=%year%" -T "Genre=%genre%" %source%


TOC of the extracted CD

Track | Start | Length | Start sector | End sector
––––––––––––––––––––––––––––-
1 | 0:00.00 | 5:05.05 | 0 | 22879
2 | 5:05.05 | 4:57.01 | 22880 | 45155
3 | 10:02.06 | 5:45.10 | 45156 | 71040
4 | 15:47.16 | 4:42.41 | 71041 | 92231
5 | 20:29.57 | 8:56.50 | 92232 | 132481
6 | 29:26.32 | 4:26.42 | 132482 | 152473
7 | 33:52.74 | 6:24.39 | 152474 | 181312


Range status and errors

Selected range

Filename H:\MUSIC\1984. John Illsley - Never Told A Soul (Creek CREEKCD04, EU)\John Illsley - Never Told A Soul.wav

Peak level 97.3 %
Extraction speed 5.3 X
Range quality 100.0 %
Test CRC 20A30B80
Copy CRC 20A30B80
Copy OK

No errors occurred


AccurateRip summary

Track 1 cannot be verified as accurate (confidence 1) [489E7BC9], AccurateRip returned [154004F4] (AR v2)
Track 2 cannot be verified as accurate (confidence 1) [CEB94341], AccurateRip returned [45F875ED] (AR v2)
Track 3 cannot be verified as accurate (confidence 1) [CE7F1BF3], AccurateRip returned [77AD88F0] (AR v2)
Track 4 cannot be verified as accurate (confidence 1) [51E14301], AccurateRip returned [2376C2C3] (AR v2)
Track 5 cannot be verified as accurate (confidence 1) [A7F2BE70], AccurateRip returned [D29FD409] (AR v2)
Track 6 cannot be verified as accurate (confidence 1) [0745E468], AccurateRip returned [B0AF3AE5] (AR v2)
Track 7 cannot be verified as accurate (confidence 1) [A6C22A45], AccurateRip returned [31FCDE31] (AR v2)

No tracks could be verified as accurate
You may have a different pressing from the one(s) in the database

End of status report

==== Log checksum D6C5B9A60A809B806278A4424467DA540AE0DDBB5A25C191A59EA805A6F23A97 ====

[CUETools log; Date: 09.07.2017 3:52:59; Version: 2.1.4]
[CTDB TOCID: bVz31SbPniQc1mCoADa5tVZQk0s-] found.
Track | CTDB Status
1 | (6/6) Accurately ripped
2 | (6/6) Accurately ripped
3 | (6/6) Accurately ripped
4 | (6/6) Accurately ripped
5 | (6/6) Accurately ripped
6 | (6/6) Accurately ripped
7 | (6/6) Accurately ripped
[AccurateRip ID: 000aa4ea-0040afa3-52097107] found.
Track [ CRC | V2 ] Status
01 [8fdc7621|489e7bc9] (0+0/5) No match
02 [eeed4edc|ceb94341] (0+0/5) No match
03 [3a0819ea|ce7f1bf3] (0+0/5) No match
04 [ff05f640|51e14301] (0+0/5) No match
05 [2383f702|a7f2be70] (0+0/4) No match
06 [91c06e1d|0745e468] (0+0/5) No match
07 [c9853a06|a6c22a45] (0+0/4) No match
Offsetted by 18:
01 [5d3d012c] (0/5) No match (V2 was not tested)
02 [687da88f] (0/5) No match (V2 was not tested)
03 [ea71e4bb] (0/5) No match (V2 was not tested)
04 [d72a5e85] (0/5) No match (V2 was not tested)
05 [4e237876] (0/4) No match (V2 was not tested)
06 [3c811b19] (0/5) No match (V2 was not tested)
07 [5d994a88] (0/4) No match (V2 was not tested)

Track Peak [ CRC32 ] [W/O NULL] [ LOG ]
– 97,3 [20A30B80] [DA2ACF7D] CRC32
01 87,4 [C3FD90D4] [EA21CA29]
02 91,5 [30010E94] [DFB50B8D]
03 97,3 [685BECA2] [9E7D483E]
04 81,4 [964B8592] [92B4A3DA]
05 90,2 [30F0A35E] [8F128D66]
06 80,6 [7E6AED93] [1BB0ECC6]
07 88,1 [B2453753] [55FB0D70]

foobar2000 1.2 / Dynamic Range Meter 1.1.1
log date: 2017-07-09 03:49:16

––––––––––––––––––––––––––––––––––––––––
Analyzed: John Illsley / Never Told A Soul
––––––––––––––––––––––––––––––––––––––––

DR Peak RMS Duration Track
––––––––––––––––––––––––––––––––––––––––
DR13 -1.16 dB -16.47 dB 5:05 01-Boy With Chinese Eyes
DR12 -0.77 dB -14.11 dB 4:57 02-The Night Cafe
DR13 -0.23 dB -18.18 dB 5:45 03-Never Told A Soul
DR12 -1.78 dB -16.75 dB 4:43 04-Jimmy On The Central Line
DR12 -0.89 dB -17.72 dB 8:57 05-Northern Land
DR13 -1.87 dB -18.84 dB 4:27 06-Another Alibi
DR12 -1.10 dB -16.44 dB 6:25 07-Let The River Flow
––––––––––––––––––––––––––––––––––––––––

Number of tracks: 7
Official DR value: DR12

Samplerate: 44100 Hz
Channels: 2
Bits per sample: 16
Bitrate: 805 kbps
Codec: FLAC
================================================================================


Original releaser: snakesharmer



John Illsley (Ex-Dire Straits) - Solo Albums Collection 1984-2014 (6CD) [Re-Up]

John Illsley - Glass (1988) [Reissue 2009]
EAC | FLAC | Image (Cue&Log) ~ 250 Mb | Mp3 (CBR320) ~ 107 Mb
Label: Creek Records | # CREEKCD3 | 00:46:58 | Scans ~ 35 Mb

Glass sees John Illsley emerge as a vocalist and guitarist to complement his talent as a bass player, notably with Dire Straits. Nine original compositions see a further development in his songwriting.

Tracklist:

01. High Stakes (4:36)
02. I Want To See The Moon (4:49)
03. Papermen (4:29)
04. All I Want Is You (4:51)
05. The World Is Made Of Glass (5:33)
06. Red Turns To Blue (7:22)
07. Let's Dance (5:10)
08. She Wants Everything (4:59)
09. Star For Now (5:09)


Exact Audio Copy V1.0 beta 3 from 29. August 2011

EAC extraction logfile from 5. September 2014, 20:29

John Illsley / Glass

Used drive : ASUS SDRW-08D1S-U Adapter: 1 ID: 0

Read mode : Secure
Utilize accurate stream : Yes
Defeat audio cache : Yes
Make use of C2 pointers : No

Read offset correction : 667
Overread into Lead-In and Lead-Out : No
Fill up missing offset samples with silence : Yes
Delete leading and trailing silent blocks : No
Null samples used in CRC calculations : Yes
Used interface : Native Win32 interface for Win NT & 2000

Used output format : User Defined Encoder
Selected bitrate : 128 kBit/s
Quality : High
Add ID3 tag : No
Command line compressor : C:\Program Files (x86)\Exact Audio Copy\Flac\flac.exe
Additional command line options : -V -8 -T "Date=%year%" -T "Genre=%genre%" %source%


TOC of the extracted CD

Track | Start | Length | Start sector | End sector
––––––––––––––––––––––––––––-
1 | 0:00.00 | 4:36.26 | 0 | 20725
2 | 4:36.26 | 4:48.61 | 20726 | 42386
3 | 9:25.12 | 4:28.40 | 42387 | 62526
4 | 13:53.52 | 4:51.33 | 62527 | 84384
5 | 18:45.10 | 5:32.40 | 84385 | 109324
6 | 24:17.50 | 7:22.35 | 109325 | 142509
7 | 31:40.10 | 5:10.24 | 142510 | 165783
8 | 36:50.34 | 4:58.55 | 165784 | 188188
9 | 41:49.14 | 5:08.44 | 188189 | 211332


Range status and errors

Selected range

Filename C:\Users\Олег\Desktop\John Illsley - Glass.wav

Peak level 82.0 %
Extraction speed 3.1 X
Range quality 100.0 %
Test CRC ED5C7337
Copy CRC ED5C7337
Copy OK

No errors occurred


AccurateRip summary

Track 1 cannot be verified as accurate (confidence 1) [CF7F64DB], AccurateRip returned [018EC162] (AR v2)
Track 2 cannot be verified as accurate (confidence 1) [6D0B1C44], AccurateRip returned [0CD5C76F] (AR v2)
Track 3 cannot be verified as accurate (confidence 1) [6BE0E1A3], AccurateRip returned [D335305F] (AR v2)
Track 4 cannot be verified as accurate (confidence 1) [807AD563], AccurateRip returned [A1D855FB] (AR v2)
Track 5 cannot be verified as accurate (confidence 1) [E6929D1E], AccurateRip returned [9FF8C0DC] (AR v2)
Track 6 cannot be verified as accurate (confidence 1) [AA282154], AccurateRip returned [32AAF307] (AR v2)
Track 7 cannot be verified as accurate (confidence 1) [1D144BC3], AccurateRip returned [07DD51F5] (AR v2)
Track 8 cannot be verified as accurate (confidence 1) [F2D48C98], AccurateRip returned [52FBA371] (AR v2)
Track 9 cannot be verified as accurate (confidence 1) [383E0F14], AccurateRip returned [16B1598D] (AR v2)

No tracks could be verified as accurate
You may have a different pressing from the one(s) in the database

End of status report

==== Log checksum AED10BE3B223F46B7216241897E806724097B4797048A5FE5894531A6FFC685B ====

[CUETools log; Date: 09.07.2017 3:53:10; Version: 2.1.4]
[CTDB TOCID: bg71vfWe2McdKcKiXp4rRkLI0ZM-] found.
Track | CTDB Status
1 | (6/6) Accurately ripped
2 | (6/6) Accurately ripped
3 | (6/6) Accurately ripped
4 | (6/6) Accurately ripped
5 | (6/6) Accurately ripped
6 | (6/6) Accurately ripped
7 | (6/6) Accurately ripped
8 | (6/6) Accurately ripped
9 | (6/6) Accurately ripped
[AccurateRip ID: 000fac5e-007462ce-6f0b0109] found.
Track [ CRC | V2 ] Status
01 [81b8c530|cf7f64db] (0+6/6) Accurately ripped
02 [c78192c5|6d0b1c44] (0+6/6) Accurately ripped
03 [1fcc2b14|6be0e1a3] (0+6/6) Accurately ripped
04 [cb97c62c|807ad563] (0+6/6) Accurately ripped
05 [4dcaa87c|e6929d1e] (0+6/6) Accurately ripped
06 [f81c1b8c|aa282154] (0+6/6) Accurately ripped
07 [f5fd48b9|1d144bc3] (0+6/6) Accurately ripped
08 [c56583b0|f2d48c98] (0+6/6) Accurately ripped
09 [56a2d219|383e0f14] (0+6/6) Accurately ripped

Track Peak [ CRC32 ] [W/O NULL] [ LOG ]
– 82,0 [ED5C7337] [B0A1A505] CRC32
01 81,5 [F3CA5E00] [A25C4401]
02 81,7 [79F06D06] [9AC21880]
03 82,0 [11C893AB] [C741BB31]
04 63,6 [489F232F] [474CBD78]
05 44,0 [EAE9370E] [35DC88F0]
06 80,0 [A2294800] [CD1BFC65]
07 81,2 [996DA999] [21D2E512]
08 74,6 [65374DBC] [3EC4AA3B]
09 47,3 [99A8CF37] [65D240A0]

foobar2000 1.2 / Dynamic Range Meter 1.1.1
log date: 2017-07-09 03:49:35

––––––––––––––––––––––––––––––––––––––––
Analyzed: John Illsley / Glass
––––––––––––––––––––––––––––––––––––––––

DR Peak RMS Duration Track
––––––––––––––––––––––––––––––––––––––––
DR13 -1.77 dB -18.01 dB 4:36 01-High Stakes
DR14 -1.75 dB -19.26 dB 4:49 02-I Want To See The Moon
DR14 -1.72 dB -18.03 dB 4:29 03-Papermen
DR14 -3.92 dB -20.51 dB 4:51 04-All I Want Is You
DR13 -7.12 dB -22.70 dB 5:33 05-The World Is Made Of Glass
DR13 -1.94 dB -19.08 dB 7:22 06-Red Turns To Blue
DR14 -1.81 dB -18.66 dB 5:10 07-Let's Dance
DR13 -2.54 dB -20.40 dB 4:59 08-She Wants Everything
DR13 -6.50 dB -22.25 dB 5:09 09-Star For Now
––––––––––––––––––––––––––––––––––––––––

Number of tracks: 9
Official DR value: DR13

Samplerate: 44100 Hz
Channels: 2
Bits per sample: 16
Bitrate: 745 kbps
Codec: FLAC
================================================================================


Original releaser: Alex Fal



John Illsley (Ex-Dire Straits) - Solo Albums Collection 1984-2014 (6CD) [Re-Up]

Greg Pearle & John Illsley - Beautiful You (2008)
EAC | FLAC | Image (Cue&Log) ~ 284 Mb | Mp3 (CBR320) ~ 110 Mb
Label: Creek Records | # CREEKCD2 | 00:48:12 | Scans ~ 136 Mb

Beautiful You is the result of a two-year collaboration between John Illsley, and Irish singer-songwriter Greg Pearle. The album also features the talents of Paul Brady, Guy Fletcher and Chris White.

Tracklist:

01. Secret Garden (3:49)
02. Shine (3:55)
03. One (5:25)
04. Demons (4:32)
05. Loving You (4:00)
06. Beautiful You (3:04)
07. Love Let Me Breathe (4:54)
08. Got No Plans (5:12)
09. Crazy Kind Of Life (4:59)
10. I Believe (3:50)
11. Precious (4:33)


Exact Audio Copy V1.0 beta 3 from 29. August 2011

EAC extraction logfile from 18. July 2014, 12:31

Greg Pearle & John Illsley / Beautiful You

Used drive : ASUS DRW-24B1ST Adapter: 2 ID: 1

Read mode : Secure
Utilize accurate stream : Yes
Defeat audio cache : Yes
Make use of C2 pointers : No

Read offset correction : 6
Overread into Lead-In and Lead-Out : No
Fill up missing offset samples with silence : Yes
Delete leading and trailing silent blocks : No
Null samples used in CRC calculations : Yes
Used interface : Native Win32 interface for Win NT & 2000

Used output format : User Defined Encoder
Selected bitrate : 768 kBit/s
Quality : High
Add ID3 tag : No
Command line compressor : C:\Program Files\FLAC Frontend\tools\flac.exe
Additional command line options : -V -8 -T "Date=%year%" -T "Genre=%genre%" %source%


TOC of the extracted CD

Track | Start | Length | Start sector | End sector
––––––––––––––––––––––––––––-
1 | 0:00.00 | 3:49.16 | 0 | 17190
2 | 3:49.16 | 3:54.40 | 17191 | 34780
3 | 7:43.56 | 5:25.17 | 34781 | 59172
4 | 13:08.73 | 4:32.12 | 59173 | 79584
5 | 17:41.10 | 4:00.08 | 79585 | 97592
6 | 21:41.18 | 3:03.51 | 97593 | 111368
7 | 24:44.69 | 4:54.09 | 111369 | 133427
8 | 29:39.03 | 5:11.73 | 133428 | 156825
9 | 34:51.01 | 4:59.19 | 156826 | 179269
10 | 39:50.20 | 3:49.38 | 179270 | 196482
11 | 43:39.58 | 4:32.54 | 196483 | 216936


Range status and errors

Selected range

Filename D:\John Illsley\(2008) Beautiful You\Greg Pearle & John Illsley - Beautiful You.wav

Peak level 96.8 %
Extraction speed 8.3 X
Range quality 100.0 %
Test CRC F5149768
Copy CRC F5149768
Copy OK

No errors occurred


AccurateRip summary

Track 1 accurately ripped (confidence 1) [E1D07719] (AR v2)
Track 2 accurately ripped (confidence 1) [DBA40AD7] (AR v2)
Track 3 accurately ripped (confidence 1) [17981340] (AR v2)
Track 4 accurately ripped (confidence 1) [99811467] (AR v2)
Track 5 accurately ripped (confidence 1) [0181217F] (AR v2)
Track 6 accurately ripped (confidence 1) [8C05CE40] (AR v2)
Track 7 accurately ripped (confidence 1) [F244EA49] (AR v2)
Track 8 accurately ripped (confidence 1) [C8C26B71] (AR v2)
Track 9 accurately ripped (confidence 1) [23AC45F3] (AR v2)
Track 10 accurately ripped (confidence 1) [FDD3D6E0] (AR v2)
Track 11 accurately ripped (confidence 1) [0ACE9FC0] (AR v2)

All tracks accurately ripped

End of status report

==== Log checksum A8F512DF5087BBFA00D4A1849F6F50B9881695C365C78108DD238D631B07E1AA ====

[CUETools log; Date: 09.07.2017 3:53:22; Version: 2.1.4]
[CTDB TOCID: DVEA86EJWB6ikUPZUbHsce8YPg0-] found.
Track | CTDB Status
1 | (6/7) Accurately ripped
2 | (5/7) Accurately ripped
3 | (5/7) Accurately ripped
4 | (5/7) Accurately ripped
5 | (5/7) Accurately ripped
6 | (5/7) Accurately ripped
7 | (5/7) Accurately ripped
8 | (5/7) Accurately ripped
9 | (5/7) Accurately ripped
10 | (5/7) Accurately ripped
11 | (5/7) Accurately ripped
[AccurateRip ID: 0013924c-00aa82c7-850b4c0b] found.
Track [ CRC | V2 ] Status
01 [30be7584|e1d07719] (0+3/3) Accurately ripped
02 [b3fc0b51|dba40ad7] (0+3/3) Accurately ripped
03 [2615c4c9|17981340] (0+3/3) Accurately ripped
04 [4e1f7174|99811467] (0+3/3) Accurately ripped
05 [54463e71|0181217f] (0+3/3) Accurately ripped
06 [32214dab|8c05ce40] (0+3/3) Accurately ripped
07 [0125d629|f244ea49] (0+3/3) Accurately ripped
08 [1afbfc56|c8c26b71] (0+3/3) Accurately ripped
09 [1835de1f|23ac45f3] (0+3/3) Accurately ripped
10 [80f8c665|fdd3d6e0] (0+3/3) Accurately ripped
11 [298f0cbc|0ace9fc0] (0+3/3) Accurately ripped

Track Peak [ CRC32 ] [W/O NULL] [ LOG ]
– 96,8 [F5149768] [11C80771] CRC32
01 96,7 [1781771B] [52FC89BA]
02 96,7 [8E282AA7] [B0A56F45]
03 96,7 [98C07265] [AADD7EC9]
04 96,8 [7E628DE5] [1253DD3C]
05 96,7 [83860E43] [004272A4]
06 96,6 [2A4B0076] [AA9C4919]
07 96,7 [172DFFEC] [B66318A3]
08 96,7 [DA894003] [9F24B43F]
09 96,7 [55617CAA] [BDB887B8]
10 96,7 [4CCED13A] [BD554EFE]
11 96,7 [CFCF693F] [23388B6B]

foobar2000 1.2 / Dynamic Range Meter 1.1.1
log date: 2017-07-09 03:49:58

––––––––––––––––––––––––––––––––––––––––
Analyzed: Greg Pearle & John Illsley / Beautiful You
––––––––––––––––––––––––––––––––––––––––

DR Peak RMS Duration Track
––––––––––––––––––––––––––––––––––––––––
DR8 -0.28 dB -10.18 dB 3:49 01-Secret Garden
DR6 -0.28 dB -8.10 dB 3:55 02-Shine
DR7 -0.28 dB -9.14 dB 5:25 03-One
DR6 -0.28 dB -8.60 dB 4:32 04-Demons
DR8 -0.29 dB -11.07 dB 4:00 05-Loving You
DR11 -0.29 dB -13.04 dB 3:04 06-Beautiful You
DR7 -0.29 dB -9.80 dB 4:54 07-Love Let Me Breathe
DR8 -0.29 dB -10.06 dB 5:12 08-Got No Plans
DR7 -0.28 dB -9.30 dB 4:59 09-Crazy Kind Of Life
DR7 -0.28 dB -10.35 dB 3:50 10-I Believe
DR8 -0.29 dB -9.94 dB 4:33 11-Precious
––––––––––––––––––––––––––––––––––––––––

Number of tracks: 11
Official DR value: DR8

Samplerate: 44100 Hz
Channels: 2
Bits per sample: 16
Bitrate: 825 kbps
Codec: FLAC
================================================================================


Original releaser: Camerado



John Illsley (Ex-Dire Straits) - Solo Albums Collection 1984-2014 (6CD) [Re-Up]

John Illsley - Streets Of Heaven (2010)
EAC | FLAC | Image (Cue&Log) ~ 304 Mb | Mp3 (CBR320) ~ 110 Mb
Label: Creek Records | # CREEKCD7 | 00:48:12 | Scans ~ 146 Mb

John Illsley has been called 'the engine room' of Dire Straits. It's an apt description. He was the co-founder of the band and whilst he wasn't necessarily in the limelight, his contribution to the sound and feel of the band and their music is undeniable. 11 tracks in all, this new album was recorded in London and is produced by Guy Fletcher together with John. It features a terrific musical line-up, an Irish rhythm section and a certain Mark Knopfler guesting on two of the tracks. Streets Of Heaven is a very personal album that deals with family, friends and personal events.

If you're missing Dire Straits—and who isn't? — then co-founder John Illsley's solo work is a good resort. When his debut Glass came out, I got it and liked it but wasn't particularly bowled over; just a good LP with quite listenable tracks and a favorable feel. Well, since then, he's been polishing the traits that made him indispensable in DS but also pushing the borders out to broaden his mellifluous wont. The damped-down Mexicalii brass in Tell Me, for instance, is a great touch, touring Herb Alpert through Madrid to get a distant bullfighting vibe mixed with sultry Mediterrannean warmth.

Illsley's voice here also takes on new dimensions, a cross between exposition and poetry, and not without a bit of the baroque here and there either, as in Streets of Heaven. One thing, though, becomes crystal clear: in Straits, Mark Knopfler's was the energy and sun while Illsley provided the moody mellifuity and lament. The combination of the two was what imbued the legendary band with its unique sound so attractive over many years, to so many ears, and for an enduring chart history. And Knopfler here dropped in for a couple of cuts, though much restrained each time out.

Streets of Heaven is perhaps somewhat misnamed, as there's actually a grey limbo feel to everything, a preternaturally purgatorial fog subduing into the blues-folk trademark that signals so much of Illsley's material, guaranteeing the listener that beautifully effulgent heartbreak we listener-dramaturges love to pine over. Thus, Streets marks the perfection of his slowly evolving trek to exactly this set of statements. More, it seems to mark the beginning of what should, hopefully, re-establish the gent as a worthy chart competitor and renew the old Dire Straits sound, because, now more than ever, the singer-player-songwriter has reshaped what brought he and Knopfler together in the first place. Mark may be going in new directions (soundtrack work, etc.), but John has re-invented the venerable old group, and I'm betting there's still a strong place in the market for it.

Mark S. Tucker, AcousticMusic.com

Tracklist:

01. Toe The Line (4:12)
02. Tell Me (4:43)
03. Streets Of Heaven (4:23)
04. Young Girl (3:21)
05. Only Time Will Tell (4:26)
06. Banks Of The River (4:15)
07. No Way To Say Goodbye (4:33)
08. I Thought I Saw It Coming (4:48)
09. Is It Real (4:21)
10. Big Top (4:21)
11. Foreign Land (4:47)


Exact Audio Copy V1.0 beta 3 from 29. August 2011

EAC extraction logfile from 9. May 2014, 15:05

John Illsley / Streets of Heaven

Used drive : PLEXTOR DVDR PX-891SA Adapter: 0 ID: 2

Read mode : Secure
Utilize accurate stream : Yes
Defeat audio cache : Yes
Make use of C2 pointers : No

Read offset correction : 6
Overread into Lead-In and Lead-Out : No
Fill up missing offset samples with silence : Yes
Delete leading and trailing silent blocks : No
Null samples used in CRC calculations : Yes
Used interface : Installed external ASPI interface

Used output format : User Defined Encoder
Selected bitrate : 320 kBit/s
Quality : High
Add ID3 tag : No
Command line compressor : C:\Program Files\Exact Audio Copy 1.0\Flac\flac.exe
Additional command line options : -V -8 -T "Date=%year%" -T "Genre=%genre%" %source%


TOC of the extracted CD

Track | Start | Length | Start sector | End sector
––––––––––––––––––––––––––––-
1 | 0:00.00 | 4:11.63 | 0 | 18887
2 | 4:11.63 | 4:43.35 | 18888 | 40147
3 | 8:55.23 | 4:23.11 | 40148 | 59883
4 | 13:18.34 | 3:20.47 | 59884 | 74930
5 | 16:39.06 | 4:26.11 | 74931 | 94891
6 | 21:05.17 | 4:15.31 | 94892 | 114047
7 | 25:20.48 | 4:33.31 | 114048 | 134553
8 | 29:54.04 | 4:48.14 | 134554 | 156167
9 | 34:42.18 | 4:21.08 | 156168 | 175750
10 | 39:03.26 | 4:20.57 | 175751 | 195307
11 | 43:24.08 | 4:47.32 | 195308 | 216864


Range status and errors

Selected range

Filename K:\Lossless Temp\John Illsley\John Illsley - Streets of Heaven - 2010 (2010 Creek Records, CREEKCD 7, E.U.)\John Illsley - Streets of Heaven.wav

Peak level 100.0 %
Extraction speed 6.0 X
Range quality 100.0 %
Test CRC 5E9A111A
Copy CRC 5E9A111A
Copy OK

No errors occurred


AccurateRip summary

Track 1 accurately ripped (confidence 5) [7C35D8BB] (AR v2)
Track 2 accurately ripped (confidence 5) [51B6D934] (AR v2)
Track 3 accurately ripped (confidence 5) [566FAD9F] (AR v2)
Track 4 accurately ripped (confidence 6) [4206F7B2] (AR v2)
Track 5 accurately ripped (confidence 5) [3EF029E9] (AR v2)
Track 6 accurately ripped (confidence 5) [F14AC491] (AR v2)
Track 7 accurately ripped (confidence 5) [42310508] (AR v2)
Track 8 accurately ripped (confidence 5) [C8284914] (AR v2)
Track 9 accurately ripped (confidence 5) [F0535728] (AR v2)
Track 10 accurately ripped (confidence 5) [856718B8] (AR v2)
Track 11 accurately ripped (confidence 5) [7431B875] (AR v2)

All tracks accurately ripped

End of status report

==== Log checksum D831A15405BF3D23559A75290D8BD5ACDFF30ADF64643689CF99778C21542A91 ====

[CUETools log; Date: 09.07.2017 3:53:35; Version: 2.1.4]
[CTDB TOCID: K7CBk4W8vfXOm1ZyeRX3nZmE4z0-] found.
Track | CTDB Status
1 | (16/30) Accurately ripped
2 | (16/30) Accurately ripped
3 | (16/30) Accurately ripped
4 | (16/30) Accurately ripped
5 | (16/30) Accurately ripped
6 | (16/30) Accurately ripped
7 | (16/30) Accurately ripped
8 | (16/30) Accurately ripped
9 | (16/30) Accurately ripped
10 | (16/30) Accurately ripped
11 | (16/30) Accurately ripped
[AccurateRip ID: 00138d9d-00a9d5d2-800b4b0b] found.
Track [ CRC | V2 ] Status
01 [caeba431|7c35d8bb] (06+13/28) Accurately ripped
02 [5c39489f|51b6d934] (06+13/28) Accurately ripped
03 [781a65ac|566fad9f] (06+13/28) Accurately ripped
04 [2e1a4f91|4206f7b2] (06+14/29) Accurately ripped
05 [e5e4f8e0|3ef029e9] (06+13/28) Accurately ripped
06 [ac69876e|f14ac491] (06+13/28) Accurately ripped
07 [c2e1e389|42310508] (06+13/28) Accurately ripped
08 [394094e0|c8284914] (06+13/28) Accurately ripped
09 [bc193262|f0535728] (06+13/28) Accurately ripped
10 [a7b999ef|856718b8] (06+13/28) Accurately ripped
11 [339ba785|7431b875] (06+14/29) Accurately ripped

Track Peak [ CRC32 ] [W/O NULL] [ LOG ]
– 100,0 [5E9A111A] [FC87EDA1] CRC32
01 100,0 [D3B027FF] [FF6FA543]
02 96,2 [1D74810B] [C78D34DD]
03 95,7 [39D4C058] [C7AB2C11]
04 98,1 [49A49850] [E37AFE94]
05 96,3 [42E3C907] [01C8304C]
06 98,4 [72ABEBEB] [D883963B]
07 97,3 [19A6BA1E] [CFCCF8D7]
08 98,0 [24422E8A] [A1B1B3DB]
09 100,0 [954C5A5B] [3035039D]
10 100,0 [9393143B] [162D83F0]
11 100,0 [5A45B95A] [1CD11A0B]

foobar2000 1.2 / Dynamic Range Meter 1.1.1
log date: 2017-07-09 03:50:20

––––––––––––––––––––––––––––––––––––––––
Analyzed: John Illsley / Streets Of Heaven
––––––––––––––––––––––––––––––––––––––––

DR Peak RMS Duration Track
––––––––––––––––––––––––––––––––––––––––
DR7 0.00 dB -8.40 dB 4:12 01-Toe The Line
DR7 -0.34 dB -9.10 dB 4:43 02-Tell Me
DR8 -0.38 dB -10.02 dB 4:23 03-Streets Of Heaven
DR8 -0.16 dB -10.18 dB 3:21 04-Young Girl
DR8 -0.32 dB -10.20 dB 4:26 05-Only Time Will Tell
DR7 -0.14 dB -8.60 dB 4:15 06-Banks Of The River
DR8 -0.23 dB -10.60 dB 4:33 07-No Way To Say Goodbye
DR7 -0.17 dB -8.88 dB 4:48 08-I Thought I Saw It Coming
DR7 0.00 dB -8.65 dB 4:21 09-Is It Real
DR8 0.00 dB -9.93 dB 4:21 10-Big Top
DR8 0.00 dB -9.61 dB 4:47 11-Foreign Land
––––––––––––––––––––––––––––––––––––––––

Number of tracks: 11
Official DR value: DR8

Samplerate: 44100 Hz
Channels: 2
Bits per sample: 16
Bitrate: 883 kbps
Codec: FLAC
================================================================================


Original releaser: Swamp Fox



John Illsley (Ex-Dire Straits) - Solo Albums Collection 1984-2014 (6CD) [Re-Up]

John Illsley - Live In London (2014)
EAC | FLAC | Image (Cue&Log) ~ 471 Mb | Mp3 (CBR320) ~ 170 Mb
Label: Creek Records | # CREEKCD14 | 01:14:12 | Scans ~ 150 Mb

Multiple Brit & Grammy award winner and founder member of Dire Straits, John Illsley follows his studio album 'Testing the Water' with this splendid live album recorded in 2014 at the Half Moon in Putney, London! "Live in London" includes no less than seven Dire Straits hits like "Sultans of Swing", "Romeo and Juliet" and "Money for Nothing". Plus great versions of Leonard Cohen's "First We Take Manhattan" and Roger Water's "Another Brick in the Wall". John includes several of his own songs which have appeared on his solo albums like 'Streets of Heaven' and 'Testing the Water'.

Tracklist:

01. Toe The Line (4:03)
02. Walk Of Life (4:22)
03. Once Upon A Time In The West (4:28)
04. Private Investigations (5:24)
05. Young Girl (3:07)
06. Sultans Of Swing (7:32)
07. First We Take Manhattan (5:01)
08. Another Brick In The Wall (3:56)
09. Streets Of Heaven (4:27)
10. I Thought I Saw It Coming (4:28)
11. Romeo And Juliet (6:42)
12. When God Made Time (4:08)
13. Is It Real (4:15)
14. Brothers In Arms (6:25)
15. Money For Nothing (5:52)


Exact Audio Copy V1.0 beta 6 from 9. April 2015

EAC extraction logfile from 22. April 2015, 14:00

John Illsley / Live In London

Used drive : PLEXTOR DVDR PX-891SA Adapter: 0 ID: 2

Read mode : Secure
Utilize accurate stream : Yes
Defeat audio cache : Yes
Make use of C2 pointers : No

Read offset correction : 6
Overread into Lead-In and Lead-Out : No
Fill up missing offset samples with silence : Yes
Delete leading and trailing silent blocks : No
Null samples used in CRC calculations : Yes
Used interface : Installed external ASPI interface

Used output format : User Defined Encoder
Selected bitrate : 320 kBit/s
Quality : High
Add ID3 tag : No
Command line compressor : C:\Program Files\Exact Audio Copy 1.0 b6\Exact Audio Copy\Flac\flac.exe
Additional command line options : -V -8 -T "Date=%year%" -T "Genre=%genre%" %source%


TOC of the extracted CD

Track | Start | Length | Start sector | End sector
––––––––––––––––––––––––––––-
1 | 0:00.00 | 4:03.25 | 0 | 18249
2 | 4:03.25 | 4:22.20 | 18250 | 37919
3 | 8:25.45 | 4:27.68 | 37920 | 58012
4 | 12:53.38 | 5:24.35 | 58013 | 82347
5 | 18:17.73 | 3:07.05 | 82348 | 96377
6 | 21:25.03 | 7:31.73 | 96378 | 130275
7 | 28:57.01 | 5:01.07 | 130276 | 152857
8 | 33:58.08 | 3:56.06 | 152858 | 170563
9 | 37:54.14 | 4:27.06 | 170564 | 190594
10 | 42:21.20 | 4:28.03 | 190595 | 210697
11 | 46:49.23 | 6:42.19 | 210698 | 240866
12 | 53:31.42 | 4:07.41 | 240867 | 259432
13 | 57:39.08 | 4:14.74 | 259433 | 278556
14 | 61:54.07 | 6:25.34 | 278557 | 307465
15 | 68:19.41 | 5:52.23 | 307466 | 333888


Range status and errors

Selected range

Filename L:\Lossless Temp\John Illsley\2014. John Illsley - Live In London (Creek Touring Records LLP, CREEKCD14, E.U.)\John Illsley - Live In London.wav

Peak level 99.2 %
Extraction speed 9.1 X
Range quality 100.0 %
Test CRC F319DC14
Copy CRC F319DC14
Copy OK

No errors occurred


AccurateRip summary

Track 1 cannot be verified as accurate (confidence 2) [646CBFEC], AccurateRip returned [4631F421] (AR v2)
Track 2 cannot be verified as accurate (confidence 2) [3CEFD732], AccurateRip returned [0D5C4CDC] (AR v2)
Track 3 cannot be verified as accurate (confidence 2) [C2FF82EC], AccurateRip returned [6E041ADD] (AR v2)
Track 4 cannot be verified as accurate (confidence 2) [19C83C91], AccurateRip returned [A2163181] (AR v2)
Track 5 cannot be verified as accurate (confidence 2) [BC22AB07], AccurateRip returned [ED2E7DF9] (AR v2)
Track 6 cannot be verified as accurate (confidence 2) [FF78F9F4], AccurateRip returned [D0CC55B6] (AR v2)
Track 7 cannot be verified as accurate (confidence 2) [203CF6D6], AccurateRip returned [FF1D13FB] (AR v2)
Track 8 cannot be verified as accurate (confidence 2) [C730A5B1], AccurateRip returned [97D1FD45] (AR v2)
Track 9 cannot be verified as accurate (confidence 2) [ADB242D6], AccurateRip returned [434139FA] (AR v2)
Track 10 cannot be verified as accurate (confidence 2) [A4089500], AccurateRip returned [A283D43A] (AR v2)
Track 11 cannot be verified as accurate (confidence 2) [29060B70], AccurateRip returned [14DC4FF0] (AR v2)
Track 12 cannot be verified as accurate (confidence 2) [4EC0FE74], AccurateRip returned [279F2176] (AR v2)
Track 13 cannot be verified as accurate (confidence 2) [1C0E9C81], AccurateRip returned [4361DA4D] (AR v2)
Track 14 cannot be verified as accurate (confidence 2) [5BB96189], AccurateRip returned [3AA62023] (AR v2)
Track 15 cannot be verified as accurate (confidence 2) [903A0DB8], AccurateRip returned [30937D87] (AR v2)

No tracks could be verified as accurate
You may have a different pressing from the one(s) in the database

End of status report

==== Log checksum 4D8EF02FEF5F62CF68EFF0E14D13BA53718FC0261EF017EE8C3FEE0B2AFD7EBE ====

[CUETools log; Date: 09.07.2017 3:53:55; Version: 2.1.4]
[CTDB TOCID: pY6Yra5CEqbpzsgfAYtNIlIKqFs-] found.
Track | CTDB Status
1 | (33/34) Accurately ripped
2 | (32/34) Accurately ripped
3 | (33/34) Accurately ripped
4 | (33/34) Accurately ripped
5 | (33/34) Accurately ripped
6 | (33/34) Accurately ripped
7 | (33/34) Accurately ripped
8 | (33/34) Accurately ripped
9 | (33/34) Accurately ripped
10 | (33/34) Accurately ripped
11 | (32/34) Accurately ripped
12 | (33/34) Accurately ripped
13 | (33/34) Accurately ripped
14 | (33/34) Accurately ripped
15 | (33/34) Accurately ripped
[AccurateRip ID: 00272fb0-01c058d2-c411630f] found.
Track [ CRC | V2 ] Status
01 [0c185dcf|646cbfec] (0+6/8) Accurately ripped
02 [2213962f|3cefd732] (0+7/9) Accurately ripped
03 [49cc1286|c2ff82ec] (0+7/9) Accurately ripped
04 [580a5ff9|19c83c91] (0+7/9) Accurately ripped
05 [d8130a35|bc22ab07] (0+7/9) Accurately ripped
06 [643f317b|ff78f9f4] (0+7/9) Accurately ripped
07 [5d833338|203cf6d6] (0+7/9) Accurately ripped
08 [f75db09e|c730a5b1] (0+7/9) Accurately ripped
09 [265ecff1|adb242d6] (0+6/8) Accurately ripped
10 [90fd9424|a4089500] (0+7/9) Accurately ripped
11 [6a97a9d0|29060b70] (0+7/9) Accurately ripped
12 [60ac43eb|4ec0fe74] (0+6/8) Accurately ripped
13 [e6922864|1c0e9c81] (0+7/9) Accurately ripped
14 [84a369d4|5bb96189] (0+6/8) Accurately ripped
15 [3be16073|903a0db8] (0+6/8) Accurately ripped
Offsetted by -12:
01 [ef0f6a5f] (0/8) No match (V2 was not tested)
02 [f335c0f5] (0/9) No match (V2 was not tested)
03 [f9020495] (0/9) No match (V2 was not tested)
04 [e47f9aca] (0/9) No match (V2 was not tested)
05 [0bfe6020] (0/9) No match (V2 was not tested)
06 [2f206a07] (0/9) No match (V2 was not tested)
07 [3d184e12] (0/9) No match (V2 was not tested)
08 [ca73f076] (0/9) No match (V2 was not tested)
09 [bc9a61a1] (0/8) No match (V2 was not tested)
10 [8b36aa3f] (0/9) No match (V2 was not tested)
11 [500c94eb] (0/9) No match (V2 was not tested)
12 [3d4c7e80] (0/8) No match (V2 was not tested)
13 [0a0cc2d7] (0/9) No match (V2 was not tested)
14 [6989b60c] (0/8) No match (V2 was not tested)
15 [dc451563] (0/8) No match (V2 was not tested)

Track Peak [ CRC32 ] [W/O NULL] [ LOG ]
– 99,2 [F319DC14] [49F188D5] CRC32
01 98,8 [CCC0F138] [CCF2248C]
02 98,8 [B7240EE4] [55569C95]
03 98,8 [5B4D9D95] [840CB646]
04 98,8 [5ED65D56] [B5530D62]
05 99,2 [26B59DD4] [F634686C]
06 98,8 [1707B562] [6B0F421B]
07 98,8 [415D5F21] [53F71A0C]
08 98,8 [6EDEE445] [605752AD]
09 98,8 [DC6AB595] [39356504]
10 98,8 [0A2719E1] [FA3E8CD3]
11 98,8 [B265550D] [3314AC1E]
12 98,8 [24E6C7B9] [67FD2306]
13 95,5 [E2131171] [0099EF57]
14 98,8 [C2E97244] [6FE4A8B9]
15 98,8 [13EF4A0B] [0E7E055F]

foobar2000 1.2 / Dynamic Range Meter 1.1.1
log date: 2017-07-09 03:50:51

––––––––––––––––––––––––––––––––––––––––
Analyzed: John Illsley / Live In London
––––––––––––––––––––––––––––––––––––––––

DR Peak RMS Duration Track
––––––––––––––––––––––––––––––––––––––––
DR7 -0.10 dB -8.51 dB 4:03 01-Toe The Line
DR7 -0.10 dB -8.36 dB 4:22 02-Walk Of Life
DR8 -0.10 dB -10.07 dB 4:28 03-Once Upon A Time In The West
DR11 -0.10 dB -14.39 dB 5:24 04-Private Investigations
DR9 -0.07 dB -10.25 dB 3:07 05-Young Girl
DR8 -0.10 dB -9.55 dB 7:32 06-Sultans Of Swing
DR7 -0.10 dB -8.80 dB 5:01 07-First We Take Manhattan
DR8 -0.10 dB -9.12 dB 3:56 08-Another Brick In The Wall
DR9 -0.10 dB -11.55 dB 4:27 09-Streets Of Heaven
DR9 -0.10 dB -11.89 dB 4:28 10-I Thought I Saw It Coming
DR8 -0.10 dB -11.76 dB 6:42 11-Romeo And Juliet
DR8 -0.10 dB -9.64 dB 4:08 12-When God Made Time
DR8 -0.40 dB -9.85 dB 4:15 13-Is It Real
DR9 -0.10 dB -12.64 dB 6:25 14-Brothers In Arms
DR8 -0.10 dB -9.33 dB 5:52 15-Money For Nothing
––––––––––––––––––––––––––––––––––––––––

Number of tracks: 15
Official DR value: DR8

Samplerate: 44100 Hz
Channels: 2
Bits per sample: 16
Bitrate: 887 kbps
Codec: FLAC
================================================================================


Original releaser: Swamp Fox



John Illsley (Ex-Dire Straits) - Solo Albums Collection 1984-2014 (6CD) [Re-Up]

John Illsley - Testing The Water (2014)
EAC | FLAC | Image (Cue&Log) ~ 248 Mb | Mp3 (CBR320) ~ 87 Mb
Label: Creek Records | # CREEKCD15 | 00:38:05 | Scans ~ 120 Mb

2014 album from the multiple Brit and Grammy winner and former Dire Straits bassist. Recorded and produced with Guy Fletcher at A-Bay Studios and British Grove, TESTING THE WATER sees the 'engine room of Dire Straits' in fine form. From the opening riff of the first single, 'When God Made Time', John's classic sound is unmistakable. As the man who was a significant element in the pace and feel of Dire Straits' music from the outset, this familiarity is not surprising 'that's not me being influenced by the band, that's just the way I've always played and it continues in my own work' he reflects. Written over the last three years these songs are deeply personal narratives, 'the last few years have been so turbulent politically, militarily and personally and I wanted to try and create some songs that reflected these strange times and perhaps were worthy of sharing with others.'

Tracklist:

01. Railway Tracks (5:00)
02. Nothing To Do (4:25)
03. Testing The Water (5:10)
04. Sometimes (3:47)
05. Run For Cover (4:55)
06. Darling Heart (4:51)
07. When God Made Time (4:54)
08. This Is Your Voice (5:02)


Exact Audio Copy V1.0 beta 3 from 29. August 2011

EAC extraction logfile from 18. July 2014, 2:08

John Illsley / Testing The Water

Used drive : PLEXTOR DVDR PX-891SA Adapter: 0 ID: 2

Read mode : Secure
Utilize accurate stream : Yes
Defeat audio cache : Yes
Make use of C2 pointers : No

Read offset correction : 6
Overread into Lead-In and Lead-Out : No
Fill up missing offset samples with silence : Yes
Delete leading and trailing silent blocks : No
Null samples used in CRC calculations : Yes
Used interface : Installed external ASPI interface

Used output format : User Defined Encoder
Selected bitrate : 320 kBit/s
Quality : High
Add ID3 tag : No
Command line compressor : C:\Program Files\Exact Audio Copy 1.0\Flac\flac.exe
Additional command line options : -V -8 -T "Date=%year%" -T "Genre=%genre%" %source%


TOC of the extracted CD

Track | Start | Length | Start sector | End sector
––––––––––––––––––––––––––––-
1 | 0:00.00 | 4:59.63 | 0 | 22487
2 | 4:59.63 | 4:24.60 | 22488 | 42347
3 | 9:24.48 | 5:10.21 | 42348 | 65618
4 | 14:34.69 | 3:47.24 | 65619 | 82667
5 | 18:22.18 | 4:55.32 | 82668 | 104824
6 | 23:17.50 | 4:51.15 | 104825 | 126664
7 | 28:08.65 | 4:54.05 | 126665 | 148719
8 | 33:02.70 | 5:01.49 | 148720 | 171343


Range status and errors

Selected range

Filename K:\Lossless Temp\John Illsley\John Illsley - Testing The Water - 2014 (2014 Creek Records, CREEKCD 15, E.U.)\John Illsley - Testing The Water.wav

Peak level 99.8 %
Extraction speed 6.0 X
Range quality 100.0 %
Test CRC 6C12C1E2
Copy CRC 6C12C1E2
Copy OK

No errors occurred


AccurateRip summary

Track 1 not present in database
Track 2 not present in database
Track 3 not present in database
Track 4 not present in database
Track 5 not present in database
Track 6 not present in database
Track 7 not present in database
Track 8 not present in database

None of the tracks are present in the AccurateRip database

End of status report

==== Log checksum 47FBD56D98712084515B43609AAA39C6301A0A77791D3CAE66E66015E7D33E2F ====

[CUETools log; Date: 09.07.2017 3:54:05; Version: 2.1.4]
[CTDB TOCID: 4JQjI_Qea2P31maEOMw003vTSP4-] found.
Track | CTDB Status
1 | (82/82) Accurately ripped
2 | (82/82) Accurately ripped
3 | (81/82) Accurately ripped
4 | (82/82) Accurately ripped
5 | (82/82) Accurately ripped
6 | (82/82) Accurately ripped
7 | (82/82) Accurately ripped
8 | (82/82) Accurately ripped
[AccurateRip ID: 000bab05-004dbf82-6e08ec08] found.
Track [ CRC | V2 ] Status
01 [291dba45|ddea65d5] (02+32/44) Accurately ripped
02 [65104b2c|e7647891] (02+32/44) Accurately ripped
03 [ed95aa55|739a3318] (02+32/44) Accurately ripped
04 [68659a5c|6d944d07] (02+32/44) Accurately ripped
05 [1e5b099d|47fb9aa3] (02+32/44) Accurately ripped
06 [ccf7b4a1|13fb3c2d] (02+32/44) Accurately ripped
07 [6fe64037|72a3027e] (02+31/43) Accurately ripped
08 [72b214fe|7b1d6b7f] (02+32/44) Accurately ripped
Offsetted by -6:
01 [8c121a93] (00/44) No match (V2 was not tested)
02 [3908336a] (00/44) No match (V2 was not tested)
03 [a6db7753] (00/44) No match (V2 was not tested)
04 [520a9dbe] (00/44) No match (V2 was not tested)
05 [d7e47d7f] (00/44) No match (V2 was not tested)
06 [b3dae1fb] (00/44) No match (V2 was not tested)
07 [dcaf8a6b] (00/43) No match (V2 was not tested)
08 [2888c96a] (00/44) No match (V2 was not tested)
Offsetted by 12:
01 [6334f9a9] (00/44) No match (V2 was not tested)
02 [bd207ab0] (00/44) No match (V2 was not tested)
03 [7b0a1059] (00/44) No match (V2 was not tested)
04 [951b9398] (00/44) No match (V2 was not tested)
05 [ab4821d9] (00/44) No match (V2 was not tested)
06 [ff3159ed] (00/44) No match (V2 was not tested)
07 [9653abcf] (00/43) No match (V2 was not tested)
08 [0704ac26] (00/44) No match (V2 was not tested)

Track Peak [ CRC32 ] [W/O NULL] [ LOG ]
– 99,8 [6C12C1E2] [6D1D7124] CRC32
01 98,7 [5BA3BCBE] [A09E4EDD]
02 98,4 [5047EFF9] [45412FD0]
03 96,9 [CEA63F56] [B78B18BB]
04 99,8 [7B1449D7] [B0B44E40]
05 97,5 [1FC17E80] [EBEE0993]
06 99,0 [6D75480C] [0AFB7FB3]
07 98,8 [6C6C4DCC] [54BEAF49]
08 96,8 [82D76083] [DF562B87]

foobar2000 1.2 / Dynamic Range Meter 1.1.1
log date: 2017-07-09 03:51:07

––––––––––––––––––––––––––––––––––––––––
Analyzed: John Illsley / Testing The Water
––––––––––––––––––––––––––––––––––––––––

DR Peak RMS Duration Track
––––––––––––––––––––––––––––––––––––––––
DR7 -0.11 dB -8.37 dB 5:00 01-Railway Tracks
DR6 -0.14 dB -8.24 dB 4:25 02-Nothing To Do
DR8 -0.27 dB -12.13 dB 5:10 03-Testing The Water
DR7 -0.01 dB -8.69 dB 3:47 04-Sometimes
DR7 -0.21 dB -9.06 dB 4:55 05-Run For Cover
DR7 -0.08 dB -9.23 dB 4:51 06-Darling Heart
DR6 -0.10 dB -7.28 dB 4:54 07-When God Made Time
DR8 -0.28 dB -9.74 dB 5:02 08-This Is Your Voice
––––––––––––––––––––––––––––––––––––––––

Number of tracks: 8
Official DR value: DR7

Samplerate: 44100 Hz
Channels: 2
Bits per sample: 16
Bitrate: 911 kbps
Codec: FLAC
================================================================================


Original releaser: Swamp Fox