Tags
Language
Tags

John Lee Hooker - Mr. Lucky (1991) [Re-Up]

Posted By: Designol
John Lee Hooker - Mr. Lucky (1991) [Re-Up]

John Lee Hooker - Mr. Lucky (1991)
EAC | FLAC | Image (Cue&Log) ~ 293 Mb | Mp3 (CBR320) ~ 138 Mb | Scans included
Delta Blues, Blues-Rock | Label: Pointblank/Charisma | # 0777 7 86237 2 4 | Time: 00:47:21

Released in 1991 on Pointblank, this audiophile treat finds the 'Hook in some very special company. Co-producers Roy Rogers, Ry Cooder and Carlos Santana (who all contribute musically on this title as well) persuaded the likes of Albert Collins, Robert Cray, John Hammond, Johnnie Johnson, Van Morrison, Keith Richards, Nick Lowe and Johnny Winter among others to join in and the result is one terrific record. This original analog recording is beautifully recorded and a highlight to the ump-teenth rejuvenation in the 'Hooks career.

John Lee Hooker - Mr. Lucky (1991) [Re-Up]



Tracklist:

01. I Want To Hug You (2:52) with Johnnie Johnson
02. Mr. Lucky (4:38) with Robert Cray
03. Backstabbers (5:01) with Albert Collins
04. This Is Hip (3:23) with Ry Cooder
05. I Cover The Waterfront (6:39) with Van Morrison and Booker T. Jones
06. Highway 13 (6:32) with John Hammond
07. Stripped Me Naked (4:18) with Carlos Santana
08. Susie (4:23) with Johnny Winter
09. Crawlin Kingsnake (3:20) with Keith Richards
10. Father Was A Jockey (4:58) with John Hammond


Exact Audio Copy V1.0 beta 4 from 7. December 2014

Отчёт EAC об извлечении, выполненном 14. марта 2015, 17:05

John Lee Hooker / Mr. Lucky

Дисковод: SONY CD-RW CRX230ED Adapter: 1 ID: 0

Режим чтения : Достоверность
Использование точного потока : Да
Отключение кэша аудио : Да
Использование указателей C2 : Нет

Коррекция смещения при чтении : 6
Способность читать области Lead-in и Lead-out : Нет
Заполнение пропущенных сэмплов тишиной : Да
Удаление блоков с тишиной в начале и конце : Нет
При вычислениях CRC использовались нулевые сэмплы : Да
Интерфейс : Встроенный Win32-интерфейс для Win NT/2000

Выходной формат : Внутренние WAV-операции
Формат сэмплов : 44.100 Гц; 16 бит; стерео


TOC извлечённого CD

Трек | Старт | Длительность | Начальный сектор | Конечный сектор
––––––––––––––––––––––––––––––––––-
1 | 0:00.00 | 2:56.07 | 0 | 13206
2 | 2:56.07 | 4:41.33 | 13207 | 34314
3 | 7:37.40 | 5:06.32 | 34315 | 57296
4 | 12:43.72 | 3:27.05 | 57297 | 72826
5 | 16:11.02 | 6:44.38 | 72827 | 103164
6 | 22:55.40 | 6:37.70 | 103165 | 133009
7 | 29:33.35 | 4:57.27 | 133010 | 155311
8 | 34:30.62 | 4:27.10 | 155312 | 175346
9 | 38:57.72 | 3:22.40 | 175347 | 190536
10 | 42:20.37 | 5:00.25 | 190537 | 213061


Характеристики диапазона извлечения и сообщения об ошибках

Выбранный диапазон

Имя файла F:\MusicCD\Torrent\John Lee Hooker - Mr. Lucky\John Lee Hooker - Mr. Lucky.wav

Пиковый уровень 99.3 %
Скорость извлечения 7.5 X
Качество диапазона 100.0 %
CRC теста 6CE3CBDD
CRC копии 6CE3CBDD
Копирование… OK

Ошибок не произошло


AccurateRip: сводка

Трек 1 : извлечено точно (доверие 16) [C6D0F3AE] (AR v2)
Трек 2 : извлечено точно (доверие 17) [EBFC0E27] (AR v2)
Трек 3 : извлечено точно (доверие 17) [883CAE67] (AR v2)
Трек 4 : извлечено точно (доверие 17) [1137B097] (AR v2)
Трек 5 : извлечено точно (доверие 16) [7C3A2EC0] (AR v2)
Трек 6 : извлечено точно (доверие 17) [F8EC60FF] (AR v2)
Трек 7 : извлечено точно (доверие 17) [B6E82EBC] (AR v2)
Трек 8 : извлечено точно (доверие 14) [205C09A0] (AR v2)
Трек 9 : извлечено точно (доверие 14) [680DF895] (AR v2)
Трек 10 : извлечено точно (доверие 15) [1EC8E37E] (AR v2)

Все треки извлечены точно

Конец отчёта

–– CUETools DB Plugin V2.1.4

[CTDB TOCID: Xtyw8YN5Ok5h9DoFlRgC5ml9uzs-] found
Submit result: Xtyw8YN5Ok5h9DoFlRgC5ml9uzs- has been confirmed
Track | CTDB Status
1 | (16/17) Accurately ripped
2 | (16/17) Accurately ripped
3 | (16/17) Accurately ripped
4 | (17/17) Accurately ripped
5 | (16/17) Accurately ripped
6 | (16/17) Accurately ripped
7 | (16/17) Accurately ripped
8 | (16/17) Accurately ripped
9 | (16/17) Accurately ripped
10 | ( 7/17) Accurately ripped, or (7/17) differs in 49242 samples @04:59:48-05:00:15
If you are sure that your rip contains errors, you can use CUETools to repair it.


==== Контрольная сумма отчёта D067208E3230AE28187BF2F753BFF3517EFB8E72D0DBE4D1C80BB442150C391B ====

foobar2000 1.2 / Dynamic Range Meter 1.1.1
log date: 2017-02-03 19:29:51

––––––––––––––––––––––––––––––––––––––––
Analyzed: John Lee Hooker / Mr. Lucky
––––––––––––––––––––––––––––––––––––––––

DR Peak RMS Duration Track
––––––––––––––––––––––––––––––––––––––––
DR14 -0.30 dB -15.78 dB 2:56 01-I Want To Hug You
DR13 -0.06 dB -15.99 dB 4:41 02-Mr. Lucky
DR14 -0.10 dB -17.75 dB 5:06 03-Backstabbers
DR14 -0.50 dB -17.52 dB 3:27 04-This Is Hip
DR15 -0.96 dB -18.46 dB 6:45 05-I Cover The Waterfront
DR14 -1.21 dB -18.32 dB 6:38 06-Highway 13
DR13 -0.20 dB -17.30 dB 4:57 07-Stripped Me Naked
DR13 -2.00 dB -16.38 dB 4:27 08-Susie
DR15 -0.50 dB -17.23 dB 3:23 09-Crawlin' Kingsnake
DR14 -1.12 dB -18.22 dB 5:00 10-Father Was A Jockey
––––––––––––––––––––––––––––––––––––––––

Number of tracks: 10
Official DR value: DR14

Samplerate: 44100 Hz
Channels: 2
Bits per sample: 16
Bitrate: 758 kbps
Codec: FLAC
================================================================================

John Lee Hooker - Mr. Lucky (1991) [Re-Up]

John Lee Hooker - Mr. Lucky (1991) [Re-Up]

All thanks to original releaser - squirr

More interesting music in My Blog