Tags
Language
Tags

Jon Anderson ‎- The Deseo Remixes (1995)

Posted By: v3122
Jon Anderson ‎- The Deseo Remixes (1995)

Jon Anderson ‎- The Deseo Remixes (1995)
EAC | Flac(Image) + Cue + Log & MP3 CBR 320Kbps
High Street Records, 72902 10338-2 | ~ 381 or 140 Mb | Artwork(jpg) -> 5.84 Mb
IDM, Techno, Downtempo, Ambient

The '90s version of prog-rock meets the real thing on 1995's Deseo Remixes. Global Communication, Trans-Global Underground, Future Sound of London, and Deep Forest each contribute remixes of the world music project by Yes' Jon Anderson. The Deep Forest and Global Communication tracks are the highlights.

by Keith Farley, allmusic
Jon Anderson ‎- The Deseo Remixes (1995):

Jon Anderson ‎- The Deseo Remixes (1995)

Tracklist:

1. Deep Floresta (Remixed by Deep Forest) - 5:59
2. Intercity 125 Mix (Remixed by Transglobal Underground) - 7:46
3. Speed Deep (Remixed by Deep Forest) - 6:36
4. Master Mute Vs. The Tone-E Programme Mix (Remixed by Transglobal Underground) - 7:22
5. FSOL Deseo Reconstruction (Remixed by The Future Sound Of London) - 7:51
6. Amor Real (Remixed by Global Communication) - 8:58
7. Master Mute Instrumental Mix (Remixed by Transglobal Underground) - 7:17
8. Bless This (Remixed by Global Communication) - 7:19

Exact Audio Copy V0.99 prebeta 4 from 23. January 2008

Отчёт EAC об извлечении, выполненном 14. ноября 2009, 23:56

Various / The Deseo Remixes

Дисковод: ASUS DRW-1814BLT Adapter: 2 ID: 0

Режим чтения : Достоверность
Использование точного потока : Да
Отключение кэша аудио : Да
Использование указателей C2 : Нет

Коррекция смещения при чтении : 6
Способность читать области Lead-in и Lead-out : Нет
Заполнение пропущенных сэмплов тишиной : Да
Удаление блоков с тишиной в начале и конце : Нет
При вычислениях CRC использовались нулевые сэмплы : Да
Интерфейс : Встроенный Win32-интерфейс для Win NT/2000

Выходной формат : Пользовательский кодировщик
Выбранный битрейт : 256 kBit/s
Качество : Высокий
Добавление ID3-тэга : Нет
Утилита сжатия : D:\Program Files\Exact Audio Copy\Flac\flac.exe
Дополнительные параметры : -8 –delete-input-file -o "D:\CDImage.flac" -V %s


TOC извлечённого CD

Трек | Старт | Длительность | Начальный сектор | Конечный сектор
––––––––––––––––––––––––––––––––––-
1 | 0:00.00 | 6:01.40 | 0 | 27114
2 | 6:01.40 | 7:49.05 | 27115 | 62294
3 | 13:50.45 | 6:38.09 | 62295 | 92153
4 | 20:28.54 | 7:24.15 | 92154 | 125468
5 | 27:52.69 | 7:52.10 | 125469 | 160878
6 | 35:45.04 | 8:59.22 | 160879 | 201325
7 | 44:44.26 | 7:19.07 | 201326 | 234257
8 | 52:03.33 | 7:20.72 | 234258 | 267329


Характеристики диапазона извлечения и сообщения об ошибках

Выбранный диапазон

Имя файла D:\Various - The Deseo Remixes.wav

Пиковый уровень 100.0 %
Качество диапазона 100.0 %
CRC копии 5EA795CC
Копирование… OK

Ошибок не произошло


AccurateRip: сводка

Трек 1 нет в базе данных
Трек 2 нет в базе данных
Трек 3 нет в базе данных
Трек 4 нет в базе данных
Трек 5 нет в базе данных
Трек 6 нет в базе данных
Трек 7 нет в базе данных
Трек 8 нет в базе данных

Ни одного трека нет в базе AccurateRip

Конец отчёта


[CUETools log; Date: 22.07.2021 17:06:29; Version: 2.1.4]
[AccurateRip ID: 0011dd8a-00786ad3-620dec08] found.
Track [ CRC | V2 ] Status
01 [72c71ddc|aac4bffc] (1+1/2) Accurately ripped
02 [f1adc306|d19aa690] (1+1/2) Accurately ripped
03 [9053353b|d59fb389] (1+1/2) Accurately ripped
04 [92cc49d3|8a787c08] (1+1/2) Accurately ripped
05 [32a7e895|6716f51d] (1+1/2) Accurately ripped
06 [62e8f7f2|a011be14] (1+1/2) Accurately ripped
07 [c62f853e|9536f3f0] (1+1/2) Accurately ripped
08 [601a4d18|5a2501d3] (1+1/2) Accurately ripped

Track Peak [ CRC32 ] [W/O NULL] [ LOG ]
– 100,0 [5EA795CC] [0AD0BEE0] CRC32
01 96,5 [6E8894ED] [79B00346]
02 99,4 [AAEDB8FC] [92B5B928]
03 95,3 [03272A14] [38FE41B2]
04 95,0 [A3385B5A] [9D00441B]
05 96,1 [91687375] [D694E507]
06 93,6 [9338AC04] [7B70466B]
07 100,0 [47BA2B1E] [2F735557]
08 91,3 [D3D0E015] [461CA4D4]


Jon Anderson ‎- The Deseo Remixes (1995)

All thanks go to the original releaser

Jon Anderson in my Blog

Download Jon Anderson ‎- The Deseo Remixes (1995):