Subcategories

Journey - Time3 (aka Time Cubed) (1992) 3CD Box Set

Posted By: Designol
Journey - Time3 (aka Time Cubed) (1992) 3CD Box Set

Journey - Time3 (aka Time Cubed) (1992) 3CD Box Set
EAC | FLAC | Tracks (Cue&Log) ~ 1.43 Gb | Mp3 (CBR320) ~ 523 Mb
Label: Columbia | # CXK 65159 | Time: 03:48:32 | Scans ~ 35 Mb
Classic Rock, Hard Rock, AOR, Soft Rock, Prog-Rock

Time3 (also known as Time Cubed) is a 1992 three-CD box set by the American rock band Journey. The tracks are arranged chronologically and include both studio and live tracks. A booklet documenting the band's history and song details is included. With the box set can be heard the progression of the band from the early days with heavy influences from Gregg Rolie, Aynsley Dunbar, and Neal Schon (1974–1977), to the changes the band made with the addition of Jonathan Cain and Steve Perry (1978–1983), to the differences of the band after 1983, including Neal's Jazz influences and the album Raised on Radio. The box also features several unreleased Journey songs, alternate versions or even demos such as "Velvet Curtain", the very early (incomplete) version of "Feeling That Way" before Perry rebuilt the whole song structure.

Journey has given radio some of AOR's finest three-minute gems, both in hard rock and ballad form. Time 3 strings together all their best songs, most of them popular and some not so well known, but all extremely enjoyable and laid out over the course of three discs. Set up chronologically, the first disc unleashes their raw sound, with the first eight songs being pre-Steve Perry. With tracks from Infinity, Evolution, and Departure rounding out disc one, a young Perry sets a musical precedent with his soaring voice. Even so, "Any Way You Want It" steals the show amidst all of their early material. Disc two is where this set truly shines, containing their biggest hits and covering the most entertaining and fruitful part of Journey's career. Seven of the songs here are from 1981's Escape album, including of course "Open Arms," "Don't Stop Believing," and "Who's Crying Now." The first half of the disc finishes off hits from the Departure album, and smoothly rolls into songs from the live Captured. The third disc starts off with the B-side "La Raza Del Sol," and follows with "Only Solutions" from the movie Tron. The best songs from Frontiers and Raised on Radio make up the next ten tracks, and finishes with wonderful live performances of "Girl Can't Help It" and "I'll Be Alright Without You." Time 3, which comes with a colorful booklet and informative liner notes about each song (released in this style when the set first hit shelves), is an extremely comprehensive overview. There is an overabundance of material here, but all of it is incredibly pleasing.

Review by Mike DeGagne, Allmusic.com

Journey - Time3 (aka Time Cubed) (1992) 3CD Box Set



Tracklist:

CD1 - Time 1 (01:13:39)

01. Of A Lifetime (6:53)
02. Kohoutek (6:45)
03. I'm Gonna Leave You (7:01)
04. Cookie Duster (4:22)
05. Nickle & Dime (4:16)
06. For You (3:59)
07. Velvet Curtain/Feeling That Way (4:30)
08. Anytime (3:29)
09. Patiently (3:25)
10. Good Times (2:41)
11. Majestic (1:16)
12. Too Late (2:59)
13. Sweet And Simple (4:14)
14. Just The Same Way (3:19)
15. Little Girl (5:50)
16. Any Way You Want It (3:23)
17. Someday Soon (3:34)
18. Good Morning Girl (1:45)


CD2 - Time 2 (01:16:31)

01. Where Were You (3:03)
02. Line Of Fire (3:07)
03. Homemade Love (2:55)
04. Natural Thing (3:47)
05. Lights (3:31)
06. Stay Awhile (2:13)
07. Walks Like A Lady (7:13)
08. Lovin', Touchin', Squeezin' (4:57)
09. Dixie Highway (6:49)
10. Wheel In The Sky (5:15)
11. The Party's Over (Hopelessly In Love) (3:42)
12. Don't Stop Believin' (4:11)
13. Stone In Love (4:27)
14. Keep On Runnin' (3:41)
15. Who's Cryin' Now (5:03)
16. Still They Ride (3:50)
17. Open Arms (3:20)
18. Mother, Father (5:28)


CD3 - Time 3 (01:18:21)

01. La Raza Del Sol (Alternate Version) (3:25)
02. Only Solutions (3:40)
03. Liberty (2:56)
04. Separate Ways (Worlds Apart) (5:24)
05. Send Her My Love (3:56)
06. Faithfully (4:28)
07. After The Fall (5:02)
08. All That Really Matters (3:56)
09. The Eyes Of A Woman (4:34)
10. Why Can't This Night Go On Forever (3:42)
11. Once You Love Somebody (4:41)
12. Happy to Give (3:49)
13. Be Good To Yourself (3:54)
14. Only The Young (4:06)
15. Ask The Lonely (3:56)
16. With A Tear (3:27)
17. Into Your Arms (4:10)
18. Girl Can't Help It (Live) (4:16)
19. I'll Be Alright Without You (Live) (5:00)


Exact Audio Copy V0.99 prebeta 4 from 23. January 2008

EAC extraction logfile from 8. March 2009, 14:42

Journey / Time [Disc 1]

Used drive : TSSTcorpCDDVDW SH-S203B Adapter: 5 ID: 0

Read mode : Secure
Utilize accurate stream : Yes
Defeat audio cache : Yes
Make use of C2 pointers : No

Read offset correction : 6
Overread into Lead-In and Lead-Out : No
Fill up missing offset samples with silence : Yes
Delete leading and trailing silent blocks : No
Null samples used in CRC calculations : Yes
Used interface : Native Win32 interface for Win NT & 2000
Gap handling : Appended to previous track

Used output format : User Defined Encoder
Selected bitrate : 192 kBit/s
Quality : High
Add ID3 tag : No
Command line compressor : C:\Program Files (x86)\Exact Audio Copy\Flac\flac.exe
Additional command line options : V -5 -T "artist=%a" -T "title=%t" -T "album=%g" -T "date=%y" -T "tracknumber=%n" -T "genre=%m" %s


TOC of the extracted CD

Track | Start | Length | Start sector | End sector
––––––––––––––––––––––––––––-
1 | 0:00.00 | 6:53.07 | 0 | 30981
2 | 6:53.07 | 6:45.35 | 30982 | 61391
3 | 13:38.42 | 7:00.45 | 61392 | 92936
4 | 20:39.12 | 4:21.45 | 92937 | 112556
5 | 25:00.57 | 4:15.58 | 112557 | 131739
6 | 29:16.40 | 3:59.35 | 131740 | 149699
7 | 33:16.00 | 4:29.65 | 149700 | 169939
8 | 37:45.65 | 3:28.52 | 169940 | 185591
9 | 41:14.42 | 3:24.65 | 185592 | 200956
10 | 44:39.32 | 2:41.15 | 200957 | 213046
11 | 47:20.47 | 1:15.45 | 213047 | 218716
12 | 48:36.17 | 2:58.65 | 218717 | 232131
13 | 51:35.07 | 4:13.53 | 232132 | 251159
14 | 55:48.60 | 3:18.70 | 251160 | 266079
15 | 59:07.55 | 5:49.45 | 266080 | 292299
16 | 64:57.25 | 3:23.30 | 292300 | 307554
17 | 68:20.55 | 3:33.72 | 307555 | 323601
18 | 71:54.52 | 1:44.48 | 323602 | 331449


Track 1

Filename E:\Journey - 1992 - Timeі\Disc 1\01 - Journey - Of A Lifetime.wav

Pre-gap length 0:00:02.00

Peak level 97.7 %
Track quality 99.9 %
Test CRC B14B9582
Copy CRC B14B9582
Accurately ripped (confidence 19) [4AC6D0C7]
Copy OK

Track 2

Filename E:\Journey - 1992 - Timeі\Disc 1\02 - Journey - Kohoutek.wav

Pre-gap length 0:00:01.80

Peak level 97.7 %
Track quality 100.0 %
Test CRC 2C56A603
Copy CRC 2C56A603
Accurately ripped (confidence 19) [521B1F36]
Copy OK

Track 3

Filename E:\Journey - 1992 - Timeі\Disc 1\03 - Journey - I'm Gonna Leave You.wav

Pre-gap length 0:00:01.80

Peak level 87.4 %
Track quality 100.0 %
Test CRC 50EBE771
Copy CRC 50EBE771
Accurately ripped (confidence 19) [37AC30F8]
Copy OK

Track 4

Filename E:\Journey - 1992 - Timeі\Disc 1\04 - Journey - Cookie Duster.wav

Pre-gap length 0:00:01.76

Peak level 87.1 %
Track quality 100.0 %
Test CRC 8815BC01
Copy CRC 8815BC01
Accurately ripped (confidence 18) [A88029A1]
Copy OK

Track 5

Filename E:\Journey - 1992 - Timeі\Disc 1\05 - Journey - Nickle & Dime.wav

Pre-gap length 0:00:01.76

Peak level 97.7 %
Track quality 100.0 %
Test CRC A2093444
Copy CRC A2093444
Accurately ripped (confidence 18) [B472FE04]
Copy OK

Track 6

Filename E:\Journey - 1992 - Timeі\Disc 1\06 - Journey - For You.wav

Pre-gap length 0:00:00.84

Peak level 82.8 %
Track quality 100.0 %
Test CRC 6A1EE291
Copy CRC 6A1EE291
Accurately ripped (confidence 18) [2FE97411]
Copy OK

Track 7

Filename E:\Journey - 1992 - Timeі\Disc 1\07 - Journey - Velvet Curtain,Feeling That Way.wav

Pre-gap length 0:00:01.93

Peak level 97.7 %
Track quality 100.0 %
Test CRC BA5028E3
Copy CRC BA5028E3
Accurately ripped (confidence 17) [22A93E5B]
Copy OK

Track 8

Filename E:\Journey - 1992 - Timeі\Disc 1\08 - Journey - Anytime.wav

Peak level 97.7 %
Track quality 100.0 %
Test CRC 5562ED25
Copy CRC 5562ED25
Accurately ripped (confidence 18) [F59A92B4]
Copy OK

Track 9

Filename E:\Journey - 1992 - Timeі\Disc 1\09 - Journey - Patiently.wav

Pre-gap length 0:00:01.76

Peak level 97.7 %
Track quality 99.9 %
Test CRC 707D9053
Copy CRC 707D9053
Accurately ripped (confidence 18) [C98467B7]
Copy OK

Track 10

Filename E:\Journey - 1992 - Timeі\Disc 1\10 - Journey - Good Times.wav

Pre-gap length 0:00:01.76

Peak level 90.7 %
Track quality 100.0 %
Test CRC 0268AD53
Copy CRC 0268AD53
Accurately ripped (confidence 19) [00282837]
Copy OK

Track 11

Filename E:\Journey - 1992 - Timeі\Disc 1\11 - Journey - Majestic.wav

Pre-gap length 0:00:01.53

Peak level 97.7 %
Track quality 100.0 %
Test CRC 9FA5559E
Copy CRC 9FA5559E
Accurately ripped (confidence 19) [FD3D2F7E]
Copy OK

Track 12

Filename E:\Journey - 1992 - Timeі\Disc 1\12 - Journey - Too Late.wav

Peak level 89.1 %
Track quality 100.0 %
Test CRC 129BDDC0
Copy CRC 129BDDC0
Accurately ripped (confidence 19) [1F125978]
Copy OK

Track 13

Filename E:\Journey - 1992 - Timeі\Disc 1\13 - Journey - Sweet And Simple.wav

Pre-gap length 0:00:01.09

Peak level 91.2 %
Track quality 99.9 %
Test CRC 805F36E9
Copy CRC 805F36E9
Accurately ripped (confidence 19) [A162748C]
Copy OK

Track 14

Filename E:\Journey - 1992 - Timeі\Disc 1\14 - Journey - Just The Same Way.wav

Pre-gap length 0:00:01.20

Peak level 93.3 %
Track quality 100.0 %
Test CRC B5E0ED25
Copy CRC B5E0ED25
Accurately ripped (confidence 18) [718D50F0]
Copy OK

Track 15

Filename E:\Journey - 1992 - Timeі\Disc 1\15 - Journey - Little Girl.wav

Pre-gap length 0:00:00.80

Peak level 72.4 %
Track quality 100.0 %
Test CRC C6835166
Copy CRC C6835166
Accurately ripped (confidence 18) [2D4BABAA]
Copy OK

Track 16

Filename E:\Journey - 1992 - Timeі\Disc 1\16 - Journey - Any Way You Want It.wav

Pre-gap length 0:00:01.33

Peak level 86.7 %
Track quality 100.0 %
Test CRC E86EAC40
Copy CRC E86EAC40
Accurately ripped (confidence 17) [39697073]
Copy OK

Track 17

Filename E:\Journey - 1992 - Timeі\Disc 1\17 - Journey - Someday Soon.wav

Pre-gap length 0:00:00.93

Peak level 84.7 %
Track quality 99.9 %
Test CRC 19CBEC92
Copy CRC 19CBEC92
Accurately ripped (confidence 19) [4EBF6CB6]
Copy OK

Track 18

Filename E:\Journey - 1992 - Timeі\Disc 1\18 - Journey - Good Morning Girl.wav

Pre-gap length 0:00:01.36

Peak level 97.3 %
Track quality 100.0 %
Test CRC 547BE9E7
Copy CRC 547BE9E7
Accurately ripped (confidence 19) [A79AFE61]
Copy OK


All tracks accurately ripped

No errors occurred

End of status report

[CUETools log; Date: 16.05.2019 2:34:34; Version: 2.1.4]
[CTDB TOCID: J9H.eurp.2K8MKsRczojZ5hG7Cs-] found.
Track | CTDB Status
1 | (169/169) Accurately ripped
2 | (168/169) Accurately ripped
3 | (169/169) Accurately ripped
4 | (169/169) Accurately ripped
5 | (168/169) Accurately ripped
6 | (169/169) Accurately ripped
7 | (169/169) Accurately ripped
8 | (169/169) Accurately ripped
9 | (169/169) Accurately ripped
10 | (169/169) Accurately ripped
11 | (169/169) Accurately ripped
12 | (169/169) Accurately ripped
13 | (169/169) Accurately ripped
14 | (169/169) Accurately ripped
15 | (169/169) Accurately ripped
16 | (168/169) Accurately ripped
17 | (169/169) Accurately ripped
18 | (168/169) Accurately ripped
[AccurateRip ID: 00368080-02b77c42-15114312] found.
Track [ CRC | V2 ] Status
01 [4ac6d0c7|fb14b680] (034+049/179) Accurately ripped
02 [521b1f36|39ae102e] (034+051/183) Accurately ripped
03 [37ac30f8|71e08ca5] (034+050/182) Accurately ripped
04 [a88029a1|be2dd185] (033+052/183) Accurately ripped
05 [b472fe04|cad15da2] (033+049/180) Accurately ripped
06 [2fe97411|ab29c64a] (033+052/183) Accurately ripped
07 [22a93e5b|89a092f1] (033+052/183) Accurately ripped
08 [f59a92b4|89c24cb7] (034+050/181) Accurately ripped
09 [c98467b7|b3fa1c47] (033+051/182) Accurately ripped
10 [00282837|0430f945] (034+053/184) Accurately ripped
11 [fd3d2f7e|1f980946] (034+050/179) Accurately ripped
12 [1f125978|505c9ebe] (034+048/180) Accurately ripped
13 [a162748c|3886a779] (034+050/182) Accurately ripped
14 [718d50f0|006101e1] (033+049/179) Accurately ripped
15 [2d4babaa|747d8198] (032+048/175) Accurately ripped
16 [39697073|f1034226] (032+048/175) Accurately ripped
17 [4ebf6cb6|563429f5] (033+050/177) Accurately ripped
18 [a79afe61|f115994d] (033+050/175) Accurately ripped
Offsetted by -2838:
01 [13e2c97d] (009/179) Accurately ripped
02 [20476d9a] (009/183) Accurately ripped
03 [87bcec1a] (009/182) Accurately ripped
04 [f6e0880f] (009/183) Accurately ripped
05 [9106cdbe] (009/180) Accurately ripped
06 [5ca6455d] (009/183) Accurately ripped
07 [5813005f] (009/183) Accurately ripped
08 [ce35c168] (009/181) Accurately ripped
09 [64ad2443] (009/182) Accurately ripped
10 [d0814f75] (009/184) Accurately ripped
11 [abc95dfd] (009/179) Accurately ripped
12 [6111beaf] (009/180) Accurately ripped
13 [f29de59e] (009/182) Accurately ripped
14 [cd6ef7e0] (009/179) Accurately ripped
15 [eb04c96a] (009/175) Accurately ripped
16 [1fdebe4b] (009/175) Accurately ripped
17 [328378f4] (009/177) Accurately ripped
18 [4cf0c1d1] (009/175) Accurately ripped
Offsetted by -1233:
01 [027d2f08] (005/179) Accurately ripped
02 [c67884ec] (005/183) Accurately ripped
03 [88764d3b] (005/182) Accurately ripped
04 [cba27436] (005/183) Accurately ripped
05 [92631beb] (005/180) Accurately ripped
06 [94885763] (005/183) Accurately ripped
07 [4c8548be] (005/183) Accurately ripped
08 [c6c1fbc5] (005/181) Accurately ripped
09 [844d15e9] (005/182) Accurately ripped
10 [8b62ea84] (005/184) Accurately ripped
11 [22fc931b] (005/179) Accurately ripped
12 [f8d1e100] (005/180) Accurately ripped
13 [cbfbbd37] (005/182) Accurately ripped
14 [ca73aed8] (005/179) Accurately ripped
15 [5427764a] (005/175) Accurately ripped
16 [771c21f7] (005/175) Accurately ripped
17 [452fee83] (005/177) Accurately ripped
18 [a8440b09] (004/175) Accurately ripped
Offsetted by -1167:
01 [7ad5d5e6] (003/179) Accurately ripped
02 [091e2fc0] (004/183) Accurately ripped
03 [f1c34ed5] (004/182) Accurately ripped
04 [f37c7dec] (004/183) Accurately ripped
05 [0453c3bd] (004/180) Accurately ripped
06 [c912d57f] (004/183) Accurately ripped
07 [a394acd1] (004/183) Accurately ripped
08 [3d4eed8a] (003/181) Accurately ripped
09 [389ab245] (004/182) Accurately ripped
10 [d9e3d1ca] (004/184) Accurately ripped
11 [0b4909a2] (004/179) Accurately ripped
12 [546067d7] (004/180) Accurately ripped
13 [23658501] (004/182) Accurately ripped
14 [e6152208] (004/179) Accurately ripped
15 [0258bd0a] (004/175) Accurately ripped
16 [2a4efc6f] (004/175) Accurately ripped
17 [2e07a6c9] (004/177) Accurately ripped
18 [b053e8b9] (003/175) Accurately ripped
Offsetted by -1042:
01 [896e38b9] (005/179) Accurately ripped
02 [16dbd442] (005/183) Accurately ripped
03 [0e8793ce] (005/182) Accurately ripped
04 [e5c03afb] (005/183) Accurately ripped
05 [774637e2] (005/180) Accurately ripped
06 [6e85bc95] (005/183) Accurately ripped
07 [4e948324] (005/183) Accurately ripped
08 [86f51213] (005/181) Accurately ripped
09 [eba027fb] (005/182) Accurately ripped
10 [574c5181] (005/184) Accurately ripped
11 [bd60e405] (005/179) Accurately ripped
12 [9a047e8b] (005/180) Accurately ripped
13 [4512b5b2] (005/182) Accurately ripped
14 [a60cba40] (005/179) Accurately ripped
15 [028f46ea] (005/175) Accurately ripped
16 [b7e1b93b] (005/175) Accurately ripped
17 [403b5d00] (005/177) Accurately ripped
18 [e2817931] (004/175) Accurately ripped
Offsetted by -982:
01 [f6d6163d] (017/179) Accurately ripped
02 [3c2c9e1a] (018/183) Accurately ripped
03 [6e41f25a] (018/182) Accurately ripped
04 [4fcc43cf] (018/183) Accurately ripped
05 [f620fefe] (018/180) Accurately ripped
06 [fb60badd] (018/183) Accurately ripped
07 [8ba3897c] (017/183) Accurately ripped
08 [a4131a0b] (017/181) Accurately ripped
09 [03ce41c3] (017/182) Accurately ripped
10 [4192f535] (017/184) Accurately ripped
11 [8c05365d] (017/179) Accurately ripped
12 [f1e05fdf] (017/180) Accurately ripped
13 [da5b99de] (017/182) Accurately ripped
14 [edb6c5e0] (017/179) Accurately ripped
15 [cf76416a] (016/175) Accurately ripped
16 [4384514b] (017/175) Accurately ripped
17 [ce16beb4] (017/177) Accurately ripped
18 [75789fd1] (016/175) Accurately ripped
Offsetted by -549:
01 [e1b6d91c] (002/179) Accurately ripped
02 [d644b524] (002/183) Accurately ripped
03 [cbc2e977] (002/182) Accurately ripped
04 [515ed8da] (002/183) Accurately ripped
05 [d2212cf7] (002/180) Accurately ripped
06 [40af43cb] (002/183) Accurately ripped
07 [a7ec3d90] (002/183) Accurately ripped
08 [381f4ac3] (002/181) Accurately ripped
09 [ffd93bd1] (002/182) Accurately ripped
10 [2d550188] (002/184) Accurately ripped
11 [dc81b08d] (002/179) Accurately ripped
12 [94b737ba] (002/180) Accurately ripped
13 [3ea11993] (002/182) Accurately ripped
14 [2e9fccf8] (002/179) Accurately ripped
15 [a73d6aca] (002/175) Accurately ripped
16 [1559b447] (002/175) Accurately ripped
17 [c98e7b87] (002/177) Accurately ripped
18 [cd459029] (002/175) Accurately ripped
Offsetted by -2864:
01 [39cf60f7] (000/179) No match (V2 was not tested)
02 [f6824956] (000/183) No match (V2 was not tested)
03 [08ec2988] (000/182) No match (V2 was not tested)
04 [c063d991] (000/183) No match (V2 was not tested)
05 [c8fd5554] (000/180) No match (V2 was not tested)
06 [86031b71] (000/183) No match (V2 was not tested)
07 [0c6da2a7] (000/183) No match (V2 was not tested)
08 [c9bf60e8] (000/181) No match (V2 was not tested)
09 [c0429917] (000/182) No match (V2 was not tested)
10 [c8da2aa7] (000/184) No match (V2 was not tested)
11 [bd383812] (000/179) No match (V2 was not tested)
12 [113aa9c4] (000/180) No match (V2 was not tested)
13 [540f609c] (000/182) No match (V2 was not tested)
14 [36e98c70] (000/179) No match (V2 was not tested)
15 [701829aa] (000/175) No match (V2 was not tested)
16 [1f184933] (000/175) No match (V2 was not tested)
17 [fd935726] (000/177) No match (V2 was not tested)
18 [a6dafde1] (000/175) No match (V2 was not tested)
Offsetted by -1527:
01 [ea66a4ce] (000/179) No match (V2 was not tested)
02 [293974b0] (000/183) No match (V2 was not tested)
03 [b365178d] (000/182) No match (V2 was not tested)
04 [773448f4] (000/183) No match (V2 was not tested)
05 [0b331915] (000/180) No match (V2 was not tested)
06 [7bf0dfcf] (000/183) No match (V2 was not tested)
07 [cbe20d52] (000/183) No match (V2 was not tested)
08 [f814b9a9] (000/181) No match (V2 was not tested)
09 [a4891795] (000/182) No match (V2 was not tested)
10 [5c3bfb92] (000/184) No match (V2 was not tested)
11 [56ecbf93] (000/179) No match (V2 was not tested)
12 [3c814e46] (000/180) No match (V2 was not tested)
13 [a3b02bf9] (000/182) No match (V2 was not tested)
14 [3818dc48] (000/179) No match (V2 was not tested)
15 [34eede0a] (000/175) No match (V2 was not tested)
16 [e47f6c0f] (000/175) No match (V2 was not tested)
17 [dae35c91] (000/177) No match (V2 was not tested)
18 [3e8900f9] (000/175) No match (V2 was not tested)
Offsetted by -1244:
01 [c3c3bde3] (002/179) Accurately ripped
02 [e607931e] (002/183) Accurately ripped
03 [2194224c] (002/182) Accurately ripped
04 [efa8c7ed] (002/183) Accurately ripped
05 [2a105548] (002/180) Accurately ripped
06 [611bed09] (002/183) Accurately ripped
07 [f4f4f1da] (002/183) Accurately ripped
08 [791813a5] (002/181) Accurately ripped
09 [663e512f] (002/182) Accurately ripped
10 [7e4d6ea3] (002/184) Accurately ripped
11 [c565b0c7] (000/179) No match (V2 was not tested)
12 [4eba6993] (002/180) Accurately ripped
13 [12bf7140] (002/182) Accurately ripped
14 [c5d8c650] (002/179) Accurately ripped
15 [0c74952a] (002/175) Accurately ripped
16 [d93e52e3] (002/175) Accurately ripped
17 [f3b6a522] (002/177) Accurately ripped
18 [26ec10c1] (002/175) Accurately ripped
Offsetted by -1054:
01 [738ca605] (000/179) No match
02 [dc32124a] (000/183) No match
03 [fb624db2] (000/182) No match
04 [6a243937] (000/183) No match
05 [911a7676] (000/180) No match
06 [1f26bced] (000/183) No match
07 [cfe66cf4] (000/183) No match (V2 was not tested)
08 [6794a073] (000/181) No match (V2 was not tested)
09 [b39122d3] (000/182) No match (V2 was not tested)
10 [8ed7ca5d] (000/184) No match (V2 was not tested)
11 [e96ee88d] (000/179) No match (V2 was not tested)
12 [bfd218bf] (000/180) No match (V2 was not tested)
13 [c0d0ee76] (000/182) No match (V2 was not tested)
14 [fe1deb20] (000/179) No match (V2 was not tested)
15 [3ffaae6a] (000/175) No match (V2 was not tested)
16 [68c1346b] (000/175) No match (V2 was not tested)
17 [8a42afdc] (000/177) No match (V2 was not tested)
18 [f8500b11] (000/175) No match (V2 was not tested)
Offsetted by -741:
01 [839daddc] (000/179) No match (V2 was not tested)
02 [2ba895a4] (000/183) No match (V2 was not tested)
03 [996e87b7] (000/182) No match (V2 was not tested)
04 [979ebc9a] (000/183) No match (V2 was not tested)
05 [6f651637] (000/180) No match (V2 was not tested)
06 [4abf494b] (000/183) No match (V2 was not tested)
07 [ce4cb8eb] (000/183) No match (V2 was not tested)
08 [65cb59e8] (000/181) No match (V2 was not tested)
09 [7f7ae951] (000/182) No match (V2 was not tested)
10 [a60c8f48] (000/184) No match (V2 was not tested)
11 [9be222f8] (000/179) No match (V2 was not tested)
12 [3c285117] (000/180) No match (V2 was not tested)
13 [fa84a5d3] (000/182) No match (V2 was not tested)
14 [afb2daf8] (000/179) No match (V2 was not tested)
15 [7df3e2ca] (000/175) No match (V2 was not tested)
16 [23516747] (000/175) No match (V2 was not tested)
17 [6a03a947] (000/177) No match (V2 was not tested)
18 [2a2eae29] (000/175) No match (V2 was not tested)
Offsetted by -693:
01 [db23f8ac] (000/179) No match (V2 was not tested)
02 [164f9d84] (000/183) No match (V2 was not tested)
03 [e603a027] (000/182) No match (V2 was not tested)
04 [860ec3aa] (000/183) No match (V2 was not tested)
05 [08141be7] (000/180) No match (V2 was not tested)
06 [883b47eb] (000/183) No match (V2 was not tested)
07 [5dac2661] (000/183) No match (V2 was not tested)
08 [7fe595f2] (000/181) No match (V2 was not tested)
09 [5f90fdf1] (000/182) No match (V2 was not tested)
10 [c7deabd8] (000/184) No match (V2 was not tested)
11 [737f667d] (000/179) No match (V2 was not tested)
12 [2b2a0f5a] (000/180) No match (V2 was not tested)
13 [0b8bc2c3] (000/182) No match (V2 was not tested)
14 [4f6e1778] (000/179) No match (V2 was not tested)
15 [884644ca] (000/175) No match (V2 was not tested)
16 [5fd37a87] (000/175) No match (V2 was not tested)
17 [41e65dd7] (000/177) No match (V2 was not tested)
18 [d2f466a9] (000/175) No match (V2 was not tested)
Offsetted by 6:
01 [55b79a21] (000/179) No match
02 [6f700032] (000/183) No match
03 [413ed406] (000/182) No match
04 [664e2a83] (000/183) No match (V2 was not tested)
05 [a788deba] (000/180) No match (V2 was not tested)
06 [d798f3e5] (000/183) No match
07 [5f1cc90b] (000/183) No match
08 [3e54e6cc] (000/181) No match
09 [65acea4b] (000/182) No match
10 [64626bc9] (000/184) No match
11 [17983ca6] (000/179) No match
12 [618de8d2] (000/180) No match
13 [6383582a] (000/182) No match
14 [4584b880] (000/179) No match
15 [0e95f7ea] (000/175) No match
16 [60f9b2db] (000/175) No match
17 [a9bbc348] (000/177) No match
18 [1cb3b571] (000/175) No match
Offsetted by 1067:
01 [0f0aafcc] (000/179) No match (V2 was not tested)
02 [5ce6be44] (000/183) No match (V2 was not tested)
03 [335e7587] (000/182) No match (V2 was not tested)
04 [021a714a] (000/183) No match (V2 was not tested)
05 [3bd041c7] (000/180) No match (V2 was not tested)
06 [abfdc02b] (000/183) No match (V2 was not tested)
07 [20ec6af3] (000/183) No match (V2 was not tested)
08 [1ce67d60] (000/181) No match (V2 was not tested)
09 [446bf231] (000/182) No match (V2 was not tested)
10 [f54c1878] (000/184) No match (V2 was not tested)
11 [4437ec80] (000/179) No match (V2 was not tested)
12 [a5bb1a77] (000/180) No match (V2 was not tested)
13 [d13b3d23] (000/182) No match (V2 was not tested)
14 [303f6c78] (000/179) No match (V2 was not tested)
15 [5812f8ca] (000/175) No match (V2 was not tested)
16 [0a74e707] (000/175) No match (V2 was not tested)
17 [2db43a77] (000/177) No match (V2 was not tested)
18 [a9f0d3a9] (000/175) No match (V2 was not tested)

Track Peak [ CRC32 ] [W/O NULL] [ LOG ]
– 97,7 [1A100216] [53D16530]
01 97,7 [B14B9582] [EDB7A3E0] CRC32
02 97,7 [2C56A603] [A5E65C9F] CRC32
03 87,4 [50EBE771] [0B213BAD] CRC32
04 87,1 [8815BC01] [1C52C5B4] CRC32
05 97,7 [A2093444] [2154E7ED] CRC32
06 82,8 [6A1EE291] [2437CD46] CRC32
07 97,7 [BA5028E3] [04B16FFA] CRC32
08 97,7 [5562ED25] [5D22CF1E] CRC32
09 97,7 [707D9053] [BF8BE59E] CRC32
10 90,7 [0268AD53] [2ABEA5A7] CRC32
11 97,7 [9FA5559E] [F4B8D3B9] CRC32
12 89,1 [129BDDC0] [467E06D1] CRC32
13 91,2 [805F36E9] [1C33815F] CRC32
14 93,3 [B5E0ED25] [0005DFDE] CRC32
15 72,4 [C6835166] [155F9E0B] CRC32
16 86,7 [E86EAC40] [63E7FD32] CRC32
17 84,7 [19CBEC92] [1A54ED37] CRC32
18 97,3 [547BE9E7] [FC493074] CRC32

foobar2000 1.2 / Dynamic Range Meter 1.1.1
log date: 2019-05-16 02:40:09

––––––––––––––––––––––––––––––––––––––––
Analyzed: Journey / Time [Disc 1]
––––––––––––––––––––––––––––––––––––––––

DR Peak RMS Duration Track
––––––––––––––––––––––––––––––––––––––––
DR12 -0.20 dB -14.53 dB 6:53 01-Of A Lifetime
DR13 -0.20 dB -16.13 dB 6:45 02-Kohoutek
DR13 -1.17 dB -15.75 dB 7:01 03-I'm Gonna Leave You
DR12 -1.20 dB -15.28 dB 4:22 04-Cookie Duster
DR13 -0.20 dB -15.34 dB 4:16 05-Nickle & Dime
DR12 -1.63 dB -15.43 dB 3:59 06-For You
DR12 -0.20 dB -14.34 dB 4:30 07-Velvet Curtain/Feeling That Way
DR13 -0.20 dB -15.95 dB 3:29 08-Anytime
DR12 -0.20 dB -16.71 dB 3:25 09-Patiently
DR13 -0.84 dB -15.81 dB 2:41 10-Good Times
DR12 -0.20 dB -15.61 dB 1:16 11-Majestic
DR11 -1.00 dB -14.67 dB 2:59 12-Too Late
DR11 -0.80 dB -15.39 dB 4:14 13-Sweet And Simple
DR12 -0.60 dB -14.57 dB 3:19 14-Just The Same Way
DR8 -2.80 dB -14.18 dB 5:50 15-Little Girl
DR11 -1.24 dB -13.63 dB 3:23 16-Any Way You Want It
DR10 -1.44 dB -14.30 dB 3:34 17-Someday Soon
DR11 -0.24 dB -16.47 dB 1:45 18-Good Morning Girl
––––––––––––––––––––––––––––––––––––––––

Number of tracks: 18
Official DR value: DR12

Samplerate: 44100 Hz
Channels: 2
Bits per sample: 16
Bitrate: 755 kbps
Codec: FLAC
================================================================================


Exact Audio Copy V0.99 prebeta 4 from 23. January 2008

EAC extraction logfile from 8. March 2009, 15:05

Journey / Time [Disc 2]

Used drive : TSSTcorpCDDVDW SH-S203B Adapter: 5 ID: 0

Read mode : Secure
Utilize accurate stream : Yes
Defeat audio cache : Yes
Make use of C2 pointers : No

Read offset correction : 6
Overread into Lead-In and Lead-Out : No
Fill up missing offset samples with silence : Yes
Delete leading and trailing silent blocks : No
Null samples used in CRC calculations : Yes
Used interface : Native Win32 interface for Win NT & 2000
Gap handling : Appended to previous track

Used output format : User Defined Encoder
Selected bitrate : 192 kBit/s
Quality : High
Add ID3 tag : No
Command line compressor : C:\Program Files (x86)\Exact Audio Copy\Flac\flac.exe
Additional command line options : V -5 -T "artist=%a" -T "title=%t" -T "album=%g" -T "date=%y" -T "tracknumber=%n" -T "genre=%m" %s


TOC of the extracted CD

Track | Start | Length | Start sector | End sector
––––––––––––––––––––––––––––-
1 | 0:00.00 | 3:03.30 | 0 | 13754
2 | 3:03.30 | 3:06.52 | 13755 | 27756
3 | 6:10.07 | 2:55.18 | 27757 | 40899
4 | 9:05.25 | 3:46.42 | 40900 | 57891
5 | 12:51.67 | 3:31.23 | 57892 | 73739
6 | 16:23.15 | 2:13.27 | 73740 | 83741
7 | 18:36.42 | 7:12.38 | 83742 | 116179
8 | 25:49.05 | 4:56.62 | 116180 | 138441
9 | 30:45.67 | 6:48.63 | 138442 | 169104
10 | 37:34.55 | 5:14.45 | 169105 | 192699
11 | 42:49.25 | 3:42.17 | 192700 | 209366
12 | 46:31.42 | 4:10.73 | 209367 | 228189
13 | 50:42.40 | 4:27.05 | 228190 | 248219
14 | 55:09.45 | 3:40.57 | 248220 | 264776
15 | 58:50.27 | 5:02.45 | 264777 | 287471
16 | 63:52.72 | 3:50.30 | 287472 | 304751
17 | 67:43.27 | 3:19.40 | 304752 | 319716
18 | 71:02.67 | 5:28.33 | 319717 | 344349


Track 1

Filename E:\Journey - 1992 - Timeі\Disc 2\01 - Journey - Where Were You.wav

Pre-gap length 0:00:02.00

Peak level 97.3 %
Track quality 100.0 %
Test CRC DD8FF203
Copy CRC DD8FF203
Accurately ripped (confidence 17) [9B2261A0]
Copy OK

Track 2

Filename E:\Journey - 1992 - Timeі\Disc 2\02 - Journey - Line Of Fire.wav

Pre-gap length 0:00:01.30

Peak level 95.7 %
Track quality 100.0 %
Test CRC 97F0E552
Copy CRC 97F0E552
Accurately ripped (confidence 17) [7D1B1644]
Copy OK

Track 3

Filename E:\Journey - 1992 - Timeі\Disc 2\03 - Journey - Homemade Love.wav

Pre-gap length 0:00:00.76

Peak level 95.1 %
Track quality 100.0 %
Test CRC CEF462E7
Copy CRC CEF462E7
Accurately ripped (confidence 17) [879C969E]
Copy OK

Track 4

Filename E:\Journey - 1992 - Timeі\Disc 2\04 - Journey - Natural Thing.wav

Pre-gap length 0:00:01.73

Peak level 95.1 %
Track quality 100.0 %
Test CRC 968E8B26
Copy CRC 968E8B26
Accurately ripped (confidence 17) [10B77132]
Copy OK

Track 5

Filename E:\Journey - 1992 - Timeі\Disc 2\05 - Journey - Lights.wav

Pre-gap length 0:00:01.82

Peak level 96.8 %
Track quality 100.0 %
Test CRC 1317192E
Copy CRC 1317192E
Accurately ripped (confidence 17) [538B71D5]
Copy OK

Track 6

Filename E:\Journey - 1992 - Timeі\Disc 2\06 - Journey - Stay Awhile.wav

Peak level 96.6 %
Track quality 100.0 %
Test CRC 20475E5D
Copy CRC 20475E5D
Accurately ripped (confidence 17) [9F6910E4]
Copy OK

Track 7

Filename E:\Journey - 1992 - Timeі\Disc 2\07 - Journey - Walks Like A Lady.wav

Peak level 96.6 %
Track quality 100.0 %
Test CRC 9A890E7D
Copy CRC 9A890E7D
Accurately ripped (confidence 17) [A12FEC38]
Copy OK

Track 8

Filename E:\Journey - 1992 - Timeі\Disc 2\08 - Journey - Lovin', Touchin', Squeezin'.wav

Peak level 97.7 %
Track quality 100.0 %
Test CRC A51262E1
Copy CRC A51262E1
Accurately ripped (confidence 17) [BC0DE01F]
Copy OK

Track 9

Filename E:\Journey - 1992 - Timeі\Disc 2\09 - Journey - Dixie Highway.wav

Peak level 96.8 %
Track quality 100.0 %
Test CRC D62908F2
Copy CRC D62908F2
Accurately ripped (confidence 16) [E984DFEC]
Copy OK

Track 10

Filename E:\Journey - 1992 - Timeі\Disc 2\10 - Journey - Wheel In The Sky.wav

Peak level 96.8 %
Track quality 100.0 %
Test CRC 1B7207A4
Copy CRC 1B7207A4
Accurately ripped (confidence 17) [7C8B9175]
Copy OK

Track 11

Filename E:\Journey - 1992 - Timeі\Disc 2\11 - Journey - The Party's Over (Hopelessly In Love).wav

Pre-gap length 0:00:01.80

Peak level 96.6 %
Track quality 100.0 %
Test CRC 76AEF261
Copy CRC 76AEF261
Accurately ripped (confidence 17) [E131568E]
Copy OK

Track 12

Filename E:\Journey - 1992 - Timeі\Disc 2\12 - Journey - Don't Stop Believin'.wav

Pre-gap length 0:00:01.80

Peak level 96.6 %
Track quality 100.0 %
Test CRC 9577B912
Copy CRC 9577B912
Accurately ripped (confidence 16) [23DF0CA5]
Copy OK

Track 13

Filename E:\Journey - 1992 - Timeі\Disc 2\13 - Journey - Stone In Love.wav

Peak level 96.6 %
Track quality 100.0 %
Test CRC 206E640D
Copy CRC 206E640D
Accurately ripped (confidence 17) [4502D0FD]
Copy OK

Track 14

Filename E:\Journey - 1992 - Timeі\Disc 2\14 - Journey - Keep On Runnin'.wav

Pre-gap length 0:00:00.77

Peak level 96.6 %
Track quality 100.0 %
Test CRC B6871099
Copy CRC B6871099
Accurately ripped (confidence 16) [F03CC8B7]
Copy OK

Track 15

Filename E:\Journey - 1992 - Timeі\Disc 2\15 - Journey - Who's Cryin' Now.wav

Pre-gap length 0:00:01.33

Peak level 96.6 %
Track quality 100.0 %
Test CRC D34F0E0E
Copy CRC D34F0E0E
Accurately ripped (confidence 16) [44A9DCF5]
Copy OK

Track 16

Filename E:\Journey - 1992 - Timeі\Disc 2\16 - Journey - Still They Ride.wav

Pre-gap length 0:00:00.80

Peak level 96.6 %
Track quality 100.0 %
Test CRC 33C05F9B
Copy CRC 33C05F9B
Accurately ripped (confidence 17) [7B8BF3D2]
Copy OK

Track 17

Filename E:\Journey - 1992 - Timeі\Disc 2\17 - Journey - Open Arms.wav

Pre-gap length 0:00:00.76

Peak level 96.6 %
Track quality 100.0 %
Test CRC F9C69DFB
Copy CRC F9C69DFB
Accurately ripped (confidence 17) [3E51A536]
Copy OK

Track 18

Filename E:\Journey - 1992 - Timeі\Disc 2\18 - Journey - Mother, Father.wav

Pre-gap length 0:00:01.62

Peak level 96.6 %
Track quality 100.0 %
Test CRC 7D40D7F4
Copy CRC 7D40D7F4
Accurately ripped (confidence 16) [8902A824]
Copy OK


All tracks accurately ripped

No errors occurred

End of status report

[CUETools log; Date: 16.05.2019 2:34:56; Version: 2.1.4]
[CTDB TOCID: Ba4HL3NseJ6rsrYl_fjp83F981o-] found.
Track | CTDB Status
1 | (172/173) Accurately ripped
2 | (172/173) Accurately ripped
3 | (171/173) Accurately ripped
4 | (170/173) Accurately ripped
5 | (171/173) Accurately ripped
6 | (171/173) Accurately ripped
7 | (172/173) Accurately ripped
8 | (172/173) Accurately ripped
9 | (172/173) Accurately ripped
10 | (173/173) Accurately ripped
11 | (173/173) Accurately ripped
12 | (172/173) Accurately ripped
13 | (173/173) Accurately ripped
14 | (173/173) Accurately ripped
15 | (173/173) Accurately ripped
16 | (172/173) Accurately ripped
17 | (173/173) Accurately ripped
18 | (170/173) Accurately ripped
[AccurateRip ID: 002f9fa2-0289c081-0311ef12] found.
Track [ CRC | V2 ] Status
01 [9b2261a0|88f28a6a] (028+034/185) Accurately ripped
02 [7d1b1644|26129f78] (028+034/185) Accurately ripped
03 [879c969e|f53d9a8e] (028+034/184) Accurately ripped
04 [10b77132|02afa530] (028+035/185) Accurately ripped
05 [538b71d5|4a508625] (029+034/188) Accurately ripped
06 [9f6910e4|86a37bba] (028+034/187) Accurately ripped
07 [a12fec38|68f510a4] (028+034/187) Accurately ripped
08 [bc0de01f|0bfe09c5] (028+034/184) Accurately ripped
09 [e984dfec|6a5e9d41] (027+034/183) Accurately ripped
10 [7c8b9175|3f20f0d1] (029+033/186) Accurately ripped
11 [e131568e|c778a4f7] (028+034/189) Accurately ripped
12 [23df0ca5|cef22753] (028+034/187) Accurately ripped
13 [4502d0fd|f249c068] (028+035/188) Accurately ripped
14 [f03cc8b7|27794354] (027+034/185) Accurately ripped
15 [44a9dcf5|518627f6] (027+034/183) Accurately ripped
16 [7b8bf3d2|0ccbfe3c] (028+034/187) Accurately ripped
17 [3e51a536|c4fc9db3] (027+034/179) Accurately ripped
18 [8902a824|6c86e365] (026+034/178) Accurately ripped
Offsetted by -483:
01 [c3222695] (003/185) Accurately ripped
02 [0cb44799] (003/185) Accurately ripped
03 [6bfb1ced] (003/184) Accurately ripped
04 [3088fdc8] (003/185) Accurately ripped
05 [e5373fee] (003/188) Accurately ripped
06 [5f31e11a] (003/187) Accurately ripped
07 [2fa11904] (003/187) Accurately ripped
08 [f937e33e] (003/184) Accurately ripped
09 [7def0902] (003/183) Accurately ripped
10 [c7a79f8f] (003/186) Accurately ripped
11 [1d094c93] (003/189) Accurately ripped
12 [0ba6e241] (003/187) Accurately ripped
13 [5968c988] (003/188) Accurately ripped
14 [36ed2e41] (003/185) Accurately ripped
15 [90fe6bdc] (003/183) Accurately ripped
16 [2a486277] (003/187) Accurately ripped
17 [05ab4c1b] (003/179) Accurately ripped
18 [3dbb7a42] (003/178) Accurately ripped
Offsetted by -439:
01 [9953fe61] (006/185) Accurately ripped
02 [d75759e5] (006/185) Accurately ripped
03 [3a06a491] (006/184) Accurately ripped
04 [78e64430] (005/185) Accurately ripped
05 [3d5e2254] (005/188) Accurately ripped
06 [4879fca4] (005/187) Accurately ripped
07 [3e008bb9] (006/187) Accurately ripped
08 [3ff54d90] (005/184) Accurately ripped
09 [f6092d7d] (006/183) Accurately ripped
10 [ccce0d3d] (006/186) Accurately ripped
11 [e979121f] (006/189) Accurately ripped
12 [64369e33] (006/187) Accurately ripped
13 [c01071fe] (006/188) Accurately ripped
14 [6f078359] (006/185) Accurately ripped
15 [829ebc20] (005/183) Accurately ripped
16 [21c8f983] (006/187) Accurately ripped
17 [fd944a27] (004/179) Accurately ripped
18 [3975a38a] (004/178) Accurately ripped
Offsetted by -123:
01 [55d13abd] (009/185) Accurately ripped
02 [86a4aec1] (009/185) Accurately ripped
03 [d3422ce5] (008/184) Accurately ripped
04 [520fc978] (008/185) Accurately ripped
05 [0796c595] (009/188) Accurately ripped
06 [2f1eb34f] (009/187) Accurately ripped
07 [4b2672d7] (008/187) Accurately ripped
08 [13900931] (009/184) Accurately ripped
09 [486485a0] (008/183) Accurately ripped
10 [77ad7623] (008/186) Accurately ripped
11 [a5b3113b] (009/189) Accurately ripped
12 [906acd5a] (008/187) Accurately ripped
13 [9ceec813] (008/188) Accurately ripped
14 [76504391] (008/185) Accurately ripped
15 [8fc0fc94] (007/183) Accurately ripped
16 [70647c1f] (007/187) Accurately ripped
17 [37d7c7c3] (007/179) Accurately ripped
18 [49518632] (007/178) Accurately ripped
Offsetted by 346:
01 [23d8dfaa] (002/185) Accurately ripped
02 [96ddc90e] (002/185) Accurately ripped
03 [7da4b59c] (002/184) Accurately ripped
04 [ecac321e] (002/185) Accurately ripped
05 [bbb8d72e] (002/188) Accurately ripped
06 [d4c25c9d] (002/187) Accurately ripped
07 [ff70c646] (002/187) Accurately ripped
08 [7ca7135a] (002/184) Accurately ripped
09 [a2061252] (002/183) Accurately ripped
10 [c946dee0] (002/186) Accurately ripped
11 [28ced0b8] (002/189) Accurately ripped
12 [6261aa32] (002/187) Accurately ripped
13 [fc2d592a] (002/188) Accurately ripped
14 [9223200b] (002/185) Accurately ripped
15 [bc5c5423] (002/183) Accurately ripped
16 [4fff233c] (002/187) Accurately ripped
17 [676e2d20] (002/179) Accurately ripped
18 [44806120] (002/178) Accurately ripped
Offsetted by 348:
01 [dc20f51c] (013/185) Accurately ripped
02 [2015be40] (013/185) Accurately ripped
03 [fb5d6a52] (013/184) Accurately ripped
04 [6453583a] (013/185) Accurately ripped
05 [7d8aaa09] (014/188) Accurately ripped
06 [01360d3a] (014/187) Accurately ripped
07 [bf60e055] (014/187) Accurately ripped
08 [759c3cfc] (014/184) Accurately ripped
09 [bfb74710] (013/183) Accurately ripped
10 [1b3968f9] (013/186) Accurately ripped
11 [3219b6ca] (014/189) Accurately ripped
12 [c443ad66] (013/187) Accurately ripped
13 [3b78043c] (013/188) Accurately ripped
14 [f1c73b2f] (013/185) Accurately ripped
15 [18cc57c9] (013/183) Accurately ripped
16 [f284fb8e] (013/187) Accurately ripped
17 [44274ff2] (013/179) Accurately ripped
18 [4ff1918c] (012/178) Accurately ripped
Offsetted by 803:
01 [a03003eb] (002/185) Accurately ripped
02 [1150242f] (002/185) Accurately ripped
03 [3502020f] (002/184) Accurately ripped
04 [b95db61c] (002/185) Accurately ripped
05 [f484b7ef] (002/188) Accurately ripped
06 [e3a743a3] (002/187) Accurately ripped
07 [7d99322d] (002/187) Accurately ripped
08 [128d97ae] (002/184) Accurately ripped
09 [4e806e8d] (002/183) Accurately ripped
10 [2d93cc15] (002/186) Accurately ripped
11 [74292bc9] (002/189) Accurately ripped
12 [05926794] (002/187) Accurately ripped
13 [1983333f] (002/188) Accurately ripped
14 [701d59ad] (002/185) Accurately ripped
15 [be5795ce] (002/183) Accurately ripped
16 [6076b86d] (002/187) Accurately ripped
17 [6aadc191] (002/179) Accurately ripped
18 [fa1b2383] (002/178) Accurately ripped
Offsetted by 908:
01 [6af869cc] (002/185) Accurately ripped
02 [3549ecf0] (002/185) Accurately ripped
03 [7d631162] (002/184) Accurately ripped
04 [432506da] (002/185) Accurately ripped
05 [b48162dc] (002/188) Accurately ripped
06 [056a6244] (002/187) Accurately ripped
07 [3b6de35e] (002/187) Accurately ripped
08 [7b79e1e5] (002/184) Accurately ripped
09 [8ebed2f1] (002/183) Accurately ripped
10 [804caf29] (002/186) Accurately ripped
11 [5c055a7a] (002/189) Accurately ripped
12 [77db8232] (002/187) Accurately ripped
13 [a1eb5e4c] (002/188) Accurately ripped
14 [8d44ea8f] (002/185) Accurately ripped
15 [33505559] (002/183) Accurately ripped
16 [b4e9953e] (002/187) Accurately ripped
17 [aea565a2] (002/179) Accurately ripped
18 [d2d19212] (002/178) Accurately ripped
Offsetted by 970:
01 [bbb3029a] (002/185) Accurately ripped
02 [d3109dfe] (002/185) Accurately ripped
03 [b6c0f36c] (002/184) Accurately ripped
04 [c062a43e] (002/185) Accurately ripped
05 [fbdaedb1] (002/188) Accurately ripped
06 [00749cf9] (002/187) Accurately ripped
07 [05f0bc97] (002/187) Accurately ripped
08 [fbbf21da] (002/184) Accurately ripped
09 [85e6a08a] (002/183) Accurately ripped
10 [c79a7cdc] (002/186) Accurately ripped
11 [7c1736a8] (002/189) Accurately ripped
12 [b64d41e1] (002/187) Accurately ripped
13 [5593237b] (002/188) Accurately ripped
14 [222433eb] (002/185) Accurately ripped
15 [64e0c673] (002/183) Accurately ripped
16 [631ec72c] (002/187) Accurately ripped
17 [69109d10] (002/179) Accurately ripped
18 [3499780d] (002/178) Accurately ripped
Offsetted by 1143:
01 [000e419f] (005/185) Accurately ripped
02 [3078f763] (005/185) Accurately ripped
03 [b1aa02eb] (005/184) Accurately ripped
04 [2e5d04b4] (005/185) Accurately ripped
05 [e5be88c2] (005/188) Accurately ripped
06 [ed12d98d] (005/187) Accurately ripped
07 [83e35661] (005/187) Accurately ripped
08 [464325ca] (005/184) Accurately ripped
09 [19cb05ac] (005/183) Accurately ripped
10 [fdd83a6d] (005/186) Accurately ripped
11 [9fe5f3bd] (005/189) Accurately ripped
12 [9ff5598b] (005/187) Accurately ripped
13 [58d61d04] (005/188) Accurately ripped
14 [f3175f95] (005/185) Accurately ripped
15 [20ba020a] (005/183) Accurately ripped
16 [4d585ee1] (005/187) Accurately ripped
17 [fd9ee105] (005/179) Accurately ripped
18 [925855e5] (004/178) Accurately ripped
Offsetted by 1159:
01 [c24eed2f] (003/185) Accurately ripped
02 [7a38a0f3] (003/185) Accurately ripped
03 [9f6fa89b] (003/184) Accurately ripped
04 [eb963594] (003/185) Accurately ripped
05 [2d10a322] (003/188) Accurately ripped
06 [0d9bc228] (003/187) Accurately ripped
07 [1fdfd779] (003/187) Accurately ripped
08 [73cac8ad] (003/184) Accurately ripped
09 [0f21ee71] (003/183) Accurately ripped
10 [eb25f99a] (003/186) Accurately ripped
11 [ea3d244d] (003/189) Accurately ripped
12 [abd56efb] (003/187) Accurately ripped
13 [565b79c4] (003/188) Accurately ripped
14 [f03838b5] (003/185) Accurately ripped
15 [043a1f3a] (003/183) Accurately ripped
16 [61872171] (003/187) Accurately ripped
17 [e367f795] (003/179) Accurately ripped
18 [ede1d965] (003/178) Accurately ripped
Offsetted by -583:
01 [c50df651] (000/185) No match (V2 was not tested)
02 [e11163d5] (000/185) No match (V2 was not tested)
03 [dd74d161] (000/184) No match (V2 was not tested)
04 [d1e38c50] (000/185) No match (V2 was not tested)
05 [30a212b5] (000/188) No match (V2 was not tested)
06 [f867464f] (000/187) No match (V2 was not tested)
07 [b3fe1fde] (000/187) No match (V2 was not tested)
08 [833ae5d8] (000/184) No match (V2 was not tested)
09 [e3a40965] (000/183) No match (V2 was not tested)
10 [15a1fea0] (000/186) No match (V2 was not tested)
11 [4c685d0f] (000/189) No match (V2 was not tested)
12 [df28d9a9] (000/187) No match (V2 was not tested)
13 [14837bfc] (000/188) No match (V2 was not tested)
14 [88dfe139] (000/185) No match (V2 was not tested)
15 [831db570] (000/183) No match (V2 was not tested)
16 [6c242273] (000/187) No match (V2 was not tested)
17 [e9827f17] (000/179) No match (V2 was not tested)
18 [028cfcbf] (000/178) No match (V2 was not tested)
Offsetted by -218:
01 [24714016] (000/185) No match (V2 was not tested)
02 [1121affa] (000/185) No match (V2 was not tested)
03 [ff1da520] (000/184) No match (V2 was not tested)
04 [1e8c3746] (000/185) No match (V2 was not tested)
05 [cc913d78] (000/188) No match (V2 was not tested)
06 [a14e04b2] (000/187) No match (V2 was not tested)
07 [170a839e] (000/187) No match (V2 was not tested)
08 [c50bfa1b] (000/184) No match (V2 was not tested)
09 [4e7de2b7] (000/183) No match (V2 was not tested)
10 [4ec1365b] (000/186) No match (V2 was not tested)
11 [ec4d60e4] (000/189) No match (V2 was not tested)
12 [9f03157e] (000/187) No match (V2 was not tested)
13 [6a691952] (000/188) No match (V2 was not tested)
14 [375d3a63] (000/185) No match (V2 was not tested)
15 [e8f84f47] (000/183) No match (V2 was not tested)
16 [488ed8e8] (000/187) No match (V2 was not tested)
17 [437dd1cc] (000/179) No match (V2 was not tested)
18 [a9d10a28] (000/178) No match (V2 was not tested)
Offsetted by -37:
01 [49ecd4e3] (002/185) Accurately ripped
02 [92b4de27] (002/185) Accurately ripped
03 [f19e8777] (002/184) Accurately ripped
04 [6b23302c] (002/185) Accurately ripped
05 [12fe82e5] (002/188) Accurately ripped
06 [f1e27f50] (002/187) Accurately ripped
07 [81ad04b6] (002/187) Accurately ripped
08 [fc4b1849] (002/184) Accurately ripped
09 [983e239b] (002/183) Accurately ripped
10 [50e71b9c] (002/186) Accurately ripped
11 [3547b641] (002/189) Accurately ripped
12 [ef5ecce8] (002/187) Accurately ripped
13 [35dc78ab] (002/188) Accurately ripped
14 [86e0d29d] (002/185) Accurately ripped
15 [16919976] (002/183) Accurately ripped
16 [bcdfd1e5] (002/187) Accurately ripped
17 [4af0a109] (002/179) Accurately ripped
18 [3554a856] (000/178) No match (V2 was not tested)
Offsetted by 117:
01 [b79b482d] (000/185) No match (V2 was not tested)
02 [37569e31] (000/185) No match (V2 was not tested)
03 [c287e235] (000/184) No match (V2 was not tested)
04 [6869a698] (000/185) No match (V2 was not tested)
05 [98ab1ddc] (000/188) No match (V2 was not tested)
06 [f3a02a5e] (000/187) No match (V2 was not tested)
07 [8a68c73d] (000/187) No match (V2 was not tested)
08 [609f47cf] (000/184) No match (V2 was not tested)
09 [0e80ff2a] (000/183) No match (V2 was not tested)
10 [d565e1d7] (000/186) No match (V2 was not tested)
11 [00cee9ab] (000/189) No match (V2 was not tested)
12 [f0614dfd] (000/187) No match (V2 was not tested)
13 [32e1dda8] (000/188) No match (V2 was not tested)
14 [4b3cfc71] (000/185) No match (V2 was not tested)
15 [e442b264] (000/183) No match (V2 was not tested)
16 [9f21e28f] (000/187) No match (V2 was not tested)
17 [aea01a33] (000/179) No match (V2 was not tested)
18 [a66038d2] (000/178) No match (V2 was not tested)
Offsetted by 377:
01 [4c362c11] (000/185) No match (V2 was not tested)
02 [e5c12195] (000/185) No match (V2 was not tested)
03 [9a53a6a1] (000/184) No match (V2 was not tested)
04 [2b4b00d0] (000/185) No match (V2 was not tested)
05 [129c1720] (000/188) No match (V2 was not tested)
06 [f5d904e8] (000/187) No match (V2 was not tested)
07 [a93b3d3f] (000/187) No match (V2 was not tested)
08 [2ee8c753] (000/184) No match (V2 was not tested)
09 [c417ef38] (000/183) No match (V2 was not tested)
10 [e87c70b5] (000/186) No match (V2 was not tested)
11 [b8d7becf] (000/189) No match (V2 was not tested)
12 [14f49fd4] (000/187) No match (V2 was not tested)
13 [5148b4ed] (000/188) No match (V2 was not tested)
14 [dc92c4b9] (000/185) No match (V2 was not tested)
15 [d5248cb0] (000/183) No match (V2 was not tested)
16 [2719bc33] (000/187) No match (V2 was not tested)
17 [c4a3c8d7] (000/179) No match (V2 was not tested)
18 [75dacfaa] (000/178) No match (V2 was not tested)
Offsetted by 711:
01 [833c296f] (000/185) No match (V2 was not tested)
02 [69421533] (000/185) No match (V2 was not tested)
03 [9dd1895b] (000/184) No match (V2 was not tested)
04 [3954dd14] (000/185) No match (V2 was not tested)
05 [644b933d] (000/188) No match (V2 was not tested)
06 [4468b3ad] (000/187) No match (V2 was not tested)
07 [9e7ed0ea] (000/187) No match (V2 was not tested)
08 [d7c8f0ec] (000/184) No match (V2 was not tested)
09 [7618a112] (000/183) No match (V2 was not tested)
10 [a4158071] (000/186) No match (V2 was not tested)
11 [c8b3d48d] (000/189) No match (V2 was not tested)
12 [02d8fdb3] (000/187) No match (V2 was not tested)
13 [aff16724] (000/188) No match (V2 was not tested)
14 [40a07935] (000/185) No match (V2 was not tested)
15 [2236edfa] (000/183) No match (V2 was not tested)
16 [2c69d9b1] (000/187) No match (V2 was not tested)
17 [c1697fd5] (000/179) No match (V2 was not tested)
18 [ebc46fbf] (000/178) No match (V2 was not tested)
Offsetted by 1107:
01 [0afcbf9b] (000/185) No match (V2 was not tested)
02 [8a89b9df] (000/185) No match (V2 was not tested)
03 [daad4e1f] (000/184) No match (V2 was not tested)
04 [c49c56bc] (000/185) No match (V2 was not tested)
05 [67679ea8] (000/188) No match (V2 was not tested)
06 [5c2613bc] (000/187) No match (V2 was not tested)
07 [f63ab185] (000/187) No match (V2 was not tested)
08 [0b25ad5a] (000/184) No match (V2 was not tested)
09 [88445195] (000/183) No match (V2 was not tested)
10 [790fcc73] (000/186) No match (V2 was not tested)
11 [f8a1c679] (000/189) No match (V2 was not tested)
12 [c545294f] (000/187) No match (V2 was not tested)
13 [de620c54] (000/188) No match (V2 was not tested)
14 [398d770d] (000/185) No match (V2 was not tested)
15 [a0d9c05e] (000/183) No match (V2 was not tested)
16 [dfef291d] (000/187) No match (V2 was not tested)
17 [789a6e41] (000/179) No match (V2 was not tested)
18 [c462ee05] (000/178) No match (V2 was not tested)
Offsetted by 1372:
01 [6c4bd91c] (002/185) Accurately ripped
02 [efb02240] (002/185) Accurately ripped
03 [6c3ed652] (002/184) Accurately ripped
04 [b29f903a] (002/185) Accurately ripped
05 [e2c62ad9] (002/188) Accurately ripped
06 [023c3788] (002/187) Accurately ripped
07 [2391b2a8] (002/187) Accurately ripped
08 [e7f6856b] (000/184) No match
09 [e072c7f3] (000/183) No match
10 [cfed8e8e] (002/186) Accurately ripped
11 [c7e5daca] (002/189) Accurately ripped
12 [8b9bc512] (002/187) Accurately ripped
13 [5d5ce2f8] (002/188) Accurately ripped
14 [39fd832f] (002/185) Accurately ripped
15 [f8d3a3c9] (002/183) Accurately ripped
16 [fe359f8e] (002/187) Accurately ripped
17 [b66cf3f2] (000/179) No match (V2 was not tested)
18 [30787ffd] (002/178) Accurately ripped

Track Peak [ CRC32 ] [W/O NULL] [ LOG ]
– 97,7 [46DF18F2] [0DF5F2DC]
01 97,3 [DD8FF203] [75A053F8] CRC32
02 95,7 [97F0E552] [1D2D16EF] CRC32
03 95,1 [CEF462E7] [7F207A10] CRC32
04 95,1 [968E8B26] [51CFCC36] CRC32
05 96,8 [1317192E] [E67263BA] CRC32
06 96,6 [20475E5D] [39886AF7] CRC32
07 96,6 [9A890E7D] [0EBC1380] CRC32
08 97,7 [A51262E1] [1D50587B] CRC32
09 96,8 [D62908F2] [8F1E5F7E] CRC32
10 96,8 [1B7207A4] [FB2F43D9] CRC32
11 96,6 [76AEF261] [D8604552] CRC32
12 96,6 [9577B912] [15AAF752] CRC32
13 96,6 [206E640D] [42B9B56E] CRC32
14 96,6 [B6871099] [3EC30F1C] CRC32
15 96,6 [D34F0E0E] [0139D44A] CRC32
16 96,6 [33C05F9B] [E7501720] CRC32
17 96,6 [F9C69DFB] [A34980E8] CRC32
18 96,6 [7D40D7F4] [58B770F8] CRC32

foobar2000 1.2 / Dynamic Range Meter 1.1.1
log date: 2019-05-16 02:40:44

––––––––––––––––––––––––––––––––––––––––
Analyzed: Journey / Time [Disc 2]
––––––––––––––––––––––––––––––––––––––––

DR Peak RMS Duration Track
––––––––––––––––––––––––––––––––––––––––
DR9 -0.23 dB -11.74 dB 3:03 01-Where Were You
DR10 -0.38 dB -11.69 dB 3:07 02-Line Of Fire
DR11 -0.43 dB -12.87 dB 2:55 03-Homemade Love
DR12 -0.44 dB -14.29 dB 3:47 04-Natural Thing
DR11 -0.28 dB -13.52 dB 3:31 05-Lights
DR12 -0.30 dB -14.48 dB 2:13 06-Stay Awhile
DR12 -0.30 dB -14.54 dB 7:13 07-Walks Like A Lady
DR12 -0.20 dB -13.04 dB 4:57 08-Lovin', Touchin', Squeezin'
DR12 -0.28 dB -14.05 dB 6:49 09-Dixie Highway
DR12 -0.28 dB -13.31 dB 5:15 10-Wheel In The Sky
DR12 -0.30 dB -14.11 dB 3:42 11-The Party's Over (Hopelessly In Love)
DR11 -0.30 dB -13.12 dB 4:11 12-Don't Stop Believin'
DR12 -0.30 dB -13.75 dB 4:27 13-Stone In Love
DR10 -0.30 dB -12.03 dB 3:41 14-Keep On Runnin'
DR11 -0.30 dB -14.03 dB 5:03 15-Who's Cryin' Now
DR11 -0.30 dB -13.56 dB 3:50 16-Still They Ride
DR11 -0.30 dB -15.13 dB 3:20 17-Open Arms
DR10 -0.30 dB -13.12 dB 5:28 18-Mother, Father
––––––––––––––––––––––––––––––––––––––––

Number of tracks: 18
Official DR value: DR11

Samplerate: 44100 Hz
Channels: 2
Bits per sample: 16
Bitrate: 922 kbps
Codec: FLAC
================================================================================


Exact Audio Copy V0.99 prebeta 4 from 23. January 2008

EAC extraction logfile from 8. March 2009, 15:29

Journey / Time [Disc 3]

Used drive : TSSTcorpCDDVDW SH-S203B Adapter: 5 ID: 0

Read mode : Secure
Utilize accurate stream : Yes
Defeat audio cache : Yes
Make use of C2 pointers : No

Read offset correction : 6
Overread into Lead-In and Lead-Out : No
Fill up missing offset samples with silence : Yes
Delete leading and trailing silent blocks : No
Null samples used in CRC calculations : Yes
Used interface : Native Win32 interface for Win NT & 2000
Gap handling : Appended to previous track

Used output format : User Defined Encoder
Selected bitrate : 192 kBit/s
Quality : High
Add ID3 tag : No
Command line compressor : C:\Program Files (x86)\Exact Audio Copy\Flac\flac.exe
Additional command line options : V -5 -T "artist=%a" -T "title=%t" -T "album=%g" -T "date=%y" -T "tracknumber=%n" -T "genre=%m" %s


TOC of the extracted CD

Track | Start | Length | Start sector | End sector
––––––––––––––––––––––––––––-
1 | 0:00.00 | 3:24.55 | 0 | 15354
2 | 3:24.55 | 3:39.52 | 15355 | 31831
3 | 7:04.32 | 2:56.03 | 31832 | 45034
4 | 10:00.35 | 5:24.20 | 45035 | 69354
5 | 15:24.55 | 3:56.10 | 69355 | 87064
6 | 19:20.65 | 4:28.00 | 87065 | 107164
7 | 23:48.65 | 5:02.17 | 107165 | 129831
8 | 28:51.07 | 3:55.53 | 129832 | 147509
9 | 32:46.60 | 4:33.50 | 147510 | 168034
10 | 37:20.35 | 3:42.07 | 168035 | 184691
11 | 41:02.42 | 4:40.50 | 184692 | 205741
12 | 45:43.17 | 3:49.00 | 205742 | 222916
13 | 49:32.17 | 3:53.58 | 222917 | 240449
14 | 53:26.00 | 4:06.25 | 240450 | 258924
15 | 57:32.25 | 3:55.45 | 258925 | 276594
16 | 61:27.70 | 3:26.62 | 276595 | 292106
17 | 64:54.57 | 4:10.30 | 292107 | 310886
18 | 69:05.12 | 4:16.25 | 310887 | 330111
19 | 73:21.37 | 4:59.50 | 330112 | 352586


Track 1

Filename E:\Journey - 1992 - Timeі\Disc 3\01 - Journey - La Raza Del Sol (Alternate Version).wav

Pre-gap length 0:00:02.00

Peak level 92.4 %
Track quality 100.0 %
Test CRC 8D4FA021
Copy CRC 8D4FA021
Accurately ripped (confidence 15) [3F426648]
Copy OK

Track 2

Filename E:\Journey - 1992 - Timeі\Disc 3\02 - Journey - Only Solutions.wav

Pre-gap length 0:00:01.84

Peak level 94.4 %
Track quality 100.0 %
Test CRC 41A676DE
Copy CRC 41A676DE
Accurately ripped (confidence 16) [F9ADC171]
Copy OK

Track 3

Filename E:\Journey - 1992 - Timeі\Disc 3\03 - Journey - Liberty.wav

Pre-gap length 0:00:01.82

Peak level 100.0 %
Track quality 100.0 %
Test CRC EEBA7AE5
Copy CRC EEBA7AE5
Accurately ripped (confidence 15) [181953C3]
Copy OK

Track 4

Filename E:\Journey - 1992 - Timeі\Disc 3\04 - Journey - Separate Ways (Worlds Apart).wav

Pre-gap length 0:00:01.80

Peak level 100.0 %
Track quality 100.0 %
Test CRC 518A28E2
Copy CRC 518A28E2
Accurately ripped (confidence 16) [D71E6B15]
Copy OK

Track 5

Filename E:\Journey - 1992 - Timeі\Disc 3\05 - Journey - Send Her My Love.wav

Peak level 100.0 %
Track quality 100.0 %
Test CRC 4D2D9EAB
Copy CRC 4D2D9EAB
Accurately ripped (confidence 16) [E35B906C]
Copy OK

Track 6

Filename E:\Journey - 1992 - Timeі\Disc 3\06 - Journey - Faithfully.wav

Pre-gap length 0:00:01.70

Peak level 100.0 %
Track quality 100.0 %
Test CRC 6128A84B
Copy CRC 6128A84B
Accurately ripped (confidence 15) [23D8DBBD]
Copy OK

Track 7

Filename E:\Journey - 1992 - Timeі\Disc 3\07 - Journey - After The Fall.wav

Peak level 100.0 %
Track quality 100.0 %
Test CRC 1573B62C
Copy CRC 1573B62C
Accurately ripped (confidence 16) [79D60ED6]
Copy OK

Track 8

Filename E:\Journey - 1992 - Timeі\Disc 3\08 - Journey - All That Really Matters.wav

Pre-gap length 0:00:01.82

Peak level 100.0 %
Track quality 100.0 %
Test CRC EA8416DD
Copy CRC EA8416DD
Accurately ripped (confidence 14) [DF525570]
Copy OK

Track 9

Filename E:\Journey - 1992 - Timeі\Disc 3\09 - Journey - The Eyes Of A Woman.wav

Pre-gap length 0:00:01.13

Peak level 97.3 %
Track quality 100.0 %
Test CRC 7E6C917D
Copy CRC 7E6C917D
Accurately ripped (confidence 13) [1E7F6B18]
Copy OK

Track 10

Filename E:\Journey - 1992 - Timeі\Disc 3\10 - Journey - Why Can't This Night Go On Forever.wav

Peak level 97.3 %
Track quality 99.9 %
Test CRC 75FF0B49
Copy CRC 75FF0B49
Accurately ripped (confidence 15) [70F5C5C3]
Copy OK

Track 11

Filename E:\Journey - 1992 - Timeі\Disc 3\11 - Journey - Once You Love Somebody.wav

Peak level 97.3 %
Track quality 100.0 %
Test CRC 04C9468B
Copy CRC 04C9468B
Accurately ripped (confidence 14) [0369F69F]
Copy OK

Track 12

Filename E:\Journey - 1992 - Timeі\Disc 3\12 - Journey - Happy to Give.wav

Peak level 97.3 %
Track quality 100.0 %
Test CRC 23C81038
Copy CRC 23C81038
Accurately ripped (confidence 14) [F2FA11CF]
Copy OK

Track 13

Filename E:\Journey - 1992 - Timeі\Disc 3\13 - Journey - Be Good To Yourself.wav

Peak level 97.3 %
Track quality 99.9 %
Test CRC E2644C7B
Copy CRC E2644C7B
Accurately ripped (confidence 14) [C757EDBB]
Copy OK

Track 14

Filename E:\Journey - 1992 - Timeі\Disc 3\14 - Journey - Only The Young.wav

Pre-gap length 0:00:01.46

Peak level 97.2 %
Track quality 100.0 %
Test CRC 34CE0169
Copy CRC 34CE0169
Accurately ripped (confidence 16) [9ED9EB8B]
Copy OK

Track 15

Filename E:\Journey - 1992 - Timeі\Disc 3\15 - Journey - Ask The Lonely.wav

Peak level 98.8 %
Track quality 100.0 %
Test CRC 0AD2FC41
Copy CRC 0AD2FC41
Accurately ripped (confidence 14) [72D6DED6]
Copy OK

Track 16

Filename E:\Journey - 1992 - Timeі\Disc 3\16 - Journey - With A Tear.wav

Pre-gap length 0:00:01.32

Peak level 97.7 %
Track quality 99.8 %
Test CRC 0029AFD7
Copy CRC 0029AFD7
Accurately ripped (confidence 14) [54AC8C43]
Copy OK

Track 17

Filename E:\Journey - 1992 - Timeі\Disc 3\17 - Journey - Into Your Arms.wav

Pre-gap length 0:00:01.80

Peak level 100.0 %
Track quality 99.9 %
Test CRC 5256109D
Copy CRC 5256109D
Accurately ripped (confidence 15) [0BD444A9]
Copy OK

Track 18

Filename E:\Journey - 1992 - Timeі\Disc 3\18 - Journey - Girl Can't Help It (Live).wav

Pre-gap length 0:00:01.56

Peak level 97.3 %
Track quality 99.9 %
Test CRC DFBFA1F9
Copy CRC DFBFA1F9
Accurately ripped (confidence 15) [0C522FA2]
Copy OK

Track 19

Filename E:\Journey - 1992 - Timeі\Disc 3\19 - Journey - I'll Be Alright Without You (Live).wav

Peak level 97.7 %
Track quality 100.0 %
Test CRC 88AA9BEB
Copy CRC 88AA9BEB
Accurately ripped (confidence 14) [5ADEC034]
Copy OK


All tracks accurately ripped

No errors occurred

End of status report

[CUETools log; Date: 16.05.2019 2:35:20; Version: 2.1.4]
[CTDB TOCID: lHhncVsanrL85rtvUzRATdB0aPg-] found.
Track | CTDB Status
1 | (173/174) Accurately ripped
2 | (173/174) Accurately ripped
3 | (172/174) Accurately ripped
4 | (171/174) Accurately ripped
5 | (173/174) Accurately ripped
6 | (172/174) Accurately ripped
7 | (173/174) Accurately ripped
8 | (172/174) Accurately ripped
9 | (172/174) Accurately ripped
10 | (171/174) Accurately ripped
11 | (170/174) Accurately ripped
12 | (172/174) Accurately ripped
13 | (172/174) Accurately ripped
14 | (172/174) Accurately ripped
15 | (171/174) Accurately ripped
16 | (172/174) Accurately ripped
17 | (172/174) Accurately ripped
18 | (170/174) Accurately ripped
19 | (170/174) Accurately ripped
[AccurateRip ID: 00350ae6-02eaa4d0-16125d13] found.
Track [ CRC | V2 ] Status
01 [3f426648|4f53974e] (024+031/183) Accurately ripped
02 [f9adc171|6b08d3c7] (025+031/185) Accurately ripped
03 [181953c3|93004f6c] (024+031/182) Accurately ripped
04 [d71e6b15|b44539dd] (026+031/184) Accurately ripped
05 [e35b906c|6a94a3e8] (025+030/181) Accurately ripped
06 [23d8dbbd|63bf8bf9] (024+031/183) Accurately ripped
07 [79d60ed6|0dc75cfb] (025+030/182) Accurately ripped
08 [df525570|0e47f093] (023+031/183) Accurately ripped
09 [1e7f6b18|fa70b66d] (022+030/181) Accurately ripped
10 [70f5c5c3|0e4fb28f] (024+030/183) Accurately ripped
11 [0369f69f|dcb88f3d] (023+030/182) Accurately ripped
12 [f2fa11cf|95825aad] (023+030/182) Accurately ripped
13 [c757edbb|5301a4fd] (023+031/183) Accurately ripped
14 [9ed9eb8b|7a90c067] (025+032/188) Accurately ripped
15 [72d6ded6|03d211a0] (023+032/182) Accurately ripped
16 [54ac8c43|418efb76] (023+031/181) Accurately ripped
17 [0bd444a9|524516a4] (024+031/182) Accurately ripped
18 [0c522fa2|7c820bf1] (024+032/181) Accurately ripped
19 [5adec034|80831e34] (023+031/177) Accurately ripped
Offsetted by -1416:
01 [3f4fdad0] (008/183) Accurately ripped
02 [efe77c51] (008/185) Accurately ripped
03 [f7a86c2b] (008/182) Accurately ripped
04 [0fe4d400] (008/184) Accurately ripped
05 [d869c349] (008/181) Accurately ripped
06 [520b5cfe] (008/183) Accurately ripped
07 [fd94e485] (008/182) Accurately ripped
08 [4e2473d0] (008/183) Accurately ripped
09 [de06abbd] (008/181) Accurately ripped
10 [e46017a1] (008/183) Accurately ripped
11 [43c3fbf8] (008/182) Accurately ripped
12 [4fc0b142] (008/182) Accurately ripped
13 [d4ab3304] (008/183) Accurately ripped
14 [1f359dc8] (008/188) Accurately ripped
15 [5d796425] (008/182) Accurately ripped
16 [579a781b] (008/181) Accurately ripped
17 [d5bc44a9] (008/182) Accurately ripped
18 [ec521e21] (008/181) Accurately ripped
19 [ce7bcf55] (008/177) Accurately ripped
Offsetted by -1359:
01 [d957fdb7] (003/183) Accurately ripped
02 [293f3215] (003/185) Accurately ripped
03 [428709ff] (003/182) Accurately ripped
04 [b56d3c73] (003/184) Accurately ripped
05 [b0985314] (003/181) Accurately ripped
06 [ca7709bf] (003/183) Accurately ripped
07 [0c8e26f4] (003/182) Accurately ripped
08 [e66d59a4] (003/183) Accurately ripped
09 [d91fbdf1] (003/181) Accurately ripped
10 [b701fece] (003/183) Accurately ripped
11 [2f380e04] (003/182) Accurately ripped
12 [f086de66] (003/182) Accurately ripped
13 [8f8996ab] (003/183) Accurately ripped
14 [83889122] (003/188) Accurately ripped
15 [01cb0669] (003/182) Accurately ripped
16 [659650c8] (003/181) Accurately ripped
17 [809744a9] (003/182) Accurately ripped
18 [c30bcbe5] (003/181) Accurately ripped
19 [6a2571ad] (003/177) Accurately ripped
Offsetted by -805:
01 [589998cd] (011/183) Accurately ripped
02 [d8d28d7d] (011/185) Accurately ripped
03 [359df53d] (011/182) Accurately ripped
04 [498863a0] (011/184) Accurately ripped
05 [c2e6e2ed] (011/181) Accurately ripped
06 [ff1dfb43] (011/183) Accurately ripped
07 [d20a0910] (011/182) Accurately ripped
08 [15d38cac] (011/183) Accurately ripped
09 [9c754791] (011/181) Accurately ripped
10 [4eb130f7] (011/183) Accurately ripped
11 [7c65f46d] (011/182) Accurately ripped
12 [609ebf82] (011/182) Accurately ripped
13 [0a307361] (011/183) Accurately ripped
14 [c3049755] (011/188) Accurately ripped
15 [513ea18e] (011/182) Accurately ripped
16 [6245863a] (011/181) Accurately ripped
17 [71f544a9] (011/182) Accurately ripped
18 [e44b5f20] (011/181) Accurately ripped
19 [d5a9082a] (011/177) Accurately ripped
Offsetted by -747:
01 [baf2b7d3] (003/183) Accurately ripped
02 [5b07df25] (003/185) Accurately ripped
03 [551128ab] (003/182) Accurately ripped
04 [db7b2134] (003/184) Accurately ripped
05 [a648c1cf] (003/181) Accurately ripped
06 [3c3af172] (003/183) Accurately ripped
07 [922e9ba1] (003/182) Accurately ripped
08 [9a539ef4] (003/183) Accurately ripped
09 [a74e2166] (003/181) Accurately ripped
10 [7c8e4380] (003/183) Accurately ripped
11 [41028abf] (003/182) Accurately ripped
12 [246ae989] (003/182) Accurately ripped
13 [4021b23e] (003/183) Accurately ripped
14 [10d945ca] (003/188) Accurately ripped
15 [6cb4623d] (003/182) Accurately ripped
16 [0933d2fc] (003/181) Accurately ripped
17 [b88344a9] (003/182) Accurately ripped
18 [f1b4a971] (003/181) Accurately ripped
19 [7c9fef4d] (003/177) Accurately ripped
Offsetted by -333:
01 [adea71f5] (007/183) Accurately ripped
02 [3169f9dd] (007/185) Accurately ripped
03 [159f97c5] (007/182) Accurately ripped
04 [70d3988e] (007/184) Accurately ripped
05 [f5251767] (007/181) Accurately ripped
06 [9a470da9] (007/183) Accurately ripped
07 [3851fc5a] (007/182) Accurately ripped
08 [9b8d828c] (007/183) Accurately ripped
09 [ca0eddd2] (007/181) Accurately ripped
10 [e7aa1938] (007/183) Accurately ripped
11 [167a0b97] (007/182) Accurately ripped
12 [999cef06] (007/182) Accurately ripped
13 [81097b39] (007/183) Accurately ripped
14 [d67d1279] (007/188) Accurately ripped
15 [68409d1e] (007/182) Accurately ripped
16 [614b8cf2] (007/181) Accurately ripped
17 [83fd44a9] (007/182) Accurately ripped
18 [351c0017] (007/181) Accurately ripped
19 [385920d7] (007/177) Accurately ripped
Offsetted by -286:
01 [74c8bba6] (003/183) Accurately ripped
02 [921998b9] (003/185) Accurately ripped
03 [2e0e5629] (003/182) Accurately ripped
04 [d7c4ece4] (003/184) Accurately ripped
05 [6783912b] (003/181) Accurately ripped
06 [79a56765] (003/183) Accurately ripped
07 [55f8d5ce] (003/182) Accurately ripped
08 [f9aeabd8] (003/183) Accurately ripped
09 [1b23a581] (003/181) Accurately ripped
10 [7d32cfa4] (003/183) Accurately ripped
11 [25ac7a21] (003/182) Accurately ripped
12 [96b6c2bf] (003/182) Accurately ripped
13 [52bf4a5b] (003/183) Accurately ripped
14 [dd24ad09] (003/188) Accurately ripped
15 [bf2ca52c] (003/182) Accurately ripped
16 [75cedccd] (003/181) Accurately ripped
17 [19da44a9] (003/182) Accurately ripped
18 [6ac149c8] (003/181) Accurately ripped
19 [a249c81e] (003/177) Accurately ripped
Offsetted by -281:
01 [5e5da841] (006/183) Accurately ripped
02 [fe6da42d] (006/185) Accurately ripped
03 [0b03c5e1] (005/182) Accurately ripped
04 [c8b03cbd] (006/184) Accurately ripped
05 [fcc2be64] (005/181) Accurately ripped
06 [ca98f9f9] (006/183) Accurately ripped
07 [48a7446a] (006/182) Accurately ripped
08 [96c28a1c] (007/183) Accurately ripped
09 [13c95d10] (007/181) Accurately ripped
10 [7af5f9cc] (007/183) Accurately ripped
11 [7a252964] (007/182) Accurately ripped
12 [bfdbfd45] (007/182) Accurately ripped
13 [33174c43] (007/183) Accurately ripped
14 [876c123d] (006/188) Accurately ripped
15 [1a558fca] (006/182) Accurately ripped
16 [728b2136] (006/181) Accurately ripped
17 [245944a9] (007/182) Accurately ripped
18 [1337c117] (006/181) Accurately ripped
19 [d34380f7] (006/177) Accurately ripped
Offsetted by -181:
01 [9e00245d] (005/183) Accurately ripped
02 [74fe893d] (005/185) Accurately ripped
03 [99001e8d] (005/182) Accurately ripped
04 [2b221c80] (005/184) Accurately ripped
05 [bc5d841d] (005/181) Accurately ripped
06 [fe0bcdce] (005/183) Accurately ripped
07 [070bbe45] (005/182) Accurately ripped
08 [dc4fe76c] (005/183) Accurately ripped
09 [b120019a] (005/181) Accurately ripped
10 [170f1f74] (005/183) Accurately ripped
11 [5b064de6] (005/182) Accurately ripped
12 [b72d1102] (005/182) Accurately ripped
13 [cba2b306] (005/183) Accurately ripped
14 [f32030f4] (005/188) Accurately ripped
15 [1b67ad7b] (005/182) Accurately ripped
16 [3140796a] (005/181) Accurately ripped
17 [f64544a9] (005/182) Accurately ripped
18 [439bd7cf] (005/181) Accurately ripped
19 [00b709a7] (005/177) Accurately ripped
Offsetted by -106:
01 [4dba0172] (002/183) Accurately ripped
02 [cdeb3509] (002/185) Accurately ripped
03 [baecf5c5] (002/182) Accurately ripped
04 [722c3e25] (002/184) Accurately ripped
05 [73693696] (002/181) Accurately ripped
06 [bd42d58e] (002/183) Accurately ripped
07 [0338e615] (002/182) Accurately ripped
08 [1079ed68] (002/183) Accurately ripped
09 [7a1921cf] (002/181) Accurately ripped
10 [4122901d] (002/183) Accurately ripped
11 [80fdfbb8] (002/182) Accurately ripped
12 [15ac701b] (002/182) Accurately ripped
13 [15024e55] (002/183) Accurately ripped
14 [a1ecc058] (002/188) Accurately ripped
15 [356afd91] (002/182) Accurately ripped
16 [00487b91] (002/181) Accurately ripped
17 [93b644a9] (002/182) Accurately ripped
18 [0607a2ef] (002/181) Accurately ripped
19 [4025a147] (002/177) Accurately ripped
Offsetted by -33:
01 [6cd1e649] (003/183) Accurately ripped
02 [951ca90d] (003/185) Accurately ripped
03 [a374a1c9] (003/182) Accurately ripped
04 [169faedc] (003/184) Accurately ripped
05 [fe73418d] (003/181) Accurately ripped
06 [c8a5d165] (003/183) Accurately ripped
07 [7add1d8e] (003/182) Accurately ripped
08 [6c359a7c] (003/183) Accurately ripped
09 [fa1500b6] (003/181) Accurately ripped
10 [4ba986d2] (003/183) Accurately ripped
11 [29bc9ef8] (003/182) Accurately ripped
12 [8983e032] (003/182) Accurately ripped
13 [7be74f4a] (003/183) Accurately ripped
14 [ed333f02] (003/188) Accurately ripped
15 [d2821abd] (003/182) Accurately ripped
16 [9d6b958e] (003/181) Accurately ripped
17 [f9c144a9] (003/182) Accurately ripped
18 [47d5c7ff] (003/181) Accurately ripped
19 [0fe0d543] (003/177) Accurately ripped
Offsetted by -1381:
01 [a262530d] (000/183) No match (V2 was not tested)
02 [e633cc7d] (000/185) No match (V2 was not tested)
03 [e81bf67d] (000/182) No match (V2 was not tested)
04 [009cbe4c] (000/184) No match (V2 was not tested)
05 [0b3b7481] (000/181) No match (V2 was not tested)
06 [51ca6c7f] (000/183) No match (V2 was not tested)
07 [aaf74194] (000/182) No match (V2 was not tested)
08 [99af87ac] (000/183) No match (V2 was not tested)
09 [8204f471] (000/181) No match (V2 was not tested)
10 [df6f1eb7] (000/183) No match (V2 was not tested)
11 [be9dd149] (000/182) No match (V2 was not tested)
12 [0b5be019] (000/182) No match (V2 was not tested)
13 [6f13b576] (000/183) No match (V2 was not tested)
14 [070906b2] (000/188) No match (V2 was not tested)
15 [45acf7cd] (000/182) No match (V2 was not tested)
16 [40c056fa] (000/181) No match (V2 was not tested)
17 [1f3544a9] (000/182) No match (V2 was not tested)
18 [38b453d1] (000/181) No match (V2 was not tested)
19 [d72481c1] (000/177) No match (V2 was not tested)
Offsetted by -1341:
01 [ef09b7e5] (002/183) Accurately ripped
02 [48d4281d] (002/185) Accurately ripped
03 [45fc19f5] (002/182) Accurately ripped
04 [ae490a70] (002/184) Accurately ripped
05 [d9bf60f5] (002/181) Accurately ripped
06 [5e15e2ed] (002/183) Accurately ripped
07 [40cf1006] (002/182) Accurately ripped
08 [824e79cc] (002/183) Accurately ripped
09 [f7ce136e] (002/181) Accurately ripped
10 [1edffdfe] (002/183) Accurately ripped
11 [e74faf19] (002/182) Accurately ripped
12 [04fcda6f] (002/182) Accurately ripped
13 [d9b60b78] (002/183) Accurately ripped
14 [aabc281c] (002/188) Accurately ripped
15 [d9d7da7b] (002/182) Accurately ripped
16 [26a27a42] (002/181) Accurately ripped
17 [732d44a9] (002/182) Accurately ripped
18 [1d2c3b3b] (002/181) Accurately ripped
19 [44cccf13] (000/177) No match (V2 was not tested)
Offsetted by -1007:
01 [48b2a857] (000/183) No match (V2 was not tested)
02 [59f58b95] (000/185) No match (V2 was not tested)
03 [68a8421f] (000/182) No match (V2 was not tested)
04 [404adf11] (000/184) No match (V2 was not tested)
05 [51198016] (000/181) No match (V2 was not tested)
06 [0bf094bc] (000/183) No match (V2 was not tested)
07 [2f0b7077] (000/182) No match (V2 was not tested)
08 [b24a7924] (000/183) No match (V2 was not tested)
09 [a9675a1f] (000/181) No match (V2 was not tested)
10 [0327fd71] (000/183) No match (V2 was not tested)
11 [9f43fbe6] (000/182) No match (V2 was not tested)
12 [5b23f767] (000/182) No match (V2 was not tested)
13 [950708b3] (000/183) No match (V2 was not tested)
14 [3918aa19] (000/188) No match (V2 was not tested)
15 [eeffd256] (000/182) No match (V2 was not tested)
16 [b2f5eda8] (000/181) No match (V2 was not tested)
17 [96b744a9] (000/182) No match (V2 was not tested)
18 [3415930f] (000/181) No match (V2 was not tested)
19 [ca640757] (000/177) No match (V2 was not tested)
Offsetted by 107:
01 [f91bc73d] (000/183) No match (V2 was not tested)
02 [6e4de9bd] (000/185) No match (V2 was not tested)
03 [edc11ded] (000/182) No match (V2 was not tested)
04 [5b570a25] (000/184) No match (V2 was not tested)
05 [9bb20c58] (000/181) No match (V2 was not tested)
06 [f8e2fa2b] (000/183) No match (V2 was not tested)
07 [c6059d78] (000/182) No match (V2 was not tested)
08 [9a61e9ec] (000/183) No match (V2 was not tested)
09 [0d4b3239] (000/181) No match (V2 was not tested)
10 [d92738a9] (000/183) No match (V2 was not tested)
11 [664a9cdd] (000/182) No match (V2 was not tested)
12 [65b0c533] (000/182) No match (V2 was not tested)
13 [85c0433a] (000/183) No match (V2 was not tested)
14 [007dce04] (000/188) No match (V2 was not tested)
15 [53777e03] (000/182) No match (V2 was not tested)
16 [4203110a] (000/181) No match (V2 was not tested)
17 [1fa544a9] (000/182) No match (V2 was not tested)
18 [de5a7e42] (000/181) No match (V2 was not tested)
19 [0d5b3094] (000/177) No match (V2 was not tested)

Track Peak [ CRC32 ] [W/O NULL] [ LOG ]
– 100,0 [55A3143B] [3B8F5D3E]
01 92,4 [8D4FA021] [2EBD5152] CRC32
02 94,4 [41A676DE] [5A9CB34C] CRC32
03 100,0 [EEBA7AE5] [3D18ABFF] CRC32
04 100,0 [518A28E2] [9101945B] CRC32
05 100,0 [4D2D9EAB] [8FB3EFAD] CRC32
06 100,0 [6128A84B] [48680AED] CRC32
07 100,0 [1573B62C] [BDD2A47F] CRC32
08 100,0 [EA8416DD] [2D28CCC2] CRC32
09 97,3 [7E6C917D] [7A1C4CBE] CRC32
10 97,3 [75FF0B49] [599D1AE7] CRC32
11 97,3 [04C9468B] [4B301F40] CRC32
12 97,3 [23C81038] [62C99C4F] CRC32
13 97,3 [E2644C7B] [0B203DFE] CRC32
14 97,2 [34CE0169] [0670CCA0] CRC32
15 98,8 [0AD2FC41] [F75D7062] CRC32
16 97,7 [0029AFD7] [0C96601D] CRC32
17 100,0 [5256109D] [05D503E5] CRC32
18 97,3 [DFBFA1F9] [39C0026C] CRC32
19 97,7 [88AA9BEB] [E23185F1] CRC32

foobar2000 1.2 / Dynamic Range Meter 1.1.1
log date: 2019-05-16 02:41:21

––––––––––––––––––––––––––––––––––––––––
Analyzed: Journey / Time [Disc 3]
––––––––––––––––––––––––––––––––––––––––

DR Peak RMS Duration Track
––––––––––––––––––––––––––––––––––––––––
DR12 -0.68 dB -14.93 dB 3:25 01-La Raza Del Sol (Alternate Version)
DR12 -0.50 dB -14.38 dB 3:40 02-Only Solutions
DR11 0.00 dB -16.10 dB 2:56 03-Liberty
DR11 0.00 dB -12.06 dB 5:24 04-Separate Ways (Worlds Apart)
DR11 0.00 dB -14.67 dB 3:56 05-Send Her My Love
DR10 0.00 dB -14.66 dB 4:28 06-Faithfully
DR12 0.00 dB -14.26 dB 5:02 07-After The Fall
DR11 0.00 dB -12.67 dB 3:56 08-All That Really Matters
DR12 -0.24 dB -13.91 dB 4:34 09-The Eyes Of A Woman
DR11 -0.24 dB -14.11 dB 3:42 10-Why Can't This Night Go On Forever
DR11 -0.24 dB -13.08 dB 4:41 11-Once You Love Somebody
DR9 -0.24 dB -11.83 dB 3:49 12-Happy to Give
DR9 -0.24 dB -11.33 dB 3:54 13-Be Good To Yourself
DR11 -0.24 dB -12.68 dB 4:06 14-Only The Young
DR11 -0.10 dB -13.07 dB 3:56 15-Ask The Lonely
DR13 -0.20 dB -13.97 dB 3:27 16-With A Tear
DR12 0.00 dB -13.60 dB 4:10 17-Into Your Arms
DR11 -0.24 dB -13.02 dB 4:16 18-Girl Can't Help It (Live)
DR10 -0.20 dB -11.73 dB 5:00 19-I'll Be Alright Without You (Live)
––––––––––––––––––––––––––––––––––––––––

Number of tracks: 19
Official DR value: DR11

Samplerate: 44100 Hz
Channels: 2
Bits per sample: 16
Bitrate: 933 kbps
Codec: FLAC
================================================================================

Journey - Time3 (aka Time Cubed) (1992) 3CD Box Set