Subcategories
Tags
Language
Tags

Judy Dyble - Spindle (2006) [Re-Up]

Posted By: Designol
Judy Dyble - Spindle (2006) [Re-Up]

Judy Dyble - Spindle (2006)
EAC | FLAC | Tracks (Cue&Log) ~ 340 Mb | Mp3 (CBR320) ~ 152 Mb | Scans included
Label: Talking Elephant | # TECD 084 | Time: 00:45:58
British Folk, Folk-Rock, Folk-Prog, Prog-Rock

Judy Dyble (the original singer with Fairport Convention) now has a cross-over market appeal working with Marc Swordfish, writer and singer of Australasia, this album offers appealing treats for both to the Folk/Folk Rock and Ambient markets. With "Spindle", we see the development of Dyble's music to a much higher level with the musical directions of Mark Swordfish plus the involvement of internationally acclaimed guitarist Robert Fripp (King Crimson). Also featured here is a reworking of "See Emily Play", the classic Syd Barrett/Pink Floyd song she recorded in the 1970's with King Crimson precusor Giles Giles & Fripp.

I absolutely loved Judy’s “comeback” album Enchanted Garden which came out over two years ago, and when I heard she was to follow it up real fast with not one but two more albums (such was her prolific nature in terms of new songwriting!), well I was exceeding pleased. But then came a hiatus, as I waited what seemed like ages before either appeared. Spindle, though once again a collaboration with Astralasia’s Mark Swordfish, is generally not so heavy on the synths as Enchanted Garden, and it moves more in the direction of Judy’s wyrd-prog-folk vocal personality – in fact, the hybrid music they’re creating together has taken a step further towards a more readily definable sound-world and overall sensibility. Here the distinctive timbres of banjo (Dave Russell) and hammered dulcimer (James Asher) figure quite prominently alongside Simon House’s violin and amongst the other strands of instrumentation on occasion. Enchanted Garden tended sometimes to stretch ideas out beyond their immediate interest value, but the virtue of economy is a lesson that’s clearly been learned now, and Spindle’s nine tracks don’t outstay their welcome at all. The instrumental blending is even more inventive, and really complements Judy’s cool, knowingly pure voice while also reflecting the equally knowing nature of the lyrics. These manage to be poetic, sometimes redolent of traditional song modes and structures but with the twist of ageless (and contemporary) realism. Some (eg. Fingest) are like songs lost and then now found, rediscovered for our delight; the phrases of Misty Morning tumble on out like the stream of consciousness of fresh experience. Honeysweet lies thick with the almost sickly aroma of enchanted love lost. Shining, bolstered by Bob Fripp’s atmospheric guitar lines, weaves and shimmers, lost for words. Darkness To Light is a brave statement that manages to say much in very few words without seeming unduly cryptic. The apparent come-on of Thank You My Dear is more of an admonitory come-off, still smarting from the pangs of bitter experience. And Final Hour is a perfect example of the cynical deflation of stock romantic poesy with timely extrapolation by means of down-to-earth advice or circumstances – it contains some priceless couplets! Finally, there’s a double-quick-time cover of See Emily Play that conveys the excitement and mystery of the original in a fresh, racing gallop. Spindle is an adventurous next-step of an album, and I can’t wait to hear the final instalment of Judy’s trilogy (The Whorl), due out any time now.

Review by David Kidman

Judy Dyble - Spindle (2006) [Re-Up]



- Judy Dyble / vocals, autoharp
With:
- Peter Pracownik / acoustic, electric & slide guitars
- Simon House / violin, keyboards, string arrangements (1)
- Stevie B / saxophone
- Marc Swordfish / keyboards, drums, percussion, producer
- Phoebe Thomasson / flute
- James Asher / dulcimer
- Dave Russell / banjo, bouzouki
- Paul Chousmer / organ solos
- Robert Fripp / lead guitar & Fx (6)
- Martin Walker / bells, chimes & percussion

Tracklist:

01. See Emily Play (4:11)
02. Final Hour (4:41)
03. Misty Morning (5:31)
04. Fingest (5:58)
05. Honey Sweet (7:07)
06. Shining (7:17)
07. Darkness to Light (3:56)
08. Wizzle Wazzle (1:22)
09. Thank You My Dear (5:55)


Exact Audio Copy V0.99 prebeta 5 from 4. May 2009

EAC extraction logfile from 13. January 2010, 20:12

Judy Dyble / Spindle

Used drive : PLEXTOR DVDR PX-760A Adapter: 4 ID: 0

Read mode : Secure
Utilize accurate stream : Yes
Defeat audio cache : Yes
Make use of C2 pointers : No

Read offset correction : 30
Overread into Lead-In and Lead-Out : No
Fill up missing offset samples with silence : Yes
Delete leading and trailing silent blocks : No
Null samples used in CRC calculations : Yes
Used interface : Native Win32 interface for Win NT & 2000
Gap handling : Appended to previous track

Used output format : Internal WAV Routines
Sample format : 44.100 Hz; 16 Bit; Stereo


TOC of the extracted CD

Track | Start | Length | Start sector | End sector
––––––––––––––––––––––––––––-
1 | 0:00.00 | 4:11.25 | 0 | 18849
2 | 4:11.25 | 4:40.59 | 18850 | 39908
3 | 8:52.09 | 5:31.17 | 39909 | 64750
4 | 14:23.26 | 5:58.02 | 64751 | 91602
5 | 20:21.28 | 7:06.49 | 91603 | 123601
6 | 27:28.02 | 7:16.68 | 123602 | 156369
7 | 34:44.70 | 3:56.19 | 156370 | 174088
8 | 38:41.14 | 1:22.09 | 174089 | 180247
9 | 40:03.23 | 5:54.69 | 180248 | 206866


Track 1

Filename E:\# Vinyl Rips\Judy Dyble - Spindle (2005) [FLAC]\01 - See Emily Play.wav

Pre-gap length 0:00:02.00

Peak level 99.9 %
Track quality 100.0 %
Test CRC 7817ACBC
Copy CRC 7817ACBC
Accurately ripped (confidence 1) [052F541B]
Copy OK

Track 2

Filename E:\# Vinyl Rips\Judy Dyble - Spindle (2005) [FLAC]\02 - Final Hour.wav

Peak level 91.1 %
Track quality 100.0 %
Test CRC B7F8CE99
Copy CRC B7F8CE99
Accurately ripped (confidence 1) [1BA6FE10]
Copy OK

Track 3

Filename E:\# Vinyl Rips\Judy Dyble - Spindle (2005) [FLAC]\03 - Misty Morning.wav

Pre-gap length 0:00:00.01

Peak level 99.9 %
Track quality 100.0 %
Test CRC 0BB0C500
Copy CRC 0BB0C500
Accurately ripped (confidence 1) [1C409E9A]
Copy OK

Track 4

Filename E:\# Vinyl Rips\Judy Dyble - Spindle (2005) [FLAC]\04 - Fingest.wav

Pre-gap length 0:00:02.45

Peak level 99.4 %
Track quality 100.0 %
Test CRC BE131832
Copy CRC BE131832
Accurately ripped (confidence 1) [B0F2367E]
Copy OK

Track 5

Filename E:\# Vinyl Rips\Judy Dyble - Spindle (2005) [FLAC]\05 - Honey Sweet.wav

Pre-gap length 0:00:01.58

Peak level 99.9 %
Track quality 99.9 %
Test CRC 76C49E14
Copy CRC 76C49E14
Accurately ripped (confidence 1) [F0D3F0B7]
Copy OK

Track 6

Filename E:\# Vinyl Rips\Judy Dyble - Spindle (2005) [FLAC]\06 - Shining.wav

Peak level 95.3 %
Track quality 100.0 %
Test CRC 585D0B8B
Copy CRC 585D0B8B
Accurately ripped (confidence 1) [0F80064C]
Copy OK

Track 7

Filename E:\# Vinyl Rips\Judy Dyble - Spindle (2005) [FLAC]\07 - Darkness to Light.wav

Pre-gap length 0:00:03.61

Peak level 99.9 %
Track quality 100.0 %
Test CRC 69D7CCAF
Copy CRC 69D7CCAF
Accurately ripped (confidence 1) [5306492D]
Copy OK

Track 8

Filename E:\# Vinyl Rips\Judy Dyble - Spindle (2005) [FLAC]\08 - Wizzle Wazzle.wav

Pre-gap length 0:00:00.81

Peak level 87.9 %
Track quality 100.0 %
Test CRC 2B7F3655
Copy CRC 2B7F3655
Accurately ripped (confidence 1) [9C78BCCC]
Copy OK

Track 9

Filename E:\# Vinyl Rips\Judy Dyble - Spindle (2005) [FLAC]\09 - Thank You My Dear.wav

Pre-gap length 0:00:00.10

Peak level 99.9 %
Track quality 100.0 %
Test CRC 802CB041
Copy CRC 802CB041
Accurately ripped (confidence 1) [E459F312]
Copy OK


All tracks accurately ripped

No errors occurred

End of status report

[CUETools log; Date: 05.12.2018 13:42:12; Version: 2.1.4]
[CTDB TOCID: T5hnoJOmnnWdfCgtbH4oaJFmOEg-] found.
Track | CTDB Status
1 | (2/2) Accurately ripped
2 | (2/2) Accurately ripped
3 | (2/2) Accurately ripped
4 | (2/2) Accurately ripped
5 | (2/2) Accurately ripped
6 | (2/2) Accurately ripped
7 | (2/2) Accurately ripped
8 | (2/2) Accurately ripped
9 | (2/2) Accurately ripped
[AccurateRip ID: 00101e21-0076ee57-640ac609] found.
Track [ CRC | V2 ] Status
01 [052f541b|33537c0a] (2+0/2) Accurately ripped
02 [1ba6fe10|630d5fbf] (2+0/2) Accurately ripped
03 [1c409e9a|13cfee05] (2+0/2) Accurately ripped
04 [b0f2367e|7b547315] (2+0/2) Accurately ripped
05 [f0d3f0b7|a16263db] (2+0/2) Accurately ripped
06 [0f80064c|58d4028e] (2+0/2) Accurately ripped
07 [5306492d|1affd21a] (2+0/2) Accurately ripped
08 [9c78bccc|fd53b653] (2+0/2) Accurately ripped
09 [e459f312|4bf1012c] (2+0/2) Accurately ripped

Track Peak [ CRC32 ] [W/O NULL] [ LOG ]
– 99,9 [1879E1BE] [E2AFA952]
01 99,9 [7817ACBC] [DF94AA9C] CRC32
02 91,1 [B7F8CE99] [7ACD706E] CRC32
03 99,9 [0BB0C500] [ECDA3DA6] CRC32
04 99,4 [BE131832] [A6A739D8] CRC32
05 99,9 [76C49E14] [BF9BF012] CRC32
06 95,3 [585D0B8B] [39B151A5] CRC32
07 99,9 [69D7CCAF] [E83E0969] CRC32
08 87,9 [2B7F3655] [B9184369] CRC32
09 99,9 [802CB041] [BB7DFCE5] CRC32

foobar2000 1.2 / Dynamic Range Meter 1.1.1
log date: 2018-12-05 14:00:04

––––––––––––––––––––––––––––––––––––––––
Analyzed: JUDY DYBLE Spindle / 2006 Talking Elephant TECD084 CD
––––––––––––––––––––––––––––––––––––––––

DR Peak RMS Duration Track
––––––––––––––––––––––––––––––––––––––––
DR7 -0.01 dB -7.97 dB 4:11 01-See Emily Play
DR8 -0.81 dB -10.53 dB 4:41 02-Final Hour
DR10 -0.01 dB -12.29 dB 5:31 03-Misty Morning
DR10 -0.05 dB -12.17 dB 5:58 04-Fingest
DR10 -0.01 dB -11.56 dB 7:07 05-Honey Sweet
DR9 -0.42 dB -11.81 dB 7:17 06-Shining
DR12 -0.01 dB -14.91 dB 3:56 07-Darkness to Light
DR11 -1.12 dB -15.16 dB 1:22 08-Wizzle Wazzle
DR10 -0.01 dB -11.82 dB 5:55 09-Thank You My Dear
––––––––––––––––––––––––––––––––––––––––

Number of tracks: 9
Official DR value: DR10

Samplerate: 44100 Hz
Channels: 2
Bits per sample: 16
Bitrate: 939 kbps
Codec: FLAC
================================================================================

Judy Dyble - Spindle (2006) [Re-Up]

Judy Dyble - Spindle (2006) [Re-Up]