Tags
Language
Tags

Kate Bush - This Woman's Work: Anthology 1978-1990 (1990) [9LP Box Set, Vinyl Rip 16/44 & mp3-320] Re-up

Posted By: v3122
Kate Bush - This Woman's Work: Anthology 1978-1990 (1990) [9LP Box Set, Vinyl Rip 16/44 & mp3-320] Re-up

Kate Bush - This Woman's Work: Anthology 1978-1990 (1990)
Vinyl Rip 16/44 | Flac(Image + Cue) > 1936 Mb
MP3 CBR 320Kbps > 841 Mb | Artwork > 574 Mb
EMI | Art Rock, Prog Rock, Alternative Rock

This Woman's Work: Anthology 1978–1990 is a compilation box set by the British singer Kate Bush. Released in 1990 on CD, vinyl and cassette; it comprises her six studio albums to that point together with two additional albums of B-sides, rarities and remixes. The box set was re-released, on CD only, in 1998 in different packaging. It was not released in the US mainly due to The Sensual World being released there by Columbia Records.

The two rarities discs are entitled This Woman's Work: Volume One and This Woman's Work: Volume Two (in the vinyl edition the twenty-nine tracks are spread over three LP's), and have never been released as albums separately from the box set.

Although publicised as a complete collection of Bush's works up to 1990, many tracks released during this time are missing from this collection including the Single Version Remix of "The Man with the Child in His Eyes", the Single Edit remix of "Wow", the dead-end version of "Army Dreamers" which featured on "The Whole Story" album, "Dreamtime" (the instrumental B-side of "The Dreaming" single), "Sat In Your Lap (Single Mix)", "Running Up that Hill (Instrumental Version)", "The Big Sky (Single Version)", "The Sensual World (Instrumental Version)", "The Confrontation" from the "Love and Anger" single and the Single Version Mix of "This Woman's Work". Various songs featured in films were also omitted, notably "The Magician Of Lublin"

~ wiki
Kate Bush - This Woman's Work: Anthology 1978-1990 (1990):

Kate Bush - This Woman's Work: Anthology 1978-1990 (1990) [9LP Box Set, Vinyl Rip 16/44 & mp3-320] Re-up

Tracklist LP01 - 1978 - The Kick Inside:

1. "Moving" 3:01
2. "The Saxophone Song" 3:51
3. "Strange Phenomena" 2:57
4. "Kite" 2:56
5. "The Man with the Child in His Eyes" 2:39
6. "Wuthering Heights" 4:28

Side two
7. "James and the Cold Gun" 3:34
8. "Feel It" 3:02
9. "Oh to Be in Love" 3:18
10. "L'Amour Looks Something Like You" 2:27
11. "Them Heavy People" 3:04
12. "Room for the Life" 4:03
13. "The Kick Inside"

foobar2000 1.4 / Dynamic Range Meter 1.1.1
log date: 2018-12-15 20:21:45

––––––––––––––––––––––––––––––––––––––––
Analyzed: Kate Bush / The Kick Inside
––––––––––––––––––––––––––––––––––––––––

DR Peak RMS Duration Track
––––––––––––––––––––––––––––––––––––––––
DR13 -4.24 dB -19.50 dB 3:09 01-Moving
DR12 -3.46 dB -19.34 dB 3:48 02-The Saxophone Song
DR12 -3.79 dB -21.34 dB 2:56 03-Strange Phenomena
DR13 -3.84 dB -19.25 dB 2:58 04-Kite
DR10 -7.04 dB -19.83 dB 2:43 05-The Man with the Child in His Eyes
DR12 -5.15 dB -19.58 dB 4:30 06-Wuthering Heights
DR11 -5.58 dB -19.36 dB 3:36 07-James and the Cold Gun
DR12 -10.12 dB -24.81 dB 3:04 08-Feel It
DR13 -5.03 dB -20.64 dB 3:20 09-Oh to Be in Love
DR13 -4.08 dB -19.17 dB 2:27 10-L'Amour Looks Something Like You
DR13 -5.79 dB -21.06 dB 3:06 11-Them Heavy People
DR13 -5.74 dB -20.98 dB 4:07 12-Room for the Life
DR11 -9.71 dB -24.87 dB 3:38 13-The Kick Inside
––––––––––––––––––––––––––––––––––––––––

Number of tracks: 13
Official DR value: DR12

Samplerate: 44100 Hz
Channels: 2
Bits per sample: 16
Bitrate: 743 kbps
Codec: FLAC
================================================================================



Kate Bush - This Woman's Work: Anthology 1978-1990 (1990) [9LP Box Set, Vinyl Rip 16/44 & mp3-320] Re-up

Tracklist LP02 - 1978 - Lionheart:

1. "Symphony in Blue" 3:35
2. "In Search of Peter Pan" 3:46
3. "Wow" 3:58
4. "Don't Push Your Foot on the Heartbrake" 3:12
5. "Oh England My Lionheart" 3:10

Side two
6. "Fullhouse" 3:14
7. "In the Warm Room" 3:35
8. "Kashka From Baghdad" 3:55
9. "Coffee Homeground" 3:38
10. "Hammer Horror" 4:39

foobar2000 1.4 / Dynamic Range Meter 1.1.1
log date: 2018-12-15 20:19:38

––––––––––––––––––––––––––––––––––––––––
Analyzed: Kate Bush / Lionheart
––––––––––––––––––––––––––––––––––––––––

DR Peak RMS Duration Track
––––––––––––––––––––––––––––––––––––––––
DR12 -7.26 dB -21.94 dB 3:37 01-Symphony in Blue
DR12 -8.77 dB -24.46 dB 3:51 02-In Search of Peter Pan
DR11 -7.80 dB -24.25 dB 3:59 03-Wow
DR12 -7.61 dB -23.17 dB 3:16 04-Don't Push Your Foot on the Heartbrake
DR11 -13.17 dB -27.45 dB 3:05 05-Oh England My Lionheart
DR12 -7.52 dB -22.54 dB 3:14 06-Fullhouse
DR13 -11.63 dB -28.86 dB 3:36 07-In the Warm Room
DR14 -7.42 dB -24.70 dB 3:58 08-Kashka From Baghdad
DR12 -9.09 dB -24.56 dB 3:39 09-Coffee Homeground
DR12 -7.89 dB -23.70 dB 4:41 10-Hammer Horror
––––––––––––––––––––––––––––––––––––––––

Number of tracks: 10
Official DR value: DR12

Samplerate: 44100 Hz
Channels: 2
Bits per sample: 16
Bitrate: 588 kbps
Codec: FLAC
================================================================================



Kate Bush - This Woman's Work: Anthology 1978-1990 (1990) [9LP Box Set, Vinyl Rip 16/44 & mp3-320] Re-up

Tracklist LP03 - 1980 - Never for Ever:

1. "Babooshka" 3:20
2. "Delius (Song of Summer)" 2:51
3. "Blow Away (For Bill)" 3:33
4. "All We Ever Look For" 3:47
5. "Egypt" 4:10

Side two
6. "The Wedding List" 4:15
7. "Violin" 3:15
8. "The Infant Kiss" 2:50
9. "Night Scented Stock" 0:51
10. "Army Dreamers" 2:55
11. "Breathing" 5:29

foobar2000 1.4 / Dynamic Range Meter 1.1.1
log date: 2018-12-15 20:19:51

––––––––––––––––––––––––––––––––––––––––
Analyzed: Kate Bush / Never For Ever
––––––––––––––––––––––––––––––––––––––––

DR Peak RMS Duration Track
––––––––––––––––––––––––––––––––––––––––
DR13 -0.52 dB -17.05 dB 3:12 01-Babooshka
DR12 -1.62 dB -19.29 dB 2:59 02-Delius (Song of Summer)
DR13 -1.44 dB -17.51 dB 3:35 03-Blow Away (For Bill)
DR14 -1.39 dB -18.44 dB 3:48 04-All We Ever Look For
DR12 -1.32 dB -17.48 dB 4:13 05-Egypt
DR14 -0.33 dB -17.35 dB 4:15 06-The Wedding List
DR13 -0.59 dB -15.31 dB 3:16 07-Violin
DR12 -3.94 dB -19.71 dB 2:55 08-The Infant Kiss
DR11 -10.63 dB -26.07 dB 0:48 09-Night Scented Stock
DR13 -3.75 dB -21.13 dB 2:59 10-Army Dreamers
DR13 0.00 dB -18.21 dB 5:28 11-Breathing
––––––––––––––––––––––––––––––––––––––––

Number of tracks: 11
Official DR value: DR13

Samplerate: 44100 Hz
Channels: 2
Bits per sample: 16
Bitrate: 745 kbps
Codec: FLAC
================================================================================



Kate Bush - This Woman's Work: Anthology 1978-1990 (1990) [9LP Box Set, Vinyl Rip 16/44 & mp3-320] Re-up

Tracklist LP04 - 1982 - The Dreaming:

1. "Sat in Your Lap" 3:29
2. "There Goes a Tenner" 3:24
3. "Pull Out the Pin" 5:26
4. "Suspended in Gaffa" 3:54
5. "Leave It Open" 3:20

Side two
6. "The Dreaming" 4:41
7. "Night of the Swallow" 5:22
8. "All the Love" 4:29
9. "Houdini" 3:48
10. "Get Out of My House" 5:25

foobar2000 1.4 / Dynamic Range Meter 1.1.1
log date: 2018-12-15 20:20:06

––––––––––––––––––––––––––––––––––––––––
Analyzed: Kate Bush / The Dreaming
––––––––––––––––––––––––––––––––––––––––

DR Peak RMS Duration Track
––––––––––––––––––––––––––––––––––––––––
DR15 0.00 dB -17.23 dB 3:29 01-Sat in Your Lap
DR14 -1.56 dB -18.14 dB 3:27 02-There Goes a Tenner
DR14 -2.73 dB -19.08 dB 5:28 03-Pull Out the Pin
DR12 -2.50 dB -18.29 dB 3:57 04-Suspended in Gaffa
DR13 -0.78 dB -18.13 dB 3:18 05-Leave It Open
DR14 0.00 dB -17.28 dB 4:05 06-The Dreaming
DR14 0.00 dB -17.52 dB 6:01 07-Night of the Swallow
DR12 -3.91 dB -20.55 dB 4:34 08-All the Love
DR13 -1.61 dB -20.96 dB 3:49 09-Houdini
DR12 -0.21 dB -16.24 dB 5:25 10-Get Out of My House
––––––––––––––––––––––––––––––––––––––––

Number of tracks: 10
Official DR value: DR13

Samplerate: 44100 Hz
Channels: 2
Bits per sample: 16
Bitrate: 714 kbps
Codec: FLAC
================================================================================



Kate Bush - This Woman's Work: Anthology 1978-1990 (1990) [9LP Box Set, Vinyl Rip 16/44 & mp3-320] Re-up

Tracklist LP05 - 1985 - Hounds of Love:

1. "Running Up That Hill (A Deal with God)" 5:03
2. "Hounds of Love" 3:02
3. "The Big Sky" 4:41
4. "Mother Stands for Comfort" 3:07
5. "Cloudbusting" 5:10
Side two: The Ninth Wave
6. "And Dream of Sheep" 2:45
7. "Under Ice" 2:21
8. "Waking the Witch" 4:18
9. "Watching You Without Me" 4:06
10. "Jig of Life" 4:04
11. "Hello Earth" 6:13
12. "The Morning Fog" 2:34

foobar2000 1.4 / Dynamic Range Meter 1.1.1
log date: 2018-12-15 20:20:19

––––––––––––––––––––––––––––––––––––––––
Analyzed: Kate Bush / Hounds Of Love
––––––––––––––––––––––––––––––––––––––––

DR Peak RMS Duration Track
––––––––––––––––––––––––––––––––––––––––
DR11 -4.52 dB -19.10 dB 5:01 01-Running Up That Hill (A Deal with God)
DR11 -5.86 dB -18.83 dB 3:04 02-Hounds of Love
DR12 -4.81 dB -19.43 dB 4:43 03-The Big Sky
DR11 -7.83 dB -20.50 dB 3:10 04-Mother Stands for Comfort
DR11 -7.18 dB -21.18 dB 5:11 05-Cloudbusting
DR13 -9.53 dB -27.83 dB 2:48 06-And Dream of Sheep
DR12 -8.20 dB -24.24 dB 2:23 07-Under Ice
DR11 -6.99 dB -21.27 dB 4:19 08-Waking the Witch
DR12 -6.02 dB -21.11 dB 4:08 09-Watching You Without Me
DR12 -5.74 dB -19.31 dB 4:19 10-Jig of Life
DR11 -5.56 dB -22.33 dB 6:03 11-Hello Earth
DR11 -6.87 dB -20.50 dB 2:35 12-The Morning Fog
––––––––––––––––––––––––––––––––––––––––

Number of tracks: 12
Official DR value: DR12

Samplerate: 44100 Hz
Channels: 2
Bits per sample: 16
Bitrate: 797 kbps
Codec: FLAC
================================================================================



Kate Bush - This Woman's Work: Anthology 1978-1990 (1990) [9LP Box Set, Vinyl Rip 16/44 & mp3-320] Re-up

Tracklist LP06 - 1989 - The Sensual World:

1. "The Sensual World" 3:57
2. "Love and Anger" 4:42
3. "The Fog" 5:04
4. "Reaching Out" 3:11
5. "Heads We're Dancing" 5:17

Side two
6. "Deeper Understanding" 4:46
7. "Between a Man and a Woman" 3:29
8. "Never Be Mine" 3:43
9. "Rocket's Tail" 4:06
10. "This Woman's Work" 3:32

foobar2000 1.4 / Dynamic Range Meter 1.1.1
log date: 2018-12-15 20:20:31

––––––––––––––––––––––––––––––––––––––––
Analyzed: Kate Bush / The Sensual World
––––––––––––––––––––––––––––––––––––––––

DR Peak RMS Duration Track
––––––––––––––––––––––––––––––––––––––––
DR13 -5.01 dB -20.26 dB 3:54 01-The Sensual World
DR13 -3.49 dB -19.15 dB 4:43 02-Love and Anger
DR10 -6.56 dB -20.28 dB 5:07 03-The Fog
DR12 -6.92 dB -23.63 dB 3:14 04-Reaching Out
DR12 -4.74 dB -19.73 dB 5:19 05-Heads We're Dancing
DR12 -5.95 dB -20.45 dB 4:48 06-Deeper Understanding
DR12 -4.73 dB -20.29 dB 3:32 07-Between a Man and a Woman
DR11 -6.55 dB -19.71 dB 3:44 08-Never Be Mine
DR13 -5.02 dB -21.05 dB 4:07 09-Rocket's Tail
DR12 -7.44 dB -24.75 dB 3:34 10-This Woman's Work
––––––––––––––––––––––––––––––––––––––––

Number of tracks: 10
Official DR value: DR12

Samplerate: 44100 Hz
Channels: 2
Bits per sample: 16
Bitrate: 769 kbps
Codec: FLAC
================================================================================



Kate Bush - This Woman's Work: Anthology 1978-1990 (1990) [9LP Box Set, Vinyl Rip 16/44 & mp3-320] Re-up

Tracklist LP07-09:

Side 1:
1. "The Empty Bullring" Breathing 7" (1980) 2:17
2. "Ran Tan Waltz" Babooshka 7" (1980) 2:41
3. "Passing Through Air" Army Dreamers 7" (1980) 2:05
4. "December Will Be Magic Again" December Will Be Magic Again 7" (1980) 4:52
5. "Warm and Soothing" December Will Be Magic Again 7" (1980) 2:44
Side 2:
6. "Lord of the Reedy River" Sat in Your Lap 7" (1981) 2:43
7. "Ne T'En Fui Pas" (Title is misspelt, the correct spelling in French being "Ne t'enfuis pas") There Goes a Tenner 7" / Suspended in Gaffa 7" (1982) 2:34
8. "Un Baiser d'Enfant" (French version of "The Infant Kiss", which originally appeared on the 1980 album Never for Ever) Ne T'enfuis Pas 7" (1983) 3:02
9. "Under the Ivy" Running Up that Hill 7" (1985) 2:10
10. "Burning Bridge" Cloudbusting 7" (1985) 4:43
Side 3:
11. "My Lagan Love" Cloudbusting 12" (1985) 2:30
12. "The Handsome Cabin Boy" Hounds of Love 7" (1986) 3:13
13. "Not This Time" The Big Sky 7" (1986) 3:42
14. "Walk Straight Down the Middle" The Sensual World 7" (1989) 3:49
15. "Be Kind to My Mistakes" This Woman's Work 7" (1989) 3:03
Side 4:
16 "I'm Still Waiting" This Woman's Work 7" (1989) 4:29
17 "Ken" Love And Anger 7" (1989) 3:50
18 "One Last Look Around the House Before We Go…" Love And Anger 7" (1989) 1:04
19 "Wuthering Heights (New Vocal)" Experiment IV 7" (1986) 4:59
20 "Experiment IV" Experiment IV 7" (1986) 4:22
Side 5:
21 "Them Heavy People (Live)" On Stage EP (1979) 4:08
22 "Don't Push Your Foot on the Heartbrake (Live)" On Stage EP (1979) 3:40
23 "James and the Cold Gun (Live)" On Stage EP (1979) 6:26
24 "L'Amour Looks Something Like You (Live)" On Stage EP (1979) 2:45
Side 6:
25 "Running Up that Hill (12" Mix)" Running Up that Hill 12" (1985) 5:47
26 "Cloudbusting (The Organon Mix)" Cloudbusting 12" (1985) 6:33
27 "Hounds of Love (Alternative)" Hounds of Love 7" (1986) 3:49
28 "The Big Sky (Meteorological Mix)" The Big Sky 12" (1986) 7:46
29 "Experiment IV (12" Mix)" Experiment IV 12" (1986) 6:37

foobar2000 1.4 / Dynamic Range Meter 1.1.1
log date: 2018-12-15 20:20:54

––––––––––––––––––––––––––––––––––––––––
Analyzed: Kate Bush / This Woman's Work
––––––––––––––––––––––––––––––––––––––––

DR Peak RMS Duration Track
––––––––––––––––––––––––––––––––––––––––
DR12 -6.53 dB -21.77 dB 2:17 01-The Empty Bullring
DR14 -5.32 dB -22.10 dB 2:40 02-Ran Tan Waltz
DR12 -6.67 dB -22.92 dB 2:07 03-Passing Through Air
DR13 -5.82 dB -23.78 dB 4:52 04-December Will Be Magic Again
DR12 -7.17 dB -24.62 dB 2:43 05-Warm and Soothing
DR10 -9.93 dB -23.75 dB 2:42 06-Lord of the Reedy River
DR11 -6.58 dB -21.00 dB 2:34 07-Ne T'En Fui Pas
DR11 -7.04 dB -22.83 dB 3:02 08-Un Baiser d'Enfant
DR12 -6.14 dB -23.83 dB 2:11 09-Under the Ivy
DR12 -6.36 dB -20.49 dB 4:39 10-Burning Bridge
DR11 -13.49 dB -30.77 dB 2:31 11-My Lagan Love
DR11 -9.57 dB -26.24 dB 3:13 12-The Handsome Cabin Boy
DR12 -4.40 dB -19.67 dB 3:43 13-Not This Time
DR12 -6.93 dB -21.13 dB 3:49 14-Walk Straight Down the Middle
DR11 -6.59 dB -19.09 dB 3:03 15-Be Kind to My Mistakes
DR13 -5.42 dB -20.39 dB 4:29 16-I'm Still Waiting
DR12 -6.58 dB -20.57 dB 3:51 17-Ken
DR14 -10.45 dB -31.35 dB 1:04 18-One Last Look Around the House Before We Go
DR12 -5.91 dB -20.19 dB 5:00 19-Wuthering Heights (New Vocal)
DR12 -5.22 dB -19.71 dB 4:24 20-Experiment IV
DR13 -4.50 dB -20.39 dB 4:09 21-Them Heavy People (Live)
DR13 -3.66 dB -21.13 dB 3:40 22-Don't Push Your Foot on the Heartbrake (Live)
DR13 -3.57 dB -19.22 dB 6:25 23-James and the Cold Gun (Live)
DR14 -4.48 dB -21.28 dB 2:44 24-L'Amour Looks Something Like You (Live)
DR14 -6.73 dB -24.36 dB 5:50 25-Running Up that Hill (12 Mix)
DR12 -7.02 dB -22.40 dB 6:30 26-Cloudbusting (The Organon Mix)
DR12 -7.03 dB -21.57 dB 3:49 27-Hounds of Love (Alternative)
DR12 -5.85 dB -21.64 dB 7:45 28-The Big Sky (Meteorological Mix)
DR13 -8.33 dB -23.23 dB 6:41 29-Experiment IV (12 Mix)
––––––––––––––––––––––––––––––––––––––––

Number of tracks: 29
Official DR value: DR12

Samplerate: 44100 Hz
Channels: 2
Bits per sample: 16
Bitrate: 706 kbps
Codec: FLAC
================================================================================




Original ripper: AlBeOne
Original format: 24/192
Vinyl Condition: Ex-NrMint
Cleaning:
Direct Drive Turntable: ClearAudio Emotion
Cartridge: ClearAudio Concept MC
Amplifier: Musical Fidelity V LPS
ADC: E-mu 1212

Downsampled to 16/44


Kate Bush in my Blog

Download Kate Bush - This Woman's Work: Anthology 1978-1990 (1990):