Subcategories
Tags
Language
Tags

Keiko Matsui - Full Moon And The Shrine (1998) {Japanese Edition}

Posted By: popsakov
Keiko Matsui - Full Moon And The Shrine (1998) {Japanese Edition}

Keiko Matsui - Full Moon And The Shrine (1998) {Japanese Edition}
EAC Rip | FLAC (Img) + Cue + Log ~ 342 Mb | MP3 CBR320 ~ 136 Mb
Full Scans (JPG, 600 dpi) ~ 81 Mb | RAR 5% Recovery
Smooth Jazz, Fusion, New Age | Planet Joy Records #PJ-0001

Keiko Matsui is the Stevie Nicks of contemporary jazz. In her photos, she always appears pale, out of a mist, like a fairy goddess or angel. Her creative and long popular blend of classical piano, aggressive jazz/funk, orchestral grandeur, and sonic elements from her native Japan allows her to create both poignant ballads and more aggressive fusion statements. Over the course of her last few albums, Matsui's Lindsey Buckingham – always at her side, pushing her performance harder and higher – has been seductive saxman Paul Taylor. On this ethereal mind trip, Full Moon and the Shrine (Countdown/Unity), she doesn't let Taylor stray too far. He's there matching her note for note, dancing skyward like Fred and Ginger under the swirling synth orchestral flavors and snappy hip-hop loops of Derek Nakamoto. On the dramatic "Bonfire of the Piano," Matsui textures Taylor's rich soul with her high register melody, which plays over a brooding low-register harmony line. Matsui always seems a bit torn between perfect R&B/pop melodies and film score auditions, but the one constant is her reliance on a wide range of machine generated and live percussion.
~ Jonathan Widran, All Music

***************

Keiko Matsui - Full Moon And The Shrine (1998) {Japanese Edition}

Track List:

01. Night Hawk's Dream [0:05:01.06]
02. Steps In The Night [0:04:16.43]
03. Bonfire In The Piano [0:04:40.70]
04. Southern Crossings [0:04:20.53]
05. Legend Of The Trees [0:04:43.70]
06. Full Moon And The Shrine [0:05:04.55]
07. Spirit At The Corner [0:05:11.00]
08. Toward The Sunrise [0:04:15.53]
09. Forever,Forever [0:04:42.22]
10. Meadow [0:04:19.69]
11. Hope(New Version) [0:03:54.73]
12. Presence Of The Moon(Piano Solo) [0:02:40.01]
13. Hope(Piano Solo) [0:03:26.58]

Exact Audio Copy V1.0 beta 3 from 29. August 2011

Отчёт EAC об извлечении, выполненном 8. января 2018, 19:40

Keiko Matsui / Full Moon And The Shrine (Japan Ver.)

Дисковод: PLEXTOR DVDR PX-755A Adapter: 1 ID: 0

Режим чтения : Достоверность
Использование точного потока : Да
Отключение кэша аудио : Да
Использование указателей C2 : Нет

Коррекция смещения при чтении : 30
Способность читать области Lead-in и Lead-out : Нет
Заполнение пропущенных сэмплов тишиной : Да
Удаление блоков с тишиной в начале и конце : Нет
При вычислениях CRC использовались нулевые сэмплы : Да
Интерфейс : Установленный внешний ASPI-интерфейс

Выходной формат : Пользовательский кодировщик
Выбранный битрейт : 1024 kBit/s
Качество : Высокий
Добавление ID3-тега : Нет
Утилита сжатия : C:\Program Files (x86)\Exact Audio Copy\Flac\flac.exe
Дополнительные параметры : -V -8 -T "Date=%year%" -T "Genre=%genre%" %source%


TOC извлечённого CD

Трек | Старт | Длительность | Начальный сектор | Конечный сектор
––––––––––––––––––––––––––––––––––-
1 | 0:00.00 | 5:01.06 | 0 | 22580
2 | 5:01.06 | 4:16.43 | 22581 | 41823
3 | 9:17.49 | 4:40.70 | 41824 | 62893
4 | 13:58.44 | 4:20.53 | 62894 | 82446
5 | 18:19.22 | 4:43.70 | 82447 | 103741
6 | 23:03.17 | 5:04.55 | 103742 | 126596
7 | 28:07.72 | 5:11.00 | 126597 | 149921
8 | 33:18.72 | 4:15.53 | 149922 | 169099
9 | 37:34.50 | 4:42.22 | 169100 | 190271
10 | 42:16.72 | 4:19.69 | 190272 | 209765
11 | 46:36.66 | 3:54.73 | 209766 | 227388
12 | 50:31.64 | 2:40.01 | 227389 | 239389
13 | 53:11.65 | 3:26.58 | 239390 | 254897
14 | 59:10.48 | 10:11.04 | 266298 | 312126


Характеристики диапазона извлечения и сообщения об ошибках

Выбранный диапазон

Имя файла E:\РАЗДАЧА\Keiko Matsui - Full Moon and The Shrine [Japan]\Keiko Matsui - Full Moon And The Shrine (Japan Ver.).wav

Пиковый уровень 100.0 %
Скорость извлечения 8.4 X
Качество диапазона 100.0 %
CRC теста E1EED691
CRC копии E1EED691
Копирование… OK

Ошибок не произошло


AccurateRip: сводка

Трек 1 : извлечено точно (доверие 1) [CFE450E5] (AR v1)
Трек 2 : извлечено точно (доверие 1) [717E1854] (AR v1)
Трек 3 : извлечено точно (доверие 1) [2F94A001] (AR v1)
Трек 4 : извлечено точно (доверие 1) [DE29F0A9] (AR v1)
Трек 5 : извлечено точно (доверие 1) [439BF202] (AR v1)
Трек 6 : извлечено точно (доверие 1) [E4CBE66A] (AR v1)
Трек 7 : извлечено точно (доверие 1) [6DAF6505] (AR v1)
Трек 8 : извлечено точно (доверие 1) [7E8352C0] (AR v1)
Трек 9 : извлечено точно (доверие 1) [9B254C66] (AR v1)
Трек 10 : извлечено точно (доверие 1) [37285FBB] (AR v1)
Трек 11 : извлечено точно (доверие 1) [994966DF] (AR v1)
Трек 12 : извлечено точно (доверие 1) [9455BF1E] (AR v1)
Трек 13 : извлечено точно (доверие 1) [BCC59287] (AR v1)

Все треки извлечены точно

Конец отчёта

==== Контрольная сумма отчёта 8ED255062C8C827EC35052AFFAB149FA6F21FCD5691C07AB623D2C31362C8194 ====

foobar2000 1.3.16 / Dynamic Range Meter 1.1.1
log date: 2018-01-09 22:06:48

––––––––––––––––––––––––––––––––––––––––
Analyzed: Keiko Matsui / Full Moon And The Shrine (Japan Ver.)
––––––––––––––––––––––––––––––––––––––––

DR Peak RMS Duration Track
––––––––––––––––––––––––––––––––––––––––
DR7 -0.30 dB -9.22 dB 5:01 01-Night Hawk's Dream
DR7 -0.30 dB -9.40 dB 4:17 02-Steps In The Night
DR8 -0.30 dB -10.17 dB 4:41 03-Bonfire In The Piano
DR7 -0.30 dB -9.16 dB 4:21 04-Southern Crossings
DR7 -0.30 dB -9.07 dB 4:44 05-Legend Of The Trees
DR8 -0.30 dB -11.08 dB 5:05 06-Full Moon And The Shrine
DR9 -0.39 dB -11.27 dB 5:11 07-Spirit At The Corner
DR8 -0.30 dB -10.34 dB 4:16 08-Toward The Sunrise
DR8 -0.30 dB -9.86 dB 4:42 09-Forever,Forever
DR10 -0.39 dB -13.94 dB 4:20 10-Meadow
DR8 0.00 dB -10.65 dB 3:55 11-Hope(New Version)
DR8 0.00 dB -13.45 dB 2:40 12-Presence Of The Moon(Piano Solo)
DR10 0.00 dB -14.37 dB 3:27 13-Hope(Piano Solo)
––––––––––––––––––––––––––––––––––––––––

Number of tracks: 13
Official DR value: DR8

Samplerate: 44100 Hz
Channels: 2
Bits per sample: 16
Bitrate: 803 kbps
Codec: FLAC
================================================================================

[CUETools log; Date: 09.01.2018 22:07:23; Version: 2.1.5]
CD-Extra data track length 10:11:04.
HDCD: peak extend: yes, transient filter: none, gain: -4,0dB..0,0dB
[CTDB TOCID: 3sURTGK7OvmRBJPj67F81.Io718-] found.
Track | CTDB Status
1 | (16/25) Accurately ripped
2 | (16/25) Accurately ripped
3 | (16/25) Accurately ripped
4 | (16/25) Accurately ripped
5 | (16/25) Accurately ripped
6 | (16/25) Accurately ripped
7 | (16/25) Accurately ripped
8 | (16/25) Accurately ripped
9 | (16/25) Accurately ripped
10 | (16/25) Accurately ripped
11 | (16/25) Accurately ripped
12 | (16/25) Accurately ripped
13 | (21/25) Accurately ripped
[AccurateRip ID: 001d9283-01295157-b810410e] found.
Track [ CRC | V2 ] Status
01 [cfe450e5|f15f2c83] (1+0/5) Accurately ripped
02 [717e1854|d97c559e] (1+0/5) Accurately ripped
03 [2f94a001|5872e895] (1+0/5) Accurately ripped
04 [de29f0a9|1e42a165] (1+0/5) Accurately ripped
05 [439bf202|689e06d5] (1+0/5) Accurately ripped
06 [e4cbe66a|75f2759c] (1+0/5) Accurately ripped
07 [6daf6505|71ec0539] (1+0/5) Accurately ripped
08 [7e8352c0|cc2b013c] (1+0/5) Accurately ripped
09 [9b254c66|7af831d4] (1+0/5) Accurately ripped
10 [37285fbb|255acdca] (1+0/5) Accurately ripped
11 [994966df|9ed5f50f] (1+0/5) Accurately ripped
12 [9455bf1e|483ed2e0] (1+0/5) Accurately ripped
13 [bcc59287|80a89388] (1+0/5) Accurately ripped
Offsetted by -1596:
01 [d2e8cedd] (1/5) Accurately ripped
02 [4ce683f4] (1/5) Accurately ripped
03 [c15adead] (1/5) Accurately ripped
04 [764c0411] (1/5) Accurately ripped
05 [9e15b7aa] (1/5) Accurately ripped
06 [0e8333a2] (1/5) Accurately ripped
07 [9c5ea05d] (1/5) Accurately ripped
08 [790a14e0] (1/5) Accurately ripped
09 [a158126e] (1/5) Accurately ripped
10 [a79b1af7] (1/5) Accurately ripped
11 [9b737a8f] (1/5) Accurately ripped
12 [c3c08b7a] (1/5) Accurately ripped
13 [195bec0a] (1/5) Accurately ripped
Offsetted by -932:
01 [ede272ad] (1/5) Accurately ripped
02 [4b7149b4] (1/5) Accurately ripped
03 [d06a8eb5] (1/5) Accurately ripped
04 [cd238881] (1/5) Accurately ripped
05 [2799e99a] (1/5) Accurately ripped
06 [0c8e32f2] (1/5) Accurately ripped
07 [9d7a746d] (1/5) Accurately ripped
08 [ca3be1a0] (1/5) Accurately ripped
09 [14d2069e] (1/5) Accurately ripped
10 [237d565f] (1/5) Accurately ripped
11 [05b2d0af] (1/5) Accurately ripped
12 [20f26da2] (1/5) Accurately ripped
13 [ee0dcb75] (1/5) Accurately ripped

Track Peak [ CRC32 ] [W/O NULL] [ LOG ]
– 100,0 [E1EED691] [59E6248B] CRC32
01 96,6 [5F6CCF99] [785CCD88]
02 96,6 [07493F16] [79D76A06]
03 96,6 [178F752B] [60DC0B06]
04 96,6 [EC18438E] [F0E09DDF]
05 96,6 [686FE69B] [DC585FE4]
06 96,6 [1285330E] [1CD470ED]
07 95,5 [44C80B36] [6D1E9D66]
08 96,6 [4E1E29B8] [28735FB5]
09 96,6 [8689EE96] [581F71EE]
10 95,5 [C1A41870] [CFE74300]
11 100,0 [A80920B7] [64AD05C2]
12 100,0 [E5BE5192] [0CC6229B]
13 100,0 [EECCD55D] [31FB1C70]

Keiko Matsui - Full Moon And The Shrine (1998) {Japanese Edition}

See also:
Keiko Matsui - The Road… (2011) {Japanese Edition}

All thanks go to pishin

>>> My Blog <<<

Download from icerbox.com: