Subcategories

Keith Andrew - Blue Funky Blue (2011)

Posted By: popsakov
Keith Andrew - Blue Funky Blue (2011)

Keith Andrew - Blue Funky Blue (2011)
EAC Rip | FLAC (Img) + Cue + Log ~ 410 Mb | MP3 CBR320 ~ 148 Mb
Full Scans | 00:55:44 | RAR 5% Recovery
Contemporary Jazz, Fusion, Smooth Jazz, Soul-Jazz, Blues | Hardtail Records #KAS003

Keith’s latest CD, Blue Funky Blue is 14 tracks that is a music adventurists’ dream with laid back R&B grooves, crisp electric guitar melodies, retro sound effects, exotic choral voices and even rolling drum beats. An upbeat and unique blend of Contemporary Jazz, Blues and Melodic World Music! It’s exotic, eclectic, Bluesy and Funky. As fulfilling as the music is, he then saves the party tunes for last and amps up on the electric rock-fusion. The project also features masterful drumming, melodic bass lines, superb and soulful trumpet work and funky grooves to add exciting musical depth to the CD. With each song, with each melody, with each extraordinary composition, every song on Blue Funky Blue is enriching and satisfying right down to the very last note!
Keith Andrew - Blue Funky Blue (2011)

Track List:

01. Pookies Groove [4:24]
02. Bayon [4:33]
03. Blue Funky Blue [5:49]
04. Who Dat, Where You At? [4:39]
05. Bubblefunk [4:22]
06. Samasama [4:13]
07. Sherpadance [4:30]
08. Fertile Crescent [4:06]
09. Little Sierra [3:21]
10. Howl Mountain [3:24]
11. Middle of the Night [5:16]
12. Makes Me Wonder [2:41]
13. Who Day, Said Who Dat? [2:49]
14. New Way [1:37]

Exact Audio Copy V0.99 prebeta 4 from 23. January 2008

Отчёт EAC об извлечении, выполненном 11. августа 2011, 20:27

Keith Andrew / Blue Funky Blue

Дисковод: PLEXTOR DVDR PX-880SA Adapter: 1 ID: 1

Режим чтения : Достоверность
Использование точного потока : Да
Отключение кэша аудио : Да
Использование указателей C2 : Нет

Коррекция смещения при чтении : 6
Способность читать области Lead-in и Lead-out : Нет
Заполнение пропущенных сэмплов тишиной : Да
Удаление блоков с тишиной в начале и конце : Нет
При вычислениях CRC использовались нулевые сэмплы : Да
Интерфейс : Встроенный Win32-интерфейс для Win NT/2000

Выходной формат : Пользовательский кодировщик
Выбранный битрейт : 1024 kBit/s
Качество : Высокий
Добавление ID3-тэга : Нет
Утилита сжатия : C:\Program Files\Exact Audio Copy\FLAC\FLAC.EXE
Дополнительные параметры : -6 -V -T "ARTIST=%a" -T "TITLE=%t" -T "ALBUM=%g" -T "DATE=%y" -T "TRACKNUMBER=%n" -T "GENRE=%m" -T "COMMENT=%e" %s -o %d


TOC извлечённого CD

Трек | Старт | Длительность | Начальный сектор | Конечный сектор
––––––––––––––––––––––––––––––––––-
1 | 0:00.00 | 4:24.24 | 0 | 19823
2 | 4:24.24 | 4:32.54 | 19824 | 40277
3 | 8:57.03 | 5:48.56 | 40278 | 66433
4 | 14:45.59 | 4:38.61 | 66434 | 87344
5 | 19:24.45 | 4:21.44 | 87345 | 106963
6 | 23:46.14 | 4:13.29 | 106964 | 125967
7 | 27:59.43 | 4:30.30 | 125968 | 146247
8 | 32:29.73 | 4:05.71 | 146248 | 164693
9 | 36:35.69 | 3:20.73 | 164694 | 179766
10 | 39:56.67 | 3:23.74 | 179767 | 195065
11 | 43:20.66 | 5:15.43 | 195066 | 218733
12 | 48:36.34 | 2:40.45 | 218734 | 230778
13 | 51:17.04 | 2:49.18 | 230779 | 243471
14 | 54:06.22 | 1:37.20 | 243472 | 250766


Характеристики диапазона извлечения и сообщения об ошибках

Выбранный диапазон

Имя файла J:\BitComet\Keith Andrew - Blue Funky Blue (2011)(flac)\Keith Andrew - Blue Funky Blue.wav

Пиковый уровень 98.8 %
Качество диапазона 99.9 %
CRC теста 5F776E46
CRC копии 5F776E46
Копирование… OK

Ошибок не произошло


AccurateRip: сводка

Трек 1 нет в базе данных
Трек 2 нет в базе данных
Трек 3 нет в базе данных
Трек 4 нет в базе данных
Трек 5 нет в базе данных
Трек 6 нет в базе данных
Трек 7 нет в базе данных
Трек 8 нет в базе данных
Трек 9 нет в базе данных
Трек 10 нет в базе данных
Трек 11 нет в базе данных
Трек 12 нет в базе данных
Трек 13 нет в базе данных
Трек 14 нет в базе данных

Ни одного трека нет в базе AccurateRip

Конец отчёта

Keith Andrew - Blue Funky Blue (2011)


All thanks go to izia1956

>>> My Blog <<<

DOWNLOAD: