Subcategories
Tags
Language
Tags

Kylie Minogue - Body Language (2003) [Re-Up]

Posted By: Designol
Kylie Minogue - Body Language (2003) [Re-Up]

Kylie Minogue - Body Language (2003)
EAC | FLAC | Image (Cue&Log) ~ 321 Mb | Mp3 (CBR320) ~ 109 Mb | Scans ~ 76 Mb
Pop, Dance-Pop | Label: EMI/Parlophone | # 7243 595758 2 7 | Time: 00:47:49

Body Language is the ninth studio album by Australian singer Kylie Minogue, released on 10 November 2003 by Parlophone. Following the massive commercial success of her eighth studio album Fever (2001), Minogue enlisted a diverse group of writers and producers to aid in creating a new album, including Cathy Dennis, Dan Carey, Emiliana Torrini, Johnny Douglas, and Kurtis Mantronik among others. Influenced by the musical works of the 1980s and artists like Prince and Scritti Politti, Body Language musically differs from Minogue's previous albums, which mainly featured disco-oriented dance-pop tracks, and instead explores genres like synth-pop, electroclash, R&B, and hip hop. Many tracks in Body Language contain references to songs from the 1980s and lyrically, the album touches upon themes of enjoyment, flirting, and sex.

If Light Years was the comeback, and Fever the confirmation, then Body Language can best be described as Kylie's "big step forward." Sure it's still simple dance-pop, but this time she (and a team of producers and writers – including Kurtis Mantronik – it must be said) has put together an album that works as a piece. It's stylish without being smarmy, retro without being ironic, and its energy never gets annoying. In other words: a near perfect pop record. Instead of opting for more of the light dance- and disco-pop of the last two releases, Kylie has sought to expand her horizons. Adding elements of electroclash, '80s synth pop, bouncy club beats – even a dash of Eminem-style raps! – she's found the formula that not only makes her vocal shortcomings irrelevant but gives her the edge on the rest of the divas on their newfound quest: maturity. While Madonna, Xtina, and Britney have attempted to achieve maturity through trashiness and not really all that shocking behavior (i.e., that MTV Awards kiss), Kylie maintained a low profile, retained a sense of class, and put together what may well be the best album of her career. Simply, Body Language is what happens when a dance-pop diva takes the high road and focuses on what's important instead of trying to shock herself into continued relevance.

Review by Chris True, Allmusic.com

Kylie Minogue - Body Language (2003) [Re-Up]



Tracklist:

01. Slow (03:15)
02. Still Standing (03:40)
03. Secret (Take You Home) (03:16)
04. Promises (03:17)
05. Sweet Music (04:11)
06. Red Blooded Woman (04:21)
07. Chocolate (05:00)
08. Obsession (03:31)
09. I Feel For You (04:19)
10. Someday (04:18)
11. Loving Days (04:26)
12. After Dark (04:09)


Exact Audio Copy V1.0 beta 3 from 29. August 2011

EAC extraction logfile from 12. January 2013, 20:19

Kylie Minogue / Body Language

Used drive : PIONEER DVD-RW DVR-112D Adapter: 2 ID: 1

Read mode : Secure
Utilize accurate stream : Yes
Defeat audio cache : Yes
Make use of C2 pointers : No

Read offset correction : 48
Overread into Lead-In and Lead-Out : No
Fill up missing offset samples with silence : Yes
Delete leading and trailing silent blocks : No
Null samples used in CRC calculations : Yes
Used interface : Installed external ASPI interface

Used output format : User Defined Encoder
Selected bitrate : 1024 kBit/s
Quality : High
Add ID3 tag : No
Command line compressor : C:\Program Files (x86)\Exact Audio Copy\Flac\flac.exe
Additional command line options : -8 -V -T "Date=%year%" -T "Genre=%genre%" -T "COMMENT=ripped by bvstudio™" %source%


TOC of the extracted CD

Track | Start | Length | Start sector | End sector
––––––––––––––––––––––––––––-
1 | 0:00.00 | 3:15.47 | 0 | 14671
2 | 3:15.47 | 3:40.08 | 14672 | 31179
3 | 6:55.55 | 3:16.62 | 31180 | 45941
4 | 10:12.42 | 3:17.05 | 45942 | 60721
5 | 13:29.47 | 4:11.13 | 60722 | 79559
6 | 17:40.60 | 4:21.52 | 79560 | 99186
7 | 22:02.37 | 5:00.50 | 99187 | 121736
8 | 27:03.12 | 3:31.35 | 121737 | 137596
9 | 30:34.47 | 4:19.63 | 137597 | 157084
10 | 34:54.35 | 4:18.27 | 157085 | 176461
11 | 39:12.62 | 4:26.43 | 176462 | 196454
12 | 43:39.30 | 4:09.72 | 196455 | 215201
13 | 50:21.27 | 5:29.16 | 226602 | 251292


Range status and errors

Selected range

Filename F:\Kylie Minogue\Kylie Minogue - Body Language.wav

Peak level 98.0 %
Extraction speed 7.1 X
Range quality 99.9 %
Test CRC 9293A355
Copy CRC 9293A355
Copy OK

No errors occurred


AccurateRip summary

Track 1 accurately ripped (confidence 3) [B548075E] (AR v2)
Track 2 accurately ripped (confidence 3) [34132ECE] (AR v2)
Track 3 accurately ripped (confidence 4) [C24EFDDD] (AR v2)
Track 4 accurately ripped (confidence 4) [15D8A5FD] (AR v2)
Track 5 accurately ripped (confidence 4) [6C71C12D] (AR v2)
Track 6 accurately ripped (confidence 6) [1392ACE8] (AR v2)
Track 7 accurately ripped (confidence 5) [2192D5CE] (AR v2)
Track 8 accurately ripped (confidence 5) [7193941F] (AR v2)
Track 9 accurately ripped (confidence 5) [21FA8B2A] (AR v2)
Track 10 accurately ripped (confidence 4) [12B5F6DC] (AR v2)
Track 11 accurately ripped (confidence 4) [C288FA2E] (AR v2)
Track 12 accurately ripped (confidence 4) [177CCE3A] (AR v2)

All tracks accurately ripped

End of status report

–– CUETools DB Plugin V2.1.4

[CTDB TOCID: tKjNlxfPqOeNdOmdt4TZ2h8B7_4-] found
Submit result: tKjNlxfPqOeNdOmdt4TZ2h8B7_4- has been confirmed
Track | CTDB Status
1 | ( 7/36) Accurately ripped, or (12/36) differs in 286 samples @00:00:50,03:13:37-03:13:53, or (1/36) differs in 131 samples @03:07:29-03:07:30
2 | ( 8/36) Accurately ripped, or (12/36) differs in 1342 samples @00:00:15,03:36:59-03:38:59
3 | ( 7/36) Accurately ripped, or (12/36) differs in 126 samples @00:00:13, or (1/36) differs in 108 samples @03:07:49-03:07:50
4 | (21/36) Accurately ripped
5 | ( 9/36) Accurately ripped, or (12/36) differs in 104 samples @04:08:47-04:08:65
6 | ( 9/36) Accurately ripped, or (12/36) differs in 170 samples @00:00:12-00:00:13,04:18:51,04:18:57,04:18:62
7 | ( 9/36) Accurately ripped, or (12/36) differs in 54 samples @00:00:14,04:58:11-04:58:12,04:58:20,04:58:31,04:58:43,04:58:52
8 | ( 8/36) Accurately ripped, or (12/36) differs in 469 samples @00:00:13-00:00:14,03:27:07-03:29:16,03:29:23-03:29:36
9 | (10/36) Accurately ripped, or (12/36) differs in 1763 samples @00:00:14,02:42:08,04:14:39-04:17:36
10 | ( 7/36) Accurately ripped, or (12/36) differs in 426 samples @00:00:13,04:15:52-04:16:32, or (1/36) differs in 63 samples @03:43:69-03:43:70
11 | ( 9/36) Accurately ripped, or (12/36) differs in 171 samples @00:00:13,04:24:26-04:24:41
12 | ( 8/36) Accurately ripped, or (12/36) differs in 88 samples @00:00:13, or (1/36) differs in 66 samples @00:44:10-00:44:11
If you are sure that your rip contains errors, you can use CUETools to repair it.


==== Log checksum 23E877143ACD7895338E9880159A6FABF8EF9ABEF71555CA764B5B1CF37DC781 ====

foobar2000 1.2.1 / Dynamic Range Meter 1.1.1
log date: 2013-01-15 01:53:38

––––––––––––––––––––––––––––––––––––––––
Analyzed: Kylie Minogue / Body Language
––––––––––––––––––––––––––––––––––––––––

DR Peak RMS Duration Track
––––––––––––––––––––––––––––––––––––––––
DR8 -0.18 dB -9.16 dB 3:16 01-Slow
DR8 -0.18 dB -9.96 dB 3:40 02-Still Standing
DR8 -0.18 dB -9.73 dB 3:17 03-Secret (Take You Home)
DR9 -0.18 dB -10.67 dB 3:17 04-Promises
DR8 -0.18 dB -9.49 dB 4:11 05-Sweet Music
DR9 -0.18 dB -10.26 dB 4:22 06-Red Blooded Woman
DR9 -0.18 dB -11.34 dB 5:01 07-Chocolate
DR9 -0.18 dB -10.45 dB 3:31 08-Obsession
DR9 -0.18 dB -12.07 dB 4:20 09-I Feel For You
DR8 -0.28 dB -10.17 dB 4:18 10-Someday
DR8 -0.18 dB -9.35 dB 4:27 11-Loving Days
DR10 -0.18 dB -12.18 dB 4:10 12-After Dark
––––––––––––––––––––––––––––––––––––––––

Number of tracks: 12
Official DR value: DR9

Samplerate: 44100 Hz
Channels: 2
Bits per sample: 16
Bitrate: 938 kbps
Codec: FLAC
================================================================================

Kylie Minogue - Body Language (2003) [Re-Up]

Kylie Minogue - Body Language (2003) [Re-Up]

All thanks to original releaser - bvstudio

More interesting music in My Blog