Tags
Language
Tags

L7 - The Best Of L7: The Slash Years (2000)

Posted By: Designol
L7 - The Best Of L7: The Slash Years (2000)

L7 - The Best Of L7: The Slash Years (2000)
EAC | FLAC | Tracks (Cue&Log) ~ 332 Mb | Mp3 (CBR320) ~ 123 Mb | Scans included
Alternative Rock, Grunge, Punk Rock | Label: London/Slash | # 8573820642 | 00:42:34

L7 had the sound, style, and tough-grrrl attitude to hit it big in the aftermath of grunge's mainstream breakthrough, but unfortunately, the band was too often hampered by uneven songwriting. The Best of L7: The Slash Years collects four songs apiece from Bricks Are Heavy, Hungry for Stink, and The Beauty Process: Triple Platinum (although, as the title suggests, there's nothing from the fine Sub Pop album Smell the Magic). It's a pretty good distillation of the cream of those records, even if there are still a few tunes on Bricks Are Heavy that could have made the cut on a less mathematically selected best-of. In fact, as L7's most pop-oriented record, Bricks Are Heavy is still a slightly more accessible introduction, since following that album, the band tended to rely more on sheer power than melody. Nevertheless, The Best of L7: The Slash Years does encapsulate what the group was all about, and it's a great way to dig deeper into their catalog without having to buy all the individual albums.

Review by Steve Huey, Allmusic.com

L7 - The Best Of L7: The Slash Years (2000)



Tracklist:

01. Pretend We're Dead (3:56)
02. Mr. Integrity (4:09)
03. Monster (2:56)
04. Everglade (3:17)
05. Andres (3:04)
06. Fuel My Fire (3:46)
07. Freak Magnet (3:15)
08. Can I Run (3:54)
09. Bad Things (3:13)
10. Off the Wagon (3:27)
11. Moonshine (3:23)
12. Bitter Wine (4:15)


Exact Audio Copy V1.0 beta 4 from 7. December 2014

EAC extraction logfile from 13. December 2016, 5:24

L7 / The Best Of L7 The Slash Years

Used drive : TSSTcorpCDDVDW SH-224DB Adapter: 1 ID: 0

Read mode : Secure
Utilize accurate stream : Yes
Defeat audio cache : Yes
Make use of C2 pointers : No

Read offset correction : 6
Overread into Lead-In and Lead-Out : No
Fill up missing offset samples with silence : Yes
Delete leading and trailing silent blocks : No
Null samples used in CRC calculations : Yes
Used interface : Native Win32 interface for Win NT & 2000
Gap handling : Appended to previous track

Used output format : User Defined Encoder
Selected bitrate : 1024 kBit/s
Quality : High
Add ID3 tag : No
Command line compressor : C:\Program Files (x86)\Exact Audio Copy\Flac\flac.exe
Additional command line options : -8 -V -T "ARTIST=%artist%" -T "TITLE=%title%" -T "ALBUM=%albumtitle%" -T "DATE=%year%" -T "TRACKNUMBER=%tracknr%" -T "GENRE=%genre%" -T "PERFORMER=%albuminterpret%" -T "COMPOSER=%composer%" %haslyrics%–tag-from-file=LYRICS="%lyricsfile%"%haslyrics% -T "ALBUMARTIST=%albumartist%" -T "DISCNUMBER=%cdnumber%" -T "TOTALDISCS=%totalcds%" -T "TOTALTRACKS=%numtracks%" -T "COMMENT=%comment%" %source% -o %dest%


TOC of the extracted CD

Track | Start | Length | Start sector | End sector
––––––––––––––––––––––––––––-
1 | 0:00.00 | 3:55.42 | 0 | 17666
2 | 3:55.42 | 4:08.68 | 17667 | 36334
3 | 8:04.35 | 2:56.27 | 36335 | 49561
4 | 11:00.62 | 3:16.60 | 49562 | 64321
5 | 14:17.47 | 3:03.43 | 64322 | 78089
6 | 17:21.15 | 3:46.00 | 78090 | 95039
7 | 21:07.15 | 3:14.62 | 95040 | 109651
8 | 24:22.02 | 3:54.23 | 109652 | 127224
9 | 28:16.25 | 3:12.67 | 127225 | 141691
10 | 31:29.17 | 3:26.58 | 141692 | 157199
11 | 34:56.00 | 3:23.00 | 157200 | 172424
12 | 38:19.00 | 4:15.30 | 172425 | 191579


Track 1

Filename C:\EAC\L7 - The Best Of L7 The Slash Years (2000) [FLAC]\01 - L7 - Pretend We're Dead.wav

Pre-gap length 0:00:02.00

Peak level 99.2 %
Extraction speed 1.7 X
Track quality 100.0 %
Test CRC AFDFBC71
Copy CRC AFDFBC71
Accurately ripped (confidence 3) [F806FB40] (AR v2)
Copy OK

Track 2

Filename C:\EAC\L7 - The Best Of L7 The Slash Years (2000) [FLAC]\02 - L7 - Mr. Integrity.wav

Peak level 99.2 %
Extraction speed 1.9 X
Track quality 100.0 %
Test CRC 5C1BEEDC
Copy CRC 5C1BEEDC
Accurately ripped (confidence 3) [BC1A210E] (AR v2)
Copy OK

Track 3

Filename C:\EAC\L7 - The Best Of L7 The Slash Years (2000) [FLAC]\03 - L7 - Monster.wav

Peak level 99.2 %
Extraction speed 1.9 X
Track quality 100.0 %
Test CRC C13AF762
Copy CRC C13AF762
Accurately ripped (confidence 3) [4FC4C575] (AR v2)
Copy OK

Track 4

Filename C:\EAC\L7 - The Best Of L7 The Slash Years (2000) [FLAC]\04 - L7 - Everglade.wav

Peak level 99.2 %
Extraction speed 2.1 X
Track quality 100.0 %
Test CRC 6B90D68D
Copy CRC 6B90D68D
Accurately ripped (confidence 3) [F887BDC9] (AR v2)
Copy OK

Track 5

Filename C:\EAC\L7 - The Best Of L7 The Slash Years (2000) [FLAC]\05 - L7 - Andres.wav

Peak level 99.2 %
Extraction speed 1.8 X
Track quality 99.9 %
Test CRC BE7705B9
Copy CRC BE7705B9
Accurately ripped (confidence 3) [B747F03B] (AR v2)
Copy OK

Track 6

Filename C:\EAC\L7 - The Best Of L7 The Slash Years (2000) [FLAC]\06 - L7 - Fuel My Fire.wav

Peak level 99.2 %
Extraction speed 2.4 X
Track quality 100.0 %
Test CRC B2758969
Copy CRC B2758969
Accurately ripped (confidence 2) [F73C877D] (AR v2)
Copy OK

Track 7

Filename C:\EAC\L7 - The Best Of L7 The Slash Years (2000) [FLAC]\07 - L7 - Freak Magnet.wav

Peak level 99.2 %
Extraction speed 2.4 X
Track quality 100.0 %
Test CRC 972C4978
Copy CRC 972C4978
Accurately ripped (confidence 3) [A07349CF] (AR v2)
Copy OK

Track 8

Filename C:\EAC\L7 - The Best Of L7 The Slash Years (2000) [FLAC]\08 - L7 - Can I Run.wav

Peak level 99.2 %
Extraction speed 2.6 X
Track quality 100.0 %
Test CRC 4B5B1BB0
Copy CRC 4B5B1BB0
Accurately ripped (confidence 3) [1BF9E775] (AR v2)
Copy OK

Track 9

Filename C:\EAC\L7 - The Best Of L7 The Slash Years (2000) [FLAC]\09 - L7 - Bad Things.wav

Peak level 78.9 %
Extraction speed 2.0 X
Track quality 99.9 %
Test CRC 74AB4E6B
Copy CRC 74AB4E6B
Accurately ripped (confidence 3) [2CC74BF7] (AR v2)
Copy OK

Track 10

Filename C:\EAC\L7 - The Best Of L7 The Slash Years (2000) [FLAC]\10 - L7 - Off The Wagon.wav

Peak level 79.4 %
Extraction speed 2.7 X
Track quality 100.0 %
Test CRC 26800E6C
Copy CRC 26800E6C
Accurately ripped (confidence 3) [FF3E3E69] (AR v2)
Copy OK

Track 11

Filename C:\EAC\L7 - The Best Of L7 The Slash Years (2000) [FLAC]\11 - L7 - Moonshine.wav

Peak level 79.4 %
Extraction speed 2.8 X
Track quality 100.0 %
Test CRC 0BB445C5
Copy CRC 0BB445C5
Accurately ripped (confidence 3) [C9B24226] (AR v2)
Copy OK

Track 12

Filename C:\EAC\L7 - The Best Of L7 The Slash Years (2000) [FLAC]\12 - L7 - Bitter Wine.wav

Peak level 78.9 %
Extraction speed 3.0 X
Track quality 100.0 %
Test CRC 97683340
Copy CRC 97683340
Accurately ripped (confidence 3) [4E521A87] (AR v2)
Copy OK


All tracks accurately ripped

No errors occurred

End of status report

–– CUETools DB Plugin V2.1.4

[CTDB TOCID: FD81xctjsVaraGm9cj2_aop1td8-] found
Submit result: FD81xctjsVaraGm9cj2_aop1td8- has been confirmed
Track | CTDB Status
1 | (8/8) Accurately ripped
2 | (8/8) Accurately ripped
3 | (8/8) Accurately ripped
4 | (8/8) Accurately ripped
5 | (8/8) Accurately ripped
6 | (8/8) Accurately ripped
7 | (8/8) Accurately ripped
8 | (8/8) Accurately ripped
9 | (7/8) Accurately ripped
10 | (8/8) Accurately ripped
11 | (8/8) Accurately ripped
12 | (8/8) Accurately ripped


==== Log checksum 45E619E6E05AA23DF7D07218877F4AC8E5FEABF595B4757747473EAC9ABE1B58 ====

[CUETools log; Date: 05.05.2018 0:28:17; Version: 2.1.4]
[CTDB TOCID: FD81xctjsVaraGm9cj2_aop1td8-] found.
Track | CTDB Status
1 | (11/11) Accurately ripped
2 | (11/11) Accurately ripped
3 | (11/11) Accurately ripped
4 | (11/11) Accurately ripped
5 | (11/11) Accurately ripped
6 | (11/11) Accurately ripped
7 | (11/11) Accurately ripped
8 | (11/11) Accurately ripped
9 | (10/11) Accurately ripped
10 | (11/11) Accurately ripped
11 | (11/11) Accurately ripped
12 | (11/11) Accurately ripped
[AccurateRip ID: 0012eed6-00afdf83-b109fa0c] found.
Track [ CRC | V2 ] Status
01 [3f207166|f806fb40] (5+3/8) Accurately ripped
02 [9ab5a235|bc1a210e] (5+3/8) Accurately ripped
03 [dd8555fa|4fc4c575] (6+3/9) Accurately ripped
04 [a100adc2|f887bdc9] (6+3/9) Accurately ripped
05 [bdd1b40f|b747f03b] (6+3/9) Accurately ripped
06 [351b6a33|f73c877d] (6+2/8) Accurately ripped
07 [ba776262|a07349cf] (6+3/9) Accurately ripped
08 [9dbf3f82|1bf9e775] (6+3/9) Accurately ripped
09 [11a80862|2cc74bf7] (6+3/9) Accurately ripped
10 [8f8225ac|ff3e3e69] (6+3/9) Accurately ripped
11 [61e9dd92|c9b24226] (6+3/9) Accurately ripped
12 [90eba6d5|4e521a87] (6+3/9) Accurately ripped

Track Peak [ CRC32 ] [W/O NULL] [ LOG ]
– 99,2 [E962096C] [8F0A2E4E]
01 99,2 [AFDFBC71] [13EB72FE] CRC32
02 99,2 [5C1BEEDC] [CA5A6733] CRC32
03 99,2 [C13AF762] [FFF0A85A] CRC32
04 99,2 [6B90D68D] [84B52ABA] CRC32
05 99,2 [BE7705B9] [37115FC3] CRC32
06 99,2 [B2758969] [48B7D8A1] CRC32
07 99,2 [972C4978] [83F8C0C3] CRC32
08 99,2 [4B5B1BB0] [DB72D169] CRC32
09 78,9 [74AB4E6B] [814357EB] CRC32
10 79,4 [26800E6C] [055E3551] CRC32
11 79,4 [0BB445C5] [EAC1370F] CRC32
12 78,9 [97683340] [B0F31B31] CRC32

foobar2000 1.2 / Dynamic Range Meter 1.1.1
log date: 2018-05-04 23:38:22

––––––––––––––––––––––––––––––––––––––––
Analyzed: L7 / The Best of L7: The Slash Years
––––––––––––––––––––––––––––––––––––––––

DR Peak RMS Duration Track
––––––––––––––––––––––––––––––––––––––––
DR9 -0.07 dB -10.52 dB 3:56 01-Pretend We're Dead
DR10 -0.07 dB -11.40 dB 4:09 02-Mr. Integrity
DR10 -0.07 dB -10.62 dB 2:56 03-Monster
DR12 -0.07 dB -12.85 dB 3:17 04-Everglade
DR11 -0.07 dB -11.75 dB 3:04 05-Andres
DR11 -0.07 dB -12.57 dB 3:46 06-Fuel My Fire
DR12 -0.07 dB -13.08 dB 3:15 07-Freak Magnet
DR11 -0.07 dB -12.44 dB 3:54 08-Can I Run
DR7 -2.05 dB -10.18 dB 3:13 09-Bad Things
DR7 -2.00 dB -10.86 dB 3:27 10-Off the Wagon
DR5 -2.00 dB -9.07 dB 3:23 11-Moonshine
DR5 -2.05 dB -8.58 dB 4:15 12-Bitter Wine
––––––––––––––––––––––––––––––––––––––––

Number of tracks: 12
Official DR value: DR9

Samplerate: 44100 Hz
Channels: 2
Bits per sample: 16
Bitrate: 989 kbps
Codec: FLAC
================================================================================

L7 - The Best Of L7: The Slash Years (2000)

L7 - The Best Of L7: The Slash Years (2000)

All thanks to original uploader - DoctorGonzo

More interesting music in My Blog