Tags
Language
Tags

Lindisfarne - The Charisma Years 1970-1973 (2011) 4CD Box Set

Posted By: Designol
Lindisfarne - The Charisma Years 1970-1973 (2011) 4CD Box Set

Lindisfarne - The Charisma Years 1970-1973 (2011) 4CD Box Set
EAC | FLAC | Image (Cue&Log) ~ 1.71 Gb | Mp3 (CBR320) ~ 652 Mb | Scans ~ 303 Mb
Label: EMI/Virgin | # 50999 9 48391 2 8 | Time: 04:44:28
British Folk-Rock, Folk-Prog, Psychedelic Folk

Digitally re-mastered four CD collection from the British Folk icons. The Charisma Years (1970-1973) comprises the five Lindisfarne albums that were released by the Charisma label. The set also includes B-sides, outtakes and several rare tracks taken from foreign LPs, most of which are appearing on CD for the first time. Features the albums Nicely Out of Tune (1970), Fog on the Tyne (1971), Dingly Dell (1972), Roll On, Ruby (1973) and Live (1973).

Four CDs round up the complete and utter Lindisfarne tale, from their arrival on the mainstream scene with 1970's still stunning Nicely Out of Tune through the following year's flirtation with stardom via Fog on the Tyne, and on through the sadly diminishing returns that were Dingly Dell and Roll on Ruby. Yes, the story would continue later in the '70s, and on and off since then, too. But the first incarnation of the band was the one that mattered the most, and those first two albums remain quintessential early-'70s folk-rock, with neither folk nor rock having much to do with any of it. Lindisfarne are, perhaps rightfully, best judged by their two biggest hits, the sad mystery of "Lady Eleanor" and the singalong joy of "Meet Me on the Corner." Add "We Can Swing Together," "No Time to Lose" (amazingly, a mere B-side at the time) and "Fog on the Tyne," and Lindisfarne could have been the new Faces if only Alan Hull had wanted to be the next Rod Stewart. But pop fame and fortune sat awkwardly on the group's shoulders, which is why Dingly Dell was the original lineup's final shout. The band split, some to form Jack the Lad; the rest to continue as a revamped soft rock Lindisfarne whose presence here (the final disc) really does spoil the proceedings somewhat. Better to end with the concert disc that takes 1973's Lindisfarne Live album, expands it to take in the entire evening's entertainment, and reveals Lindisfarne to have been one of the most entertaining live acts of their era. That, and a near-full album's worth of bonus material drawn from period singles, compilations, and mispressings ensure this is a must-have box set, even for fans who think they already own all the Lindisfarne they could ever need.

Review by Dave Thompson, Allmusic.com

Lindisfarne - The Charisma Years 1970-1973 (2011) 4CD Box Set





Lindisfarne - The Charisma Years 1970-1973 (2011) 4CD Box Set

CD1: Nicely Out Of Tune


Tracklist:

Nicely Out Of Tune (1970):

01. Lady Eleanor (04:16)
02. Road To Kingdom Come (04:15)
03. Winter Song (05:14)
04. Turn A Deaf Ear (03:56)
05. Clear White Light (Part 2) (04:07)
06. We Can Swing Together (05:48)
07. Alan In The River With Flowers (03:09)
08. Down (03:11)
09. The Things I Should Have Said (04:03)
10. Jackhammer Blues (03:25)
11. Scarecrow Song (03:23)

Bonus Tracks:
12. Knackers Yard Blues (single b-side) (03:39)
13. Nothing But The Marvellous Is Beautiful (single b-side) (04:42)
14. From My Window (out take) (03:29)
15. On My Own I Built A Bridge (out take) (04:17)

US Mixes (From Elektra EKS-74099):
16. Lady Eleanor (Us Mix) (04:15)
17. We Can Swing Together (Us Mix) (03:31)
18. Scarecrow Song (Us Mix) (04:02)
19. Meet Me On The Corner (Us Mix / demo version) (02:37)


Exact Audio Copy V1.0 beta 1 from 15. November 2010

EAC extraction logfile from 10. April 2011, 14:52

Lindisfarne / The Charisma Years 1970-1973 CD1

Used drive : HL-DT-STDVDRAM GSA-H60N Adapter: 2 ID: 0

Read mode : Secure
Utilize accurate stream : Yes
Defeat audio cache : Yes
Make use of C2 pointers : No

Read offset correction : 667
Overread into Lead-In and Lead-Out : No
Fill up missing offset samples with silence : Yes
Delete leading and trailing silent blocks : No
Null samples used in CRC calculations : Yes
Used interface : Native Win32 interface for Win NT & 2000

Used output format : Internal WAV Routines
Sample format : 44.100 Hz; 16 Bit; Stereo


TOC of the extracted CD

Track | Start | Length | Start sector | End sector
––––––––––––––––––––––––––––-
1 | 0:00.00 | 4:16.09 | 0 | 19208
2 | 4:16.09 | 4:15.26 | 19209 | 38359
3 | 8:31.35 | 5:14.17 | 38360 | 61926
4 | 13:45.52 | 3:56.48 | 61927 | 79674
5 | 17:42.25 | 4:07.38 | 79675 | 98237
6 | 21:49.63 | 5:48.16 | 98238 | 124353
7 | 27:38.04 | 3:09.35 | 124354 | 138563
8 | 30:47.39 | 3:11.07 | 138564 | 152895
9 | 33:58.46 | 4:03.41 | 152896 | 171161
10 | 38:02.12 | 3:25.50 | 171162 | 186586
11 | 41:27.62 | 3:23.10 | 186587 | 201821
12 | 44:50.72 | 3:39.35 | 201822 | 218281
13 | 48:30.32 | 4:42.47 | 218282 | 239478
14 | 53:13.04 | 3:29.61 | 239479 | 255214
15 | 56:42.65 | 4:17.03 | 255215 | 274492
16 | 60:59.68 | 4:15.13 | 274493 | 293630
17 | 65:15.06 | 3:31.08 | 293631 | 309463
18 | 68:46.14 | 4:02.51 | 309464 | 327664
19 | 72:48.65 | 2:37.10 | 327665 | 339449


Range status and errors

Selected range

Filename C:\Documents and Settings\Администратор\Рабочий стол\Rip by ALLexxess\2011 Lindisfarne Charisma Years 1970-1973 (4CD Box Set EMI - Virgin Records)\CD1\Lindisfarne Charisma Years 1970-1973 CD1.wav

Peak level 99.7 %
Extraction speed 0.2 X
Range quality 100.0 %
Test CRC 3ED8AF19
Copy CRC 3ED8AF19
Copy OK

No errors occurred


AccurateRip summary

Track 1 accurately ripped (confidence 2) [EA83F9E4]
Track 2 accurately ripped (confidence 2) [0906D23A]
Track 3 accurately ripped (confidence 2) [90A3639E]
Track 4 accurately ripped (confidence 2) [F6DAE8C8]
Track 5 accurately ripped (confidence 2) [0DA8DD27]
Track 6 accurately ripped (confidence 2) [C4F22E4C]
Track 7 accurately ripped (confidence 2) [35D13DF9]
Track 8 accurately ripped (confidence 2) [9BE35C8A]
Track 9 accurately ripped (confidence 2) [CC83547B]
Track 10 accurately ripped (confidence 2) [509EA326]
Track 11 accurately ripped (confidence 2) [CE659C4B]
Track 12 accurately ripped (confidence 2) [94D424E7]
Track 13 accurately ripped (confidence 2) [2731EAAD]
Track 14 accurately ripped (confidence 2) [A15CF821]
Track 15 accurately ripped (confidence 2) [C39DC316]
Track 16 accurately ripped (confidence 2) [9C41DBC6]
Track 17 accurately ripped (confidence 2) [A2726071]
Track 18 accurately ripped (confidence 2) [19477891]
Track 19 accurately ripped (confidence 2) [0DC485D6]

All tracks accurately ripped

End of status report

==== Log checksum 8009752FA361D509273A2629CB0A852DDA46F0EC663652BE38A64F51E67EA3D1 ====





Lindisfarne - The Charisma Years 1970-1973 (2011) 4CD Box Set

CD2: Fog On The Tyne & Dingly Dell


Tracklist:

Fog On The Tyne (1971):

01. Meet Me On The Corner (02:40)
02. Alright On The Night (03:33)
03. Uncle Sam (02:57)
04. Together Forever (02:35)
05. January Song (04:14)
06. Peter Brophy Don't Care (02:49)
07. City Song (03:06)
08. Passing Ghosts (02:30)
09. Train In G Major (03:10)
10. Fog On The Tyne (03:24)

Bonus Tracks:
11. Scotch Mist (single b-side) (02:07)
12. No Time To Lose (single b-side) (03:15)
13. January Song (extended version) (06:11)

Dingly Dell (1972):

14. All Fall Down (03:41)
15. Plankton's Lament (01:55)
16. Bring Down The Government (01:29)
17. Poor Old Ireland (02:58)
18. Don't Ask Me (03:31)
19. O No Not Again (03:21)
20. Dingle Regatta (01:05)
21. Wake Up Little Sister (02:52)
22. Go Back (03:00)
23. Court In The Act (03:09)
24. Mandolin King (02:34)
25. Dingly Dell (06:09)


Exact Audio Copy V1.0 beta 1 from 15. November 2010

EAC extraction logfile from 10. April 2011, 16:25

Lindisfarne / The Charisma Years 1970-1973 CD2

Used drive : HL-DT-STDVDRAM GSA-H60N Adapter: 2 ID: 0

Read mode : Secure
Utilize accurate stream : Yes
Defeat audio cache : Yes
Make use of C2 pointers : No

Read offset correction : 667
Overread into Lead-In and Lead-Out : No
Fill up missing offset samples with silence : Yes
Delete leading and trailing silent blocks : No
Null samples used in CRC calculations : Yes
Used interface : Native Win32 interface for Win NT & 2000

Used output format : Internal WAV Routines
Sample format : 44.100 Hz; 16 Bit; Stereo


TOC of the extracted CD

Track | Start | Length | Start sector | End sector
––––––––––––––––––––––––––––-
1 | 0:00.00 | 2:40.05 | 0 | 12004
2 | 2:40.05 | 3:33.45 | 12005 | 28024
3 | 6:13.50 | 2:57.34 | 28025 | 41333
4 | 9:11.09 | 2:35.31 | 41334 | 52989
5 | 11:46.40 | 4:14.39 | 52990 | 72078
6 | 16:01.04 | 2:49.31 | 72079 | 84784
7 | 18:50.35 | 3:06.46 | 84785 | 98780
8 | 21:57.06 | 2:30.30 | 98781 | 110060
9 | 24:27.36 | 3:10.60 | 110061 | 124370
10 | 27:38.21 | 3:24.68 | 124371 | 139738
11 | 31:03.14 | 2:07.52 | 139739 | 149315
12 | 33:10.66 | 3:15.66 | 149316 | 164006
13 | 36:26.57 | 6:11.29 | 164007 | 191860
14 | 42:38.11 | 3:41.73 | 191861 | 208508
15 | 46:20.09 | 1:55.60 | 208509 | 217193
16 | 48:15.69 | 1:29.42 | 217194 | 223910
17 | 49:45.36 | 2:58.71 | 223911 | 237331
18 | 52:44.32 | 3:31.23 | 237332 | 253179
19 | 56:15.55 | 3:21.21 | 253180 | 268275
20 | 59:37.01 | 1:05.17 | 268276 | 273167
21 | 60:42.18 | 2:52.01 | 273168 | 286068
22 | 63:34.19 | 3:00.00 | 286069 | 299568
23 | 66:34.19 | 3:09.67 | 299569 | 313810
24 | 69:44.11 | 2:34.31 | 313811 | 325391
25 | 72:18.42 | 6:09.33 | 325392 | 353099


Range status and errors

Selected range

Filename C:\Documents and Settings\Администратор\Рабочий стол\Rip by ALLexxess\2011 Lindisfarne Charisma Years 1970-1973 (4CD Box Set EMI - Virgin Records)\CD2\Lindisfarne Charisma Years 1970-1973 CD2.wav

Peak level 99.6 %
Extraction speed 0.5 X
Range quality 99.9 %
Test CRC 16F08932
Copy CRC 16F08932
Copy OK

No errors occurred


AccurateRip summary

Track 1 accurately ripped (confidence 2) [8514CBAA]
Track 2 accurately ripped (confidence 2) [F58333FA]
Track 3 accurately ripped (confidence 2) [1C1364BA]
Track 4 accurately ripped (confidence 2) [2CED378B]
Track 5 accurately ripped (confidence 2) [8B4DA3F2]
Track 6 accurately ripped (confidence 2) [ABA5DB2A]
Track 7 accurately ripped (confidence 2) [2D32965D]
Track 8 accurately ripped (confidence 2) [5B465BB9]
Track 9 accurately ripped (confidence 2) [D8B6A16E]
Track 10 accurately ripped (confidence 2) [B7EF268B]
Track 11 accurately ripped (confidence 2) [7A9C42F0]
Track 12 accurately ripped (confidence 2) [B88B5529]
Track 13 accurately ripped (confidence 2) [0A78C355]
Track 14 accurately ripped (confidence 2) [CB4111DA]
Track 15 accurately ripped (confidence 2) [5FE99569]
Track 16 accurately ripped (confidence 2) [493ECAB5]
Track 17 accurately ripped (confidence 2) [047A1BA4]
Track 18 accurately ripped (confidence 2) [689D5B96]
Track 19 accurately ripped (confidence 2) [D67A1855]
Track 20 accurately ripped (confidence 2) [298F15C7]
Track 21 accurately ripped (confidence 2) [7AFC93EB]
Track 22 accurately ripped (confidence 2) [EA4C45A6]
Track 23 accurately ripped (confidence 2) [8D34FA22]
Track 24 accurately ripped (confidence 2) [10C6D102]
Track 25 accurately ripped (confidence 2) [2751A3B6]

All tracks accurately ripped

End of status report

==== Log checksum 7FF3753AD9FF19CC8D291A95C3670CEE83F6AAB27A923FA78384E928B4CCD80E ====

foobar2000 1.2 / Dynamic Range Meter 1.1.1
log date: 2016-06-02 22:44:58

––––––––––––––––––––––––––––––––––––––––
Analyzed: Lindisfarne / The Charisma Years 1970-1973 CD2
––––––––––––––––––––––––––––––––––––––––

DR Peak RMS Duration Track
––––––––––––––––––––––––––––––––––––––––
DR9 -0.03 dB -10.63 dB 2:40 01-Meet Me On The Corner
DR10 -0.03 dB -11.55 dB 3:34 02-Alright On The Night
DR11 -0.03 dB -13.92 dB 2:57 03-Uncle Sam
DR8 -0.03 dB -10.18 dB 2:35 04-Together Forever
DR9 -0.03 dB -12.73 dB 4:15 05-January Song
DR11 -0.03 dB -14.36 dB 2:49 06-Peter Brophy Don't Care
DR9 -0.03 dB -11.21 dB 3:07 07-City Song
DR8 -0.03 dB -11.86 dB 2:30 08-Passing Ghosts
DR9 -0.03 dB -12.27 dB 3:11 09-Train In G Major
DR9 -0.03 dB -12.07 dB 3:25 10-Fog On The Tyne
DR7 -0.03 dB -9.12 dB 2:08 11-Scotch Mist (single b-side)
DR8 -0.03 dB -9.63 dB 3:16 12-No Time To Lose (single b-side)
DR10 -0.03 dB -11.29 dB 6:11 13-January Song (extended version)
DR9 -0.03 dB -10.71 dB 3:42 14-All Fall Down
DR9 -0.03 dB -10.34 dB 1:56 15-Plankton's Lament
DR10 -0.03 dB -11.28 dB 1:30 16-Bring Down The Government
DR9 -0.03 dB -10.92 dB 2:59 17-Poor Old Ireland
DR9 -0.03 dB -10.17 dB 3:31 18-Don't Ask Me
DR9 -0.03 dB -11.64 dB 3:21 19-O No Not Again
DR11 -0.03 dB -12.42 dB 1:05 20-Dingle Regatta
DR11 -0.03 dB -11.78 dB 2:52 21-Wake Up Little Sister
DR10 -0.03 dB -12.63 dB 3:00 22-Go Back
DR9 -0.03 dB -10.83 dB 3:10 23-Court In The Act
DR8 -0.03 dB -9.66 dB 2:34 24-Mandolin King
DR10 -0.03 dB -15.10 dB 6:09 25-Dingly Dell
––––––––––––––––––––––––––––––––––––––––

Number of tracks: 25
Official DR value: DR9

Samplerate: 44100 Hz
Channels: 2
Bits per sample: 16
Bitrate: 902 kbps
Codec: FLAC
================================================================================




Lindisfarne - The Charisma Years 1970-1973 (2011) 4CD Box Set

CD3: Live 1973


Tracklist:

Live 1973:

01. Intro (01:13)
02. Together Forever (03:06)
03. No Time To Lose (03:56)
04. January Song (05:04)
05. Meet Me On The Corner (03:41)
06. Alright On The Night (04:31)
07. Train In G Major (03:29)
08. Scotch Mist (02:43)
09. Lady Eleanor (06:01)
10. Knackers Yard Blues (04:54)
11. Fog On The Tyne (05:50)
12. We Can Swing Together (17:52)
13. Jackhammer Blues (05:40)
14. Clear White Light (11:08)


Exact Audio Copy V1.0 beta 1 from 15. November 2010

EAC extraction logfile from 10. April 2011, 20:52

Lindisfarne / The Charisma Years 1970-1973 CD3

Used drive : HL-DT-STDVDRAM GSA-H60N Adapter: 2 ID: 0

Read mode : Secure
Utilize accurate stream : Yes
Defeat audio cache : Yes
Make use of C2 pointers : No

Read offset correction : 667
Overread into Lead-In and Lead-Out : No
Fill up missing offset samples with silence : Yes
Delete leading and trailing silent blocks : No
Null samples used in CRC calculations : Yes
Used interface : Native Win32 interface for Win NT & 2000

Used output format : Internal WAV Routines
Sample format : 44.100 Hz; 16 Bit; Stereo


TOC of the extracted CD

Track | Start | Length | Start sector | End sector
––––––––––––––––––––––––––––-
1 | 0:00.00 | 1:13.22 | 0 | 5496
2 | 1:13.22 | 3:06.33 | 5497 | 19479
3 | 4:19.55 | 3:56.62 | 19480 | 37241
4 | 8:16.42 | 5:04.24 | 37242 | 60065
5 | 13:20.66 | 3:41.36 | 60066 | 76676
6 | 17:02.27 | 4:31.61 | 76677 | 97062
7 | 21:34.13 | 3:29.55 | 97063 | 112792
8 | 25:03.68 | 2:43.72 | 112793 | 125089
9 | 27:47.65 | 6:01.61 | 125090 | 152225
10 | 33:49.51 | 4:54.58 | 152226 | 174333
11 | 38:44.34 | 5:50.20 | 174334 | 200603
12 | 44:34.54 | 17:52.27 | 200604 | 281030
13 | 62:27.06 | 5:40.24 | 281031 | 306554
14 | 68:07.30 | 11:08.45 | 306555 | 356699


Range status and errors

Selected range

Filename C:\Documents and Settings\Администратор\Рабочий стол\Rip by ALLexxess\2011 Lindisfarne Charisma Years 1970-1973 (4CD Box Set EMI - Virgin Records)\CD3\Lindisfarne Charisma Years 1970-1973 CD3.wav

Peak level 99.5 %
Extraction speed 0.9 X
Range quality 100.0 %
Test CRC CA135E6A
Copy CRC CA135E6A
Copy OK

No errors occurred


AccurateRip summary

Track 1 accurately ripped (confidence 2) [577DD2A2]
Track 2 accurately ripped (confidence 2) [99E63A28]
Track 3 accurately ripped (confidence 2) [BB1920E9]
Track 4 accurately ripped (confidence 2) [E79F1EE3]
Track 5 accurately ripped (confidence 2) [ABA8805E]
Track 6 accurately ripped (confidence 2) [3A34165D]
Track 7 accurately ripped (confidence 2) [D1E63F75]
Track 8 accurately ripped (confidence 2) [446003F0]
Track 9 accurately ripped (confidence 2) [4CB663B9]
Track 10 accurately ripped (confidence 2) [7363FAFF]
Track 11 accurately ripped (confidence 2) [EEA072F6]
Track 12 accurately ripped (confidence 2) [73383B92]
Track 13 accurately ripped (confidence 2) [A77CA14D]
Track 14 accurately ripped (confidence 2) [43E2EF79]

All tracks accurately ripped

End of status report

==== Log checksum CF4CCB2E14F04B9B29B17FF9E04356E3A25F20DE053F2D811F9560D7EF9018DA ====

foobar2000 1.2 / Dynamic Range Meter 1.1.1
log date: 2016-06-02 22:45:22

––––––––––––––––––––––––––––––––––––––––
Analyzed: Lindisfarne / The Charisma Years 1970-1973 CD3
––––––––––––––––––––––––––––––––––––––––

DR Peak RMS Duration Track
––––––––––––––––––––––––––––––––––––––––
DR12 -0.98 dB -15.48 dB 1:13 01-Intro
DR7 -0.04 dB -9.07 dB 3:06 02-Together Forever
DR7 -0.04 dB -8.23 dB 3:57 03-No Time To Lose
DR8 -0.04 dB -11.41 dB 5:04 04-January Song
DR6 -0.04 dB -8.49 dB 3:41 05-Meet Me On The Corner
DR6 -0.04 dB -9.04 dB 4:32 06-Alright On The Night
DR8 -0.04 dB -10.79 dB 3:30 07-Train In G Major
DR9 -0.04 dB -10.65 dB 2:44 08-Scotch Mist
DR8 -0.04 dB -11.75 dB 6:02 09-Lady Eleanor
DR6 -0.04 dB -8.70 dB 4:55 10-Knackers Yard Blues
DR10 -0.04 dB -12.50 dB 5:50 11-Fog On The Tyne
DR8 -0.04 dB -10.97 dB 17:52 12-We Can Swing Together
DR6 -0.04 dB -8.18 dB 5:40 13-Jackhammer Blues
DR7 -0.04 dB -8.50 dB 11:09 14-Clear White Light
––––––––––––––––––––––––––––––––––––––––

Number of tracks: 14
Official DR value: DR8

Samplerate: 44100 Hz
Channels: 2
Bits per sample: 16
Bitrate: 867 kbps
Codec: FLAC
================================================================================




Lindisfarne - The Charisma Years 1970-1973 (2011) 4CD Box Set

CD4: Roll On, Ruby


Tracklist:

Roll On, Ruby (1973):

01. Taking Care Of Business (02:57)
02. North Country Boy (03:26)
03. Steppenwolf (05:01)
04. Nobody Loves You Anymore (03:05)
05. When The War Is Over (05:02)
06. Moonshine (03:56)
07. Lazy (03:22)
08. Roll On River (05:19)
09. Tow The Line (02:32)
10. Goodbye (04:46)

US Mixes (From Elektra EKS 75077):

11. Taking Care Of Business (US Mix) (02:58)
12. North Country Boy (US Mix) (03:22)
13. Roll On River (US Mix) (05:25)


Exact Audio Copy V1.0 beta 1 from 15. November 2010

EAC extraction logfile from 11. April 2011, 20:42

Lindisfarne / The Charisma Years 1970-1973 CD4

Used drive : HL-DT-STDVDRAM GSA-H60N Adapter: 2 ID: 0

Read mode : Secure
Utilize accurate stream : Yes
Defeat audio cache : Yes
Make use of C2 pointers : No

Read offset correction : 667
Overread into Lead-In and Lead-Out : No
Fill up missing offset samples with silence : Yes
Delete leading and trailing silent blocks : No
Null samples used in CRC calculations : Yes
Used interface : Native Win32 interface for Win NT & 2000

Used output format : Internal WAV Routines
Sample format : 44.100 Hz; 16 Bit; Stereo


TOC of the extracted CD

Track | Start | Length | Start sector | End sector
––––––––––––––––––––––––––––-
1 | 0:00.00 | 2:57.64 | 0 | 13338
2 | 2:57.64 | 3:26.67 | 13339 | 28855
3 | 6:24.56 | 5:01.51 | 28856 | 51481
4 | 11:26.32 | 3:05.69 | 51482 | 65425
5 | 14:32.26 | 5:02.33 | 65426 | 88108
6 | 19:34.59 | 3:56.13 | 88109 | 105821
7 | 23:30.72 | 3:22.26 | 105822 | 120997
8 | 26:53.23 | 5:19.58 | 120998 | 144980
9 | 32:13.06 | 2:32.39 | 144981 | 156419
10 | 34:45.45 | 4:46.15 | 156420 | 177884
11 | 39:31.60 | 2:58.29 | 177885 | 191263
12 | 42:30.14 | 3:22.34 | 191264 | 206447
13 | 45:52.48 | 5:25.27 | 206448 | 230849


Range status and errors

Selected range

Filename C:\Documents and Settings\Администратор\Рабочий стол\Rip by ALLexxess\2011 Lindisfarne Charisma Years 1970-1973 (4CD Box Set EMI - Virgin Records)\CD4\Lindisfarne Charisma Years 1970-1973 CD4.wav

Peak level 99.7 %
Extraction speed 0.6 X
Range quality 100.0 %
Test CRC 5F3A7C74
Copy CRC 5F3A7C74
Copy OK

No errors occurred


AccurateRip summary

Track 1 accurately ripped (confidence 2) [31C304E4]
Track 2 accurately ripped (confidence 2) [37206D8E]
Track 3 accurately ripped (confidence 2) [885169EA]
Track 4 accurately ripped (confidence 2) [632B24D8]
Track 5 accurately ripped (confidence 2) [57DBA8FD]
Track 6 accurately ripped (confidence 2) [A054FBFB]
Track 7 accurately ripped (confidence 2) [ABDDE8C7]
Track 8 accurately ripped (confidence 2) [6B762E0F]
Track 9 accurately ripped (confidence 2) [9EF1E983]
Track 10 accurately ripped (confidence 2) [B848D34F]
Track 11 accurately ripped (confidence 2) [B4DC52AE]
Track 12 accurately ripped (confidence 2) [4A19018C]
Track 13 accurately ripped (confidence 2) [2B6FFDB2]

All tracks accurately ripped

End of status report

==== Log checksum 3088226E54E16203935BD1F31D73FBB21A43A94B634E3146EE8064B51AF02496 ====





Lindisfarne - The Charisma Years 1970-1973 (2011) 4CD Box Set

All thanks to original releaser - ALLexxess

More interesting music in My Blog