Tags
Language
Tags

VA - Lights Out: san francisco (vinyl rip) (1972) {Blue Thumb}

Posted By: TestTickles
VA - Lights Out: san francisco (vinyl rip) (1972) {Blue Thumb}

VA - Lights Out: san francisco (vinyl rip) (1972) {Blue Thumb}
EAC Vinyl Rip | FLAC with CUE and LOG | scans | 379 mb
MP3 CBR 320 kbps | RAR | 142 mb
Genre: blues, jazz, soul, R&B, funk, gospel, world, country

Lights Out: san francisco is a 1972 compilation put together by San Francisco radio disc jockey Abe Keshishian, who was sometimes known as Abe Kesh but whose nickname made him famous in the Bay Area: Voco. He put together some of the hottest music of San Francisco and Oakland and shared it with people of northern California and the rest of the world. The album would introduce Sylvester and The Pointer Sisters to the planet. This was released by Blue Thumb Records and is a vinyl rip.

VA - Lights Out: san francisco (vinyl rip) (1972) {Blue Thumb}

01. John Lee Hooker - Lights Out
02. Clifford Coulter - Voco
03. Tower Of Power - Mahdi (The Expected One)
04. Tower Of Power - Cleo's Back
05. Tower Of Power featuring Lydia Pense, Lindy Tillery, Jo Baker & Rick Stevens - Loves To Do It
06. Tower Of Power featuring Lydia Pense - Dead
07. Sylvester & The Hot Band - Hey, That's No Way To Say Goodbye
08. Sylvester & The Hot Band (featuring The Pointer Sisters) - Why Was I Born
09. Fadil Shahin & The Casbah Band - Brother Antrainik
10. Fadil Shahin & The Casbah Band - Dina
11. Dan Hicks & His Hot Licks - 20/20 Vision

Exact Audio Copy V1.0 beta 6 from 9. April 2015

EAC extraction logfile from 24. May 2020, 11:54

Various Artists / Lights Out: san francisco

Used drive : TSSTcorpDVD+-RW TS-L633C Adapter: 1 ID: 0

Read mode : Secure
Utilize accurate stream : Yes
Defeat audio cache : Yes
Make use of C2 pointers : No

Read offset correction : 6
Overread into Lead-In and Lead-Out : No
Fill up missing offset samples with silence : Yes
Delete leading and trailing silent blocks : No
Null samples used in CRC calculations : Yes
Used interface : Native Win32 interface for Win NT & 2000
Gap handling : Appended to previous track

Used output format : Internal WAV Routines
Sample format : 44.100 Hz; 16 Bit; Stereo


TOC of the extracted CD

Track | Start | Length | Start sector | End sector
––––––––––––––––––––––––––––-
1 | 0:00.00 | 8:44.14 | 0 | 39313
2 | 8:44.14 | 7:45.62 | 39314 | 74250
3 | 16:30.01 | 6:33.12 | 74251 | 103737
4 | 23:03.13 | 4:50.11 | 103738 | 125498
5 | 27:53.24 | 4:19.70 | 125499 | 144993
6 | 32:13.19 | 7:11.36 | 144994 | 177354
7 | 39:24.55 | 4:18.70 | 177355 | 196774
8 | 43:43.50 | 5:35.20 | 196775 | 221919
9 | 49:18.70 | 5:52.38 | 221920 | 248357
10 | 55:11.33 | 6:12.66 | 248358 | 276323
11 | 61:24.24 | 2:55.55 | 276324 | 289503


Track 1

Filename C:\My Documents\My FLAC\VA - Lights Out, san francisco (1972) [FLAC] {Blue Thumb}\01 - John Lee Hooker - Lights Out.wav

Pre-gap length 0:00:02.00

Peak level 93.2 %
Extraction speed 2.8 X
Track quality 100.0 %
Test CRC 458FCA50
Copy CRC 458FCA50
Track not present in AccurateRip database
Copy OK

Track 2

Filename C:\My Documents\My FLAC\VA - Lights Out, san francisco (1972) [FLAC] {Blue Thumb}\02 - Clifford Coulter - Voco.wav

Peak level 100.0 %
Extraction speed 2.7 X
Track quality 100.0 %
Test CRC 8E574337
Copy CRC 8E574337
Track not present in AccurateRip database
Copy OK

Track 3

Filename C:\My Documents\My FLAC\VA - Lights Out, san francisco (1972) [FLAC] {Blue Thumb}\03 - Tower Of Power - Mahdi (The Expected One).wav

Peak level 79.4 %
Extraction speed 3.8 X
Track quality 100.0 %
Test CRC 433E9698
Copy CRC 433E9698
Track not present in AccurateRip database
Copy OK

Track 4

Filename C:\My Documents\My FLAC\VA - Lights Out, san francisco (1972) [FLAC] {Blue Thumb}\04 - Tower Of Power - Cleo's Back.wav

Peak level 83.9 %
Extraction speed 3.2 X
Track quality 99.9 %
Test CRC BC0B7538
Copy CRC BC0B7538
Track not present in AccurateRip database
Copy OK

Track 5

Filename C:\My Documents\My FLAC\VA - Lights Out, san francisco (1972) [FLAC] {Blue Thumb}\05 - Tower Of Power featuring Lydia Pense, Lindy Tillery, Jo Baker & Rick Stevens - Loves To Do It.wav

Peak level 100.0 %
Extraction speed 3.0 X
Track quality 99.9 %
Test CRC CE1DEDB9
Copy CRC CE1DEDB9
Track not present in AccurateRip database
Copy OK

Track 6

Filename C:\My Documents\My FLAC\VA - Lights Out, san francisco (1972) [FLAC] {Blue Thumb}\06 - Tower Of Power featuring Lydia Pense - Dead.wav

Peak level 89.4 %
Extraction speed 4.2 X
Track quality 100.0 %
Test CRC E54A26DD
Copy CRC E54A26DD
Track not present in AccurateRip database
Copy OK

Track 7

Filename C:\My Documents\My FLAC\VA - Lights Out, san francisco (1972) [FLAC] {Blue Thumb}\07 - Sylvester & The Hot Band - Hey, That's No Way To Say Goodbye.wav

Peak level 78.8 %
Extraction speed 3.7 X
Track quality 99.9 %
Test CRC 85BB1D84
Copy CRC 85BB1D84
Track not present in AccurateRip database
Copy OK

Track 8

Filename C:\My Documents\My FLAC\VA - Lights Out, san francisco (1972) [FLAC] {Blue Thumb}\08 - Sylvester & The Hot Band - Why Was I Born.wav

Peak level 100.0 %
Extraction speed 4.2 X
Track quality 100.0 %
Test CRC 2A1E7801
Copy CRC 2A1E7801
Track not present in AccurateRip database
Copy OK

Track 9

Filename C:\My Documents\My FLAC\VA - Lights Out, san francisco (1972) [FLAC] {Blue Thumb}\09 - Fadil Shahin & The Casbah Band - Brother Antrainik.wav

Peak level 96.3 %
Extraction speed 5.1 X
Track quality 100.0 %
Test CRC 1A7F2948
Copy CRC 1A7F2948
Track not present in AccurateRip database
Copy OK

Track 10

Filename C:\My Documents\My FLAC\VA - Lights Out, san francisco (1972) [FLAC] {Blue Thumb}\10 - Fadil Shahin & The Casbah Band - Dina.wav

Peak level 92.9 %
Extraction speed 5.4 X
Track quality 100.0 %
Test CRC F10919E8
Copy CRC F10919E8
Track not present in AccurateRip database
Copy OK

Track 11

Filename C:\My Documents\My FLAC\VA - Lights Out, san francisco (1972) [FLAC] {Blue Thumb}\11 - Dan Hicks & His Hot Licks - 20,20 Vision.wav

Peak level 99.7 %
Extraction speed 5.2 X
Track quality 100.0 %
Test CRC C4E91E72
Copy CRC C4E91E72
Track not present in AccurateRip database
Copy OK


None of the tracks are present in the AccurateRip database

No errors occurred

End of status report

–– CUETools DB Plugin V2.1.6

[CTDB TOCID: lpUlzdPRZJ3ax_Wmg7K0dK4FVsU-] disk not present in database
Submit result: lpUlzdPRZJ3ax_Wmg7K0dK4FVsU- has been uploaded


==== Log checksum F948DED29D516878EEBF23CCA6955528E9A171602507E84C352B4A25C635E551 ====


VA - Lights Out: san francisco (vinyl rip) (1972) {Blue Thumb}