Tags
Language
Tags

Love - Forever Changes (1967) [2018, 50th Anniversary Edition Box Set]

Posted By: v3122
Love - Forever Changes (1967) [2018, 50th Anniversary Edition Box Set]

Love - Forever Changes (1967)
EAC | Flac(Image) + Cue + Log & MP3 CBR 320Kbps
4CD | Rhino, R2 565276 / 603497862634 | ~ 1041 or 439 Mb | Scans(png) -> 699 Mb
DVD5: NTSC 16:9 (720x480) VBR | LPCM, 2 ch -> 1.89 Gb
Folk Rock / Psychedelic Rock

Love’s FOREVER CHANGES is the psychedelic folk-rock pioneers’ finest achievement. The set features a few firsts for the album, including the CD-debut of a remastered version made by its original co-producer and engineer Bruce Botnick, as well as the first-ever release of the mono version on CD. Also included are alternate mixes of the album, as well as a selection of rare and unreleased singles and studio outtakes. Botnick’s stereo remaster of the original album makes its vinyl debut on the LP included with this set. It was cut from high resolution digital audio by celebrated audio engineer Bernie Grundman. The DVD that accompanies the anniversary collection includes a 24/96 stereo mix of the album version of the original album remastered by Botnick. Also featured is “Your Mind And We Belong Together,” a rare promotional video directed by Elektra producer Mark Abramson that was originally released in 1968.

Love - Forever Changes (1967) [2018, 50th Anniversary Edition Box Set]

~ amazon
Love - Forever Changes (1967) [2018, 50th Anniversary Edition Box Set]

Love - Forever Changes (1967):

Love - Forever Changes (1967) [2018, 50th Anniversary Edition Box Set]

Tracklist CD1 Original Stereo Album:

01 Alone Again Or
02 A House Is Not A Motel
03 Andmoreagain
04 The Daily Planet
05 Old Man
06 The Red Telephone
07 Maybe The People Would Be The Times Or Between Clark And Hilldale
08 Live And Let Live
09 The Good Humor Man He Sees Everything Like This
10 Bummer In The Summer
11 You Set The Scene

Exact Audio Copy V1.3 from 2. September 2016

EAC extraction logfile from 29. April 2018, 11:13

Love / Forever Changes CD1 Stereo

Used drive : PLEXTOR BD-R PX-B950SA Adapter: 1 ID: 1

Read mode : Secure
Utilize accurate stream : Yes
Defeat audio cache : Yes
Make use of C2 pointers : No

Read offset correction : 6
Overread into Lead-In and Lead-Out : No
Fill up missing offset samples with silence : Yes
Delete leading and trailing silent blocks : No
Null samples used in CRC calculations : Yes
Used interface : Native Win32 interface for Win NT & 2000

Used output format : Internal WAV Routines
Sample format : 44.100 Hz; 16 Bit; Stereo


TOC of the extracted CD

Track | Start | Length | Start sector | End sector
––––––––––––––––––––––––––––-
1 | 0:00.00 | 3:17.21 | 0 | 14795
2 | 3:17.21 | 3:32.69 | 14796 | 30764
3 | 6:50.15 | 3:20.60 | 30765 | 45824
4 | 10:11.00 | 3:31.33 | 45825 | 61682
5 | 13:42.33 | 3:00.54 | 61683 | 75236
6 | 16:43.12 | 4:47.20 | 75237 | 96781
7 | 21:30.32 | 3:34.20 | 96782 | 112851
8 | 25:04.52 | 5:26.28 | 112852 | 137329
9 | 30:31.05 | 3:07.38 | 137330 | 151392
10 | 33:38.43 | 2:23.57 | 151393 | 162174
11 | 36:02.25 | 6:49.41 | 162175 | 192890


Range status and errors

Selected range

Filename C:\Users\Alex\Desktop\ALLexxess\Love\1967 Forever Changes (6-Disc Box Set Rhino Records 2018)\CD1\Love - Forever Changes CD1 Stereo.wav

Peak level 99.8 %
Extraction speed 6.6 X
Range quality 100.0 %
Test CRC 733A8B31
Copy CRC 733A8B31
Copy OK

No errors occurred


AccurateRip summary

Track 1 not present in database
Track 2 not present in database
Track 3 not present in database
Track 4 not present in database
Track 5 not present in database
Track 6 not present in database
Track 7 not present in database
Track 8 not present in database
Track 9 not present in database
Track 10 not present in database
Track 11 not present in database

None of the tracks are present in the AccurateRip database

End of status report

–– CUETools DB Plugin V2.1.6

[CTDB TOCID: 9na9n0AwhaeKS_HHMdvUzmrDHC0-] found
Submit result: 9na9n0AwhaeKS_HHMdvUzmrDHC0- has been confirmed
Track | CTDB Status
1 | (12/12) Accurately ripped
2 | (12/12) Accurately ripped
3 | (12/12) Accurately ripped
4 | (12/12) Accurately ripped
5 | (12/12) Accurately ripped
6 | (12/12) Accurately ripped
7 | (12/12) Accurately ripped
8 | (12/12) Accurately ripped
9 | (12/12) Accurately ripped
10 | (12/12) Accurately ripped
11 | (12/12) Accurately ripped


==== Log checksum 9542748EF723F5051D3460E2263DECDEEF65E8747574AC75018607E0677252C2 ====


[CUETools log; Date: 03.05.2018 13:16:34; Version: 2.1.5]
[CTDB TOCID: 9na9n0AwhaeKS_HHMdvUzmrDHC0-] found.
Track | CTDB Status
1 | (13/13) Accurately ripped
2 | (13/13) Accurately ripped
3 | (13/13) Accurately ripped
4 | (13/13) Accurately ripped
5 | (13/13) Accurately ripped
6 | (13/13) Accurately ripped
7 | (13/13) Accurately ripped
8 | (13/13) Accurately ripped
9 | (13/13) Accurately ripped
10 | (13/13) Accurately ripped
11 | (13/13) Accurately ripped
[AccurateRip ID: 00108181-0090dd48-740a0b0b] disk not present in database.

Track Peak [ CRC32 ] [W/O NULL] [ LOG ]
– 99,8 [733A8B31] [AF7D25C6] CRC32
01 97,8 [71CD988C] [915FB985]
02 99,8 [9F2A4B90] [0C0D51CE]
03 82,9 [CD04BC6E] [2112A620]
04 90,2 [5055B78D] [EB291066]
05 72,9 [C4886EAF] [E213623D]
06 63,9 [00E7EBF3] [0D25F92D]
07 83,8 [5C31677C] [EB88D077]
08 95,9 [79F7EDB7] [46CEECAF]
09 91,7 [F0F3F5B9] [BB3D77C2]
10 99,4 [7E5D4D56] [4DE29F07]
11 91,7 [BC17B6AC] [44089858]


Love - Forever Changes (1967) [2018, 50th Anniversary Edition Box Set]

Tracklist CD2 Original Mono Album:

01 Alone Again Or
02 A House Is Not A Motel
03 Andmoreagain
04 The Daily Planet
05 Old Man
06 The Red Telephone
07 Maybe The People Would Be The Times Or Between Clark And Hilldale
08 Live And Let Live
09 The Good Humor Man He Sees Everything Like This
10 Bummer In The Summer
11 You Set The Scene

Exact Audio Copy V1.3 from 2. September 2016

EAC extraction logfile from 29. April 2018, 10:30

Love / Forever Changes CD2 Mono

Used drive : PLEXTOR BD-R PX-B950SA Adapter: 1 ID: 1

Read mode : Secure
Utilize accurate stream : Yes
Defeat audio cache : Yes
Make use of C2 pointers : No

Read offset correction : 6
Overread into Lead-In and Lead-Out : No
Fill up missing offset samples with silence : Yes
Delete leading and trailing silent blocks : No
Null samples used in CRC calculations : Yes
Used interface : Native Win32 interface for Win NT & 2000

Used output format : Internal WAV Routines
Sample format : 44.100 Hz; 16 Bit; Stereo


TOC of the extracted CD

Track | Start | Length | Start sector | End sector
––––––––––––––––––––––––––––-
1 | 0:00.00 | 3:17.06 | 0 | 14780
2 | 3:17.06 | 3:26.05 | 14781 | 30235
3 | 6:43.11 | 3:20.60 | 30236 | 45295
4 | 10:03.71 | 3:22.42 | 45296 | 60487
5 | 13:26.38 | 3:00.59 | 60488 | 74046
6 | 16:27.22 | 4:45.70 | 74047 | 95491
7 | 21:13.17 | 3:34.24 | 95492 | 111565
8 | 24:47.41 | 5:25.02 | 111566 | 135942
9 | 30:12.43 | 3:06.26 | 135943 | 149918
10 | 33:18.69 | 2:23.65 | 149919 | 160708
11 | 35:42.59 | 6:51.25 | 160709 | 191558


Range status and errors

Selected range

Filename C:\Users\Alex\Desktop\ALLexxess\Love\1967 Forever Changes (6-Disc Box Set Rhino Records 2018)\CD2\Love - Forever Changes CD2 Mono.wav

Peak level 100.0 %
Extraction speed 6.5 X
Range quality 100.0 %
Test CRC 8DA7670C
Copy CRC 8DA7670C
Copy OK

No errors occurred


AccurateRip summary

Track 1 not present in database
Track 2 not present in database
Track 3 not present in database
Track 4 not present in database
Track 5 not present in database
Track 6 not present in database
Track 7 not present in database
Track 8 not present in database
Track 9 not present in database
Track 10 not present in database
Track 11 not present in database

None of the tracks are present in the AccurateRip database

End of status report

–– CUETools DB Plugin V2.1.6

[CTDB TOCID: d6IU5UJqi_VYtCMldFeR5AHPJLg-] found
Submit result: d6IU5UJqi_VYtCMldFeR5AHPJLg- has been confirmed
Track | CTDB Status
1 | (9/9) Accurately ripped
2 | (9/9) Accurately ripped
3 | (9/9) Accurately ripped
4 | (9/9) Accurately ripped
5 | (9/9) Accurately ripped
6 | (9/9) Accurately ripped
7 | (9/9) Accurately ripped
8 | (9/9) Accurately ripped
9 | (9/9) Accurately ripped
10 | (9/9) Accurately ripped
11 | (9/9) Accurately ripped


==== Log checksum 854CA9C173DAFC8763337702CFDBC6DD3B3E7B9BD4F0281F37FA468733B47B55 ====


[CUETools log; Date: 03.05.2018 13:17:06; Version: 2.1.5]
[CTDB TOCID: d6IU5UJqi_VYtCMldFeR5AHPJLg-] found.
Track | CTDB Status
1 | (10/10) Accurately ripped
2 | (10/10) Accurately ripped
3 | (10/10) Accurately ripped
4 | (10/10) Accurately ripped
5 | (10/10) Accurately ripped
6 | (10/10) Accurately ripped
7 | (10/10) Accurately ripped
8 | (10/10) Accurately ripped
9 | (10/10) Accurately ripped
10 | (10/10) Accurately ripped
11 | (10/10) Accurately ripped
[AccurateRip ID: 001053d4-008f683d-9309fa0b] disk not present in database.

Track Peak [ CRC32 ] [W/O NULL] [ LOG ]
– 100,0 [8DA7670C] [872E7360] CRC32
01 100,0 [4E69A072] [98FA1B45]
02 89,3 [E1221AD5] [D29C2C34]
03 95,1 [D96A3984] [0D759B7E]
04 99,5 [EA51A1AD] [C464CB2E]
05 75,7 [8F77A82F] [526BB661]
06 94,3 [8147A59A] [AE42D33E]
07 86,6 [B4C7786F] [F0E4F2F6]
08 100,0 [E029C938] [0D36D5C1]
09 86,5 [26750E8B] [13EAABF6]
10 95,7 [D16F61BE] [3BBE2FA9]
11 100,0 [82E050D2] [B23C4F11]


Love - Forever Changes (1967) [2018, 50th Anniversary Edition Box Set]

Tracklist CD3 Alternate Mix:

01 Alone Again Or
02 A House Is Not A Motel
03 Andmoreagain
04 The Daily Planet
05 Old Man
06 The Red Telephone
07 Maybe The People Would Be The Times Or Between Clark And Hilldale
08 Live And Let Live
09 The Good Humor Man He Sees Everything Like This
10 Bummer In The Summer
11 You Set The Scene
12 Wonder People (I Do Wonder) / Outtake

Exact Audio Copy V1.3 from 2. September 2016

EAC extraction logfile from 28. April 2018, 20:13

Love / Forever Changes CD3 Alternate Mix

Used drive : PLEXTOR BD-R PX-B950SA Adapter: 1 ID: 1

Read mode : Secure
Utilize accurate stream : Yes
Defeat audio cache : Yes
Make use of C2 pointers : No

Read offset correction : 6
Overread into Lead-In and Lead-Out : No
Fill up missing offset samples with silence : Yes
Delete leading and trailing silent blocks : No
Null samples used in CRC calculations : Yes
Used interface : Native Win32 interface for Win NT & 2000

Used output format : Internal WAV Routines
Sample format : 44.100 Hz; 16 Bit; Stereo


TOC of the extracted CD

Track | Start | Length | Start sector | End sector
––––––––––––––––––––––––––––-
1 | 0:00.00 | 3:15.15 | 0 | 14639
2 | 3:15.15 | 3:33.25 | 14640 | 30639
3 | 6:48.40 | 3:24.57 | 30640 | 45996
4 | 10:13.22 | 3:40.43 | 45997 | 62539
5 | 13:53.65 | 3:07.47 | 62540 | 76611
6 | 17:01.37 | 5:22.61 | 76612 | 100822
7 | 22:24.23 | 3:38.49 | 100823 | 117221
8 | 26:02.72 | 5:37.60 | 117222 | 142556
9 | 31:40.57 | 3:11.54 | 142557 | 156935
10 | 34:52.36 | 2:30.06 | 156936 | 168191
11 | 37:22.42 | 7:03.66 | 168192 | 199982
12 | 44:26.33 | 3:23.17 | 199983 | 215224


Range status and errors

Selected range

Filename C:\Users\Alex\Desktop\ALLexxess\Love\1967 Forever Changes (6-Disc Box Set Rhino Records 2018)\CD3\Love - Forever Changes CD3 Alternate Mix.wav

Peak level 95.9 %
Extraction speed 6.8 X
Range quality 100.0 %
Test CRC 3921C348
Copy CRC 3921C348
Copy OK

No errors occurred


AccurateRip summary

Track 1 not present in database
Track 2 not present in database
Track 3 not present in database
Track 4 not present in database
Track 5 not present in database
Track 6 not present in database
Track 7 not present in database
Track 8 not present in database
Track 9 not present in database
Track 10 not present in database
Track 11 not present in database
Track 12 not present in database

None of the tracks are present in the AccurateRip database

End of status report

–– CUETools DB Plugin V2.1.6

[CTDB TOCID: y63istxTUPEmaiufJwSqZWTgCBk-] found
Submit result: y63istxTUPEmaiufJwSqZWTgCBk- has been confirmed
Track | CTDB Status
1 | (8/8) Accurately ripped
2 | (8/8) Accurately ripped
3 | (8/8) Accurately ripped
4 | (8/8) Accurately ripped
5 | (8/8) Accurately ripped
6 | (8/8) Accurately ripped
7 | (8/8) Accurately ripped
8 | (8/8) Accurately ripped
9 | (8/8) Accurately ripped
10 | (8/8) Accurately ripped
11 | (8/8) Accurately ripped
12 | (8/8) Accurately ripped


==== Log checksum 91FFB8CF533F69B5B2B259F670CB7404A53B9A9AA251B82C179335B70608A3C3 ====


[CUETools log; Date: 03.05.2018 13:17:34; Version: 2.1.5]
[CTDB TOCID: y63istxTUPEmaiufJwSqZWTgCBk-] found.
Track | CTDB Status
1 | (9/9) Accurately ripped
2 | (9/9) Accurately ripped
3 | (9/9) Accurately ripped
4 | (9/9) Accurately ripped
5 | (9/9) Accurately ripped
6 | (9/9) Accurately ripped
7 | (9/9) Accurately ripped
8 | (9/9) Accurately ripped
9 | (9/9) Accurately ripped
10 | (9/9) Accurately ripped
11 | (9/9) Accurately ripped
12 | (9/9) Accurately ripped
[AccurateRip ID: 001450a7-00c095f8-950b350c] disk not present in database.

Track Peak [ CRC32 ] [W/O NULL] [ LOG ]
– 95,9 [3921C348] [AA5E6785] CRC32
01 91,7 [80F6F7C1] [8D4CBF46]
02 94,2 [D642414D] [187C36F9]
03 86,2 [968708EE] [440A1416]
04 88,4 [B01599CD] [191CBFDA]
05 71,1 [0D80C218] [39B27710]
06 88,8 [527EAD18] [91C3D14C]
07 91,6 [CFEFBEA2] [D82C450C]
08 95,9 [246F25AA] [AA9B3A6C]
09 93,8 [56ECBA37] [2DB5316A]
10 93,7 [7DDF63F2] [514BDD64]
11 95,5 [51A64A63] [0D0C75F2]
12 83,9 [27582005] [8E4BC9E9]


Love - Forever Changes (1967) [2018, 50th Anniversary Edition Box Set]

Tracklist CD4 Singles And Outtakes:

01 Wonder People (I Do Wonder) / Outtake - Original Mix
02 Alone Again Or / Single Version
03 A House Is Not A Motel / Backing Track
04 Hummingbirds / Demo
05 A House Is Not A Motel / Backing Track
06 Andmoreagain / Alternate Electric Backing Track
07 The Red Telephone / Tracking Sessions Highlights
08 Wooly Bully / Outtake
09 Live And Let Live / Backing Track
10 Wonder People (I Do Wonder) / Outtake - Backing Track
11 Your Mind And We Belong Together / Tracking Sessions Highlights
12 Your Mind And We Belong Together
13 Laughing Stock
14 Alone Again Or / Mono Single Remix

Exact Audio Copy V1.3 from 2. September 2016

EAC extraction logfile from 28. April 2018, 19:39

Love / Forever Changes CD4

Used drive : PLEXTOR BD-R PX-B950SA Adapter: 1 ID: 1

Read mode : Secure
Utilize accurate stream : Yes
Defeat audio cache : Yes
Make use of C2 pointers : No

Read offset correction : 6
Overread into Lead-In and Lead-Out : No
Fill up missing offset samples with silence : Yes
Delete leading and trailing silent blocks : No
Null samples used in CRC calculations : Yes
Used interface : Native Win32 interface for Win NT & 2000

Used output format : Internal WAV Routines
Sample format : 44.100 Hz; 16 Bit; Stereo


TOC of the extracted CD

Track | Start | Length | Start sector | End sector
––––––––––––––––––––––––––––-
1 | 0:00.00 | 3:20.37 | 0 | 15036
2 | 3:20.37 | 2:48.49 | 15037 | 27685
3 | 6:09.11 | 3:22.25 | 27686 | 42860
4 | 9:31.36 | 2:41.42 | 42861 | 54977
5 | 12:13.03 | 3:06.69 | 54978 | 68996
6 | 15:19.72 | 3:06.37 | 68997 | 82983
7 | 18:26.34 | 2:07.31 | 82984 | 92539
8 | 20:33.65 | 1:25.44 | 92540 | 98958
9 | 21:59.34 | 5:37.66 | 98959 | 124299
10 | 27:37.25 | 3:30.15 | 124300 | 140064
11 | 31:07.40 | 8:16.55 | 140065 | 177319
12 | 39:24.20 | 4:27.49 | 177320 | 197393
13 | 43:51.69 | 2:34.37 | 197394 | 208980
14 | 46:26.31 | 2:51.33 | 208981 | 221838


Range status and errors

Selected range

Filename C:\Users\Alex\Desktop\ALLexxess\Love\1967 Forever Changes (6-Disc Box Set Rhino Records 2018)\CD4\Love - Forever Changes CD4.wav

Peak level 97.9 %
Extraction speed 6.9 X
Range quality 100.0 %
Test CRC 2B2B33A8
Copy CRC 2B2B33A8
Copy OK

No errors occurred


AccurateRip summary

Track 1 not present in database
Track 2 not present in database
Track 3 not present in database
Track 4 not present in database
Track 5 not present in database
Track 6 not present in database
Track 7 not present in database
Track 8 not present in database
Track 9 not present in database
Track 10 not present in database
Track 11 not present in database
Track 12 not present in database
Track 13 not present in database
Track 14 not present in database

None of the tracks are present in the AccurateRip database

End of status report

–– CUETools DB Plugin V2.1.6

[CTDB TOCID: psjWmXQkK7vsbIlUJk7uHO.y5eQ-] found
Submit result: psjWmXQkK7vsbIlUJk7uHO.y5eQ- has been confirmed
Track | CTDB Status
1 | (8/8) Accurately ripped
2 | (8/8) Accurately ripped
3 | (8/8) Accurately ripped
4 | (8/8) Accurately ripped
5 | (8/8) Accurately ripped
6 | (8/8) Accurately ripped
7 | (8/8) Accurately ripped
8 | (8/8) Accurately ripped
9 | (8/8) Accurately ripped
10 | (8/8) Accurately ripped
11 | (8/8) Accurately ripped
12 | (8/8) Accurately ripped
13 | (8/8) Accurately ripped
14 | (8/8) Accurately ripped


==== Log checksum 1A971726E1056FBF3C83294E21B8A2DFBF6DF320BFDEA5A7739AF141629A0647 ====


[CUETools log; Date: 03.05.2018 13:18:04; Version: 2.1.5]
[CTDB TOCID: psjWmXQkK7vsbIlUJk7uHO.y5eQ-] found.
Track | CTDB Status
1 | (9/9) Accurately ripped
2 | (9/9) Accurately ripped
3 | (9/9) Accurately ripped
4 | (9/9) Accurately ripped
5 | (9/9) Accurately ripped
6 | (9/9) Accurately ripped
7 | (9/9) Accurately ripped
8 | (9/9) Accurately ripped
9 | (9/9) Accurately ripped
10 | (9/9) Accurately ripped
11 | (9/9) Accurately ripped
12 | (9/9) Accurately ripped
13 | (9/9) Accurately ripped
14 | (9/9) Accurately ripped
[AccurateRip ID: 0017b615-01021f3c-bc0b8d0e] disk not present in database.

Track Peak [ CRC32 ] [W/O NULL] [ LOG ]
– 97,9 [2B2B33A8] [3FF51EFE] CRC32
01 97,9 [60A3AF88] [9B54CD17]
02 84,0 [4ADFF25A] [81FE3A02]
03 80,3 [640C1520] [14BA2B84]
04 74,9 [6596AF17] [9F0FA289]
05 87,8 [3E6DF161] [49FE619B]
06 90,2 [56C6524F] [4B93F8F2]
07 65,4 [4E3A9D2D] [D6EB4BCE]
08 80,2 [FBDEB15E] [55EACC3F]
09 90,0 [8F4A0C02] [D0534B2E]
10 85,6 [6F5C8ADC] [3C7D7968]
11 93,4 [CFF493B5] [F8E02C6C]
12 96,0 [53BF6BB8] [1E718E1D]
13 93,4 [AB857EF2] [913449B5]
14 96,0 [AC145636] [C6BC9650]


Love - Forever Changes (1967) [2018, 50th Anniversary Edition Box Set]

Tracklist DVD:

24/96 Stereo Album:
01 Alone Again Or
02 A House Is Not A Motel
03 Andmoreagain
04 The Daily Planet
05 Old Man
06 The Red Telephone
07 Maybe The People Would Be The Times Or Between Clark And Hilldale
08 Live And Let Live
09 The Good Humor Man He Sees Everything Like This
10 Bummer In The Summer
11 You Set The Scene

Video:
12 Your Mind And We Belong Together

Title: Love 1967 - Forever Changes - DVD
Size: 1.76 Gb ( 1 842 770,00 KBytes ) - DVD-5
Enabled regions: 1, 2, 3, 4, 5, 6, 7, 8

VTS_01 :
Play Length: 00:42:43
Video: NTSC 16:9 (720x480) VBR, Auto Letterboxed
Audio:
Not specified (LinearPCM, 2 ch)
Subtitles:
Not specified

VTS_02 :
Play Length: 00:04:48
Video: NTSC 16:9 (720x480) VBR, Auto Letterboxed
Audio:
Not specified (Dolby AC3, 2 ch)


Love - Forever Changes (1967) [2018, 50th Anniversary Edition Box Set]

Love - Forever Changes (1967) [2018, 50th Anniversary Edition Box Set]

Love - Forever Changes (1967) [2018, 50th Anniversary Edition Box Set]

Love - Forever Changes (1967) [2018, 50th Anniversary Edition Box Set]

All thanks go to ALLexxess

Love in my Blog

Download Love - Forever Changes (1967):