Tags
Language
Tags

Manic Street Preachers - Forever Delayed: The Greatest Hits (2002) [2CD + DVD-9]

Posted By:
Manic Street Preachers - Forever Delayed: The Greatest Hits (2002) [2CD + DVD-9]

Manic Street Preachers - Forever Delayed: The Greatest Hits (2002)
EAC | Flac(Image) + Cue + Log & MP3 CBR 320Kbps
2CD | Epic, 509551 9 | ~ 1030 or 368 Mb | Artwork(jpg) -> 12 Mb
DVD-9: PAL 4:3 (720x576) VBR / Dolby AC3, 2 ch
Britpop, House, Breaks, Big Beat, Alternative Rock, Indie Rock

Manic Street Preachers have always been a band of very specific charms, something that has not translated outside of the U.K. particularly well. Although it boasts a generous 20 tracks, the 2002 compilation Forever Delayed isn't likely to change that situation, even if it has the lion's share of their big singles, since a band devoted to sloganeering doesn't play outside of their province, or era, without some knowledge of their context. Plus, it's bewilderingly sequenced – not chronologically, not as a set list, not with the hits loaded toward the front but as if you had all six albums on shuffle play on your CD carousel – this disc careens between its 20 songs, occasionally gaining momentum through its juxtapositions (the opening one-two punch of "A Design for Life" and "Motorcycle Emptiness" captures the essence of the two phases of the band) but more often illustrating the extreme difference in the band during the Richey James Edwards and post-Richey eras. And though they certainly don't avoid Richey – his face is on the cover, he provides the subtext of the band's entire career – they do submerge the unsettling The Holy Bible, a record as nakedly honest and disturbing as In Utero, by just including one song, "Faster," from what is surely their best album. True, its music is too dark to sit comfortably next to the later hits, but without it, Forever Delayed is missing the pivotal point in the Manics' career, especially since Richey was at the heart of their music and worldview, even after his disappearance in 1995. His descent into despair is necessary to understanding the band, and it's what fuels their two great albums: the harrowing The Holy Bible and the triumph of Everything Must Go. Though Forever Delayed contains many excellent songs not on either, the context is so jumbled the music is somewhat diluted and novices would be better to hear either of those albums first.

by Stephen Thomas Erlewine, allmusic
Manic Street Preachers - Forever Delayed: The Greatest Hits (2002):

Manic Street Preachers - Forever Delayed: The Greatest Hits (2002) [2CD + DVD-9]

Tracklist CD1. The Greatest Hits:

01. A Design For Life
02. Motorcycle Emptiness
03. If You Tolerate This Your Children Will Be Next
04. La Tristesse Durera (Scream To A Sigh)
05. There By The Grace Of God
06. You Love Us
07. Australia
08. You Stole The Sun From My Heart
09. Kevin Carter
10. Tsunami
11. The Masses Against The Classes
12. From Despair To Where
13. Door To The River
14. Everything Must Go
15. Faster
16. Little Baby Nothing
17. Suicide Is Painless (Theme From MASH)
18. So Why So Sad
19. The Everlasting
20. Motown Junk

Exact Audio Copy V0.99 prebeta 5 from 4. May 2009

Отчёт EAC об извлечении, выполненном 1. ноября 2011, 18:31

Manic Street Preachers / Forever Delayed - The Greatest Hits - CD 1

Дисковод: Optiarc DVD RW AD-5240S Adapter: 3 ID: 1

Режим чтения : Достоверность
Использование точного потока : Да
Отключение кэша аудио : Да
Использование указателей C2 : Нет

Коррекция смещения при чтении : 48
Способность читать области Lead-in и Lead-out : Нет
Заполнение пропущенных сэмплов тишиной : Да
Удаление блоков с тишиной в начале и конце : Нет
При вычислениях CRC использовались нулевые сэмплы : Да
Интерфейс : Встроенный Win32-интерфейс для Win NT/2000
Обработка зазоров : Добавлено к предыдущему треку

Выходной формат : Пользовательский кодировщик
Выбранный битрейт : 768 kBit/s
Качество : Высокий
Добавление ID3-тэга : Нет
Утилита сжатия : L:\программы\Exact Audio Copy\FLAC\FLAC.EXE
Дополнительные параметры : -6 -V -T "ARTIST=%a" -T "TITLE=%t" -T "ALBUM=%g" -T "DATE=%y" -T "TRACKNUMBER=%n" -T "GENRE=%m" -T "COMMENT=%e" %s -o %d


TOC извлечённого CD

Трек | Старт | Длительность | Начальный сектор | Конечный сектор
––––––––––––––––––––––––––––––––––-
1 | 0:00.00 | 4:21.31 | 0 | 19605
2 | 4:21.31 | 5:06.62 | 19606 | 42617
3 | 9:28.18 | 4:51.73 | 42618 | 64515
4 | 14:20.16 | 4:07.03 | 64516 | 83043
5 | 18:27.19 | 3:48.15 | 83044 | 100158
6 | 22:15.34 | 3:15.00 | 100159 | 114783
7 | 25:30.34 | 3:42.49 | 114784 | 131482
8 | 29:13.08 | 4:22.29 | 131483 | 151161
9 | 33:35.37 | 3:25.12 | 151162 | 166548
10 | 37:00.49 | 3:49.39 | 166549 | 183762
11 | 40:50.13 | 3:23.72 | 183763 | 199059
12 | 44:14.10 | 3:21.57 | 199060 | 214191
13 | 47:35.67 | 4:41.62 | 214192 | 235328
14 | 52:17.54 | 3:07.50 | 235329 | 249403
15 | 55:25.29 | 3:54.26 | 249404 | 266979
16 | 59:19.55 | 4:12.40 | 266980 | 285919
17 | 63:32.20 | 3:29.07 | 285920 | 301601
18 | 67:01.27 | 3:46.35 | 301602 | 318586
19 | 70:47.62 | 4:07.52 | 318587 | 337163
20 | 74:55.39 | 3:59.24 | 337164 | 355112


Трек 1

Имя файла L:\Новая папка\01. Manic Street Preachers - A Design For Life.wav

Длина предзазора 0:00:02.00

Пиковый уровень 99.9 %
Качество трека 100.0 %
CRC теста B0D01CC8
CRC копии B0D01CC8
Точное извлечение (достоверность 77) [889DA507]
Копирование… OK

Трек 2

Имя файла L:\Новая папка\02. Manic Street Preachers - Motorcycle Emptiness.wav

Длина предзазора 0:00:04.28

Пиковый уровень 100.0 %
Качество трека 99.9 %
CRC теста 2870D15F
CRC копии 2870D15F
Точное извлечение (достоверность 79) [20C7649F]
Копирование… OK

Трек 3

Имя файла L:\Новая папка\03. Manic Street Preachers - If You Tolerate This Your Children Will Be Next.wav

Длина предзазора 0:00:01.09

Пиковый уровень 99.8 %
Качество трека 100.0 %
CRC теста 07F44841
CRC копии 07F44841
Точность не определена (достоверность 78) [2F870871], AccurateRip вернул [1D1AA90B]
Копирование… OK

Трек 4

Имя файла L:\Новая папка\04. Manic Street Preachers - La Tristesse Durera (Scream To A Sigh).wav

Длина предзазора 0:00:00.54

Пиковый уровень 99.9 %
Качество трека 99.9 %
CRC теста 5B7D7A96
CRC копии 5B7D7A96
Точное извлечение (достоверность 77) [0B3493CA]
Копирование… OK

Трек 5

Имя файла L:\Новая папка\05. Manic Street Preachers - There By The Grace Of God.wav

Длина предзазора 0:00:00.62

Пиковый уровень 99.8 %
Качество трека 100.0 %
CRC теста 11DBEEA1
CRC копии 11DBEEA1
Точность не определена (достоверность 78) [F59C4D63], AccurateRip вернул [F7FBA12A]
Копирование… OK

Трек 6

Имя файла L:\Новая папка\06. Manic Street Preachers - You Love Us.wav

Длина предзазора 0:00:00.42

Пиковый уровень 99.9 %
Качество трека 100.0 %
CRC теста 0AD4F9A9
CRC копии 0AD4F9A9
Точность не определена (достоверность 79) [4A7A1F54], AccurateRip вернул [69144018]
Копирование… OK

Трек 7

Имя файла L:\Новая папка\07. Manic Street Preachers - Australia.wav

Пиковый уровень 99.9 %
Качество трека 100.0 %
CRC теста 4B394009
CRC копии 4B394009
Точное извлечение (достоверность 78) [BCE876C3]
Копирование… OK

Трек 8

Имя файла L:\Новая папка\08. Manic Street Preachers - You Stole The Sun From My Heart.wav

Длина предзазора 0:00:00.39

Пиковый уровень 99.9 %
Качество трека 100.0 %
CRC теста 0817E04F
CRC копии 0817E04F
Точное извлечение (достоверность 79) [11B1598C]
Копирование… OK

Трек 9

Имя файла L:\Новая папка\09. Manic Street Preachers - Kevin Carter.wav

Длина предзазора 0:00:00.12

Пиковый уровень 99.7 %
Качество трека 100.0 %
CRC теста AA464F70
CRC копии AA464F70
Точность не определена (достоверность 77) [FAF2F075], AccurateRip вернул [5CD34F26]
Копирование… OK

Трек 10

Имя файла L:\Новая папка\10. Manic Street Preachers - Tsunami.wav

Длина предзазора 0:00:00.46

Пиковый уровень 99.9 %
Качество трека 100.0 %
CRC теста 7285296D
CRC копии 7285296D
Точность не определена (достоверность 77) [A4D6FD26], AccurateRip вернул [F3545B62]
Копирование… OK

Трек 11

Имя файла L:\Новая папка\11. Manic Street Preachers - The Masses Against The Classes.wav

Длина предзазора 0:00:00.31

Пиковый уровень 99.9 %
Качество трека 100.0 %
CRC теста 7F2A631C
CRC копии 7F2A631C
Точное извлечение (достоверность 78) [A18EFBAB]
Копирование… OK

Трек 12

Имя файла L:\Новая папка\12. Manic Street Preachers - From Despair To Where.wav

Длина предзазора 0:00:01.64

Пиковый уровень 99.9 %
Качество трека 100.0 %
CRC теста 48D31C73
CRC копии 48D31C73
Точность не определена (достоверность 78) [6AC6309E], AccurateRip вернул [F8654F47]
Копирование… OK

Трек 13

Имя файла L:\Новая папка\13. Manic Street Preachers - Door To The River.wav

Длина предзазора 0:00:01.15

Пиковый уровень 99.9 %
Качество трека 100.0 %
CRC теста 24697EE0
CRC копии 24697EE0
Точность не определена (достоверность 79) [CA208488], AccurateRip вернул [A2879611]
Копирование… OK

Трек 14

Имя файла L:\Новая папка\14. Manic Street Preachers - Everything Must Go.wav

Длина предзазора 0:00:00.74

Пиковый уровень 99.9 %
Качество трека 100.0 %
CRC теста F1488F8F
CRC копии F1488F8F
Точное извлечение (достоверность 78) [A422E360]
Копирование… OK

Трек 15

Имя файла L:\Новая папка\15. Manic Street Preachers - Faster.wav

Длина предзазора 0:00:01.15

Пиковый уровень 99.9 %
Качество трека 100.0 %
CRC теста D9490690
CRC копии D9490690
Точность не определена (достоверность 78) [2F9E91D2], AccurateRip вернул [47E9B20D]
Копирование… OK

Трек 16

Имя файла L:\Новая папка\16. Manic Street Preachers - Little Baby Nothing.wav

Длина предзазора 0:00:00.52

Пиковый уровень 100.0 %
Качество трека 100.0 %
CRC теста 103E8C7D
CRC копии 103E8C7D
Точное извлечение (достоверность 77) [22BF45B7]
Копирование… OK

Трек 17

Имя файла L:\Новая папка\17. Manic Street Preachers - Suicide Is Painless (Theme From MASH).wav

Длина предзазора 0:00:00.33

Пиковый уровень 99.5 %
Качество трека 100.0 %
CRC теста 36F03A6C
CRC копии 36F03A6C
Точное извлечение (достоверность 79) [E72F26A2]
Копирование… OK

Трек 18

Имя файла L:\Новая папка\18. Manic Street Preachers - So Why So Sad.wav

Длина предзазора 0:00:00.55

Пиковый уровень 99.9 %
Качество трека 99.9 %
CRC теста F1127AAB
CRC копии F1127AAB
Точное извлечение (достоверность 76) [058446D3]
Копирование… OK

Трек 19

Имя файла L:\Новая папка\19. Manic Street Preachers - The Everlasting.wav

Длина предзазора 0:00:00.32

Пиковый уровень 99.9 %
Качество трека 99.9 %
CRC теста B82B78C7
CRC копии B82B78C7
Точное извлечение (достоверность 78) [4B842EB2]
Копирование… OK

Трек 20

Имя файла L:\Новая папка\20. Manic Street Preachers - Motown Junk.wav

Длина предзазора 0:02:01.61

Пиковый уровень 99.9 %
Качество трека 100.0 %
CRC теста FF510302
CRC копии FF510302
Точное извлечение (достоверность 79) [5A904584]
Копирование… OK


12 трек(и) скопированы точно
8 трек(и) не удалось проверить на точность

Некоторые треки не прошли проверку на точность

Ошибок не произошло

Конец отчёта


[CUETools log; Date: 04.06.2021 17:15:12; Version: 2.1.4]
[AccurateRip ID: 003a4deb-034cd8a2-1a127e14] found.
Track [ CRC | V2 ] Status
01 [889da507|1d31b33a] (083+101/698) Accurately ripped
02 [20c7649f|4828f037] (086+102/699) Accurately ripped
03 [2f870871|ea58552a] (000+003/709) Accurately ripped
04 [0b3493ca|84f7fb40] (083+100/695) Accurately ripped
05 [f59c4d63|ca6c1656] (000+003/707) Accurately ripped
06 [4a7a1f54|2f012a33] (000+003/698) Accurately ripped
07 [bce876c3|f3c9f281] (084+100/696) Accurately ripped
08 [11b1598c|481c6e14] (085+102/700) Accurately ripped
09 [faf2f075|95b0c2ce] (000+003/698) Accurately ripped
10 [a4d6fd26|f197c150] (000+003/699) Accurately ripped
11 [a18efbab|e0b923db] (084+101/701) Accurately ripped
12 [6ac6309e|40bfb9d9] (000+003/694) Accurately ripped
13 [ca208488|14acbeed] (000+003/702) Accurately ripped
14 [a422e360|bf2986d3] (084+101/696) Accurately ripped
15 [2f9e91d2|18106e3a] (000+003/696) Accurately ripped
16 [22bf45b7|e7360074] (083+100/694) Accurately ripped
17 [e72f26a2|b88b2988] (086+101/705) Accurately ripped
18 [058446d3|70389257] (082+101/694) Accurately ripped
19 [4b842eb2|2a849b51] (084+100/694) Accurately ripped
20 [5a904584|069b1831] (086+096/690) Accurately ripped
Offsetted by -1292:
01 [994d6723] (008/698) Accurately ripped
02 [39feb1bf] (008/699) Accurately ripped
03 [c750b44d] (000/709) No match (V2 was not tested)
04 [2a923c12] (008/695) Accurately ripped
05 [677f72e3] (000/707) No match (V2 was not tested)
06 [48536fa2] (000/698) No match (V2 was not tested)
07 [e1d1d87d] (008/696) Accurately ripped
08 [50e50a10] (008/700) Accurately ripped
09 [c743b9a5] (000/698) No match (V2 was not tested)
10 [94668416] (000/699) No match (V2 was not tested)
11 [b02042fb] (007/701) Accurately ripped
12 [ff8f19e6] (000/694) No match (V2 was not tested)
13 [8ffa0978] (000/702) No match (V2 was not tested)
14 [f7a71c48] (007/696) Accurately ripped
15 [b8c1c3de] (000/696) No match (V2 was not tested)
16 [997475eb] (007/694) Accurately ripped
17 [ee1689b6] (008/705) Accurately ripped
18 [1fb06adf] (008/694) Accurately ripped
19 [f8d2c352] (008/694) Accurately ripped
20 [ee6088fc] (008/690) Accurately ripped
Offsetted by -646:
01 [10f58615] (003/698) Accurately ripped
02 [ad630b2f] (003/699) Accurately ripped
03 [fb6bde5f] (000/709) No match (V2 was not tested)
04 [1ae367ee] (003/695) Accurately ripped
05 [ae8de023] (000/707) No match (V2 was not tested)
06 [3c63f72e] (000/698) No match (V2 was not tested)
07 [14ae2939] (003/696) Accurately ripped
08 [314b31ce] (003/700) Accurately ripped
09 [e11b550d] (000/698) No match (V2 was not tested)
10 [1c9ec09e] (000/699) No match (V2 was not tested)
11 [a8d79f53] (003/701) Accurately ripped
12 [b52aa542] (000/694) No match (V2 was not tested)
13 [2d0d4700] (000/702) No match (V2 was not tested)
14 [cde4ffd4] (003/696) Accurately ripped
15 [74302ad8] (000/696) No match (V2 was not tested)
16 [5e19ddd1] (003/694) Accurately ripped
17 [6aa2d82c] (003/705) Accurately ripped
18 [129a58d9] (003/694) Accurately ripped
19 [222b7902] (003/694) Accurately ripped
20 [a4786740] (003/690) Accurately ripped
Offsetted by -243:
01 [b5f5637e] (013/698) Accurately ripped
02 [d6110067] (013/699) Accurately ripped
03 [c38e4058] (000/709) No match (V2 was not tested)
04 [144663fc] (013/695) Accurately ripped
05 [cc9d9cc3] (000/707) No match (V2 was not tested)
06 [d2e49c70] (000/698) No match (V2 was not tested)
07 [c40a95c9] (013/696) Accurately ripped
08 [459ac63d] (014/700) Accurately ripped
09 [54b21581] (000/698) No match (V2 was not tested)
10 [35c2a0a2] (000/699) No match (V2 was not tested)
11 [3b486cbf] (013/701) Accurately ripped
12 [9e237510] (000/694) No match (V2 was not tested)
13 [8d0f5f84] (000/702) No match (V2 was not tested)
14 [a9efde3a] (013/696) Accurately ripped
15 [ef0f3205] (000/696) No match (V2 was not tested)
16 [4c186f14] (012/694) Accurately ripped
17 [fdaf1437] (012/705) Accurately ripped
18 [b7382b86] (011/694) Accurately ripped
19 [ae17ea5a] (012/694) Accurately ripped
20 [34fa3742] (011/690) Accurately ripped
Offsetted by -29:
01 [28e42a60] (041/698) Accurately ripped
02 [8bbf5257] (042/699) Accurately ripped
03 [fed2b15a] (000/709) No match (V2 was not tested)
04 [312901f8] (042/695) Accurately ripped
05 [cacad003] (000/707) No match (V2 was not tested)
06 [5f2daab0] (000/698) No match (V2 was not tested)
07 [8e0988f9] (041/696) Accurately ripped
08 [4967048b] (042/700) Accurately ripped
09 [2a882ba9] (000/698) No match (V2 was not tested)
10 [bf9dc6ea] (000/699) No match (V2 was not tested)
11 [eff42057] (041/701) Accurately ripped
12 [20d6968c] (000/694) No match (V2 was not tested)
13 [4bcb3ecc] (000/702) No match (V2 was not tested)
14 [519a2a66] (041/696) Accurately ripped
15 [8d0ceeaf] (000/696) No match (V2 was not tested)
16 [04ea924a] (041/694) Accurately ripped
17 [3074257d] (042/705) Accurately ripped
18 [74457730] (041/694) Accurately ripped
19 [86b0268a] (041/694) Accurately ripped
20 [fd958a66] (041/690) Accurately ripped
Offsetted by -6:
01 [5a53f595] (000/698) No match (V2 was not tested)
02 [25414f2f] (000/699) No match (V2 was not tested)
03 [6c1245df] (000/709) No match (V2 was not tested)
04 [24b698ee] (000/695) No match (V2 was not tested)
05 [82d21023] (000/707) No match (V2 was not tested)
06 [17860070] (000/698) No match (V2 was not tested)
07 [e80ba6a3] (000/696) No match (V2 was not tested)
08 [522f364e] (000/700) No match (V2 was not tested)
09 [1672eb0d] (000/698) No match (V2 was not tested)
10 [c4dcce9e] (000/699) No match (V2 was not tested)
11 [59809953] (000/701) No match (V2 was not tested)
12 [2682f642] (000/694) No match (V2 was not tested)
13 [b8d11500] (000/702) No match (V2 was not tested)
14 [554464d4] (000/696) No match (V2 was not tested)
15 [5d6ec858] (000/696) No match (V2 was not tested)
16 [bb78c851] (000/694) No match (V2 was not tested)
17 [10d37eac] (000/705) No match (V2 was not tested)
18 [6be13659] (000/694) No match (V2 was not tested)
19 [dc2c2d02] (000/694) No match (V2 was not tested)
20 [50276e40] (000/690) No match (V2 was not tested)
Offsetted by 36:
01 [9e57c1b3] (068/698) Accurately ripped
02 [05ebe53f] (068/699) Accurately ripped
03 [c44397dd] (000/709) No match (V2 was not tested)
04 [722874f2] (068/695) Accurately ripped
05 [a659bce3] (000/707) No match (V2 was not tested)
06 [72b47fbe] (000/698) No match (V2 was not tested)
07 [bb4957d5] (068/696) Accurately ripped
08 [8ebe2d00] (068/700) Accurately ripped
09 [55f310e5] (000/698) No match (V2 was not tested)
10 [e4b41456] (000/699) No match (V2 was not tested)
11 [51e549bb] (069/701) Accurately ripped
12 [04598ec6] (000/694) No match (V2 was not tested)
13 [31fd21b8] (000/702) No match (V2 was not tested)
14 [7d59daa8] (068/696) Accurately ripped
15 [1cbd4aae] (000/696) No match (V2 was not tested)
16 [8e66361b] (068/694) Accurately ripped
17 [ed551666] (068/705) Accurately ripped
18 [9f56a9af] (067/694) Accurately ripped
19 [e79438d2] (066/694) Accurately ripped
20 [9905511c] (067/690) Accurately ripped
Offsetted by 635:
01 [2b6957a8] (055/698) Accurately ripped
02 [f1b5ec17] (056/699) Accurately ripped
03 [7d4c2322] (000/709) No match (V2 was not tested)
04 [d4f41e68] (056/695) Accurately ripped
05 [6a37f503] (000/707) No match (V2 was not tested)
06 [49a8d550] (000/698) No match (V2 was not tested)
07 [515a9099] (056/696) Accurately ripped
08 [68539603] (056/700) Accurately ripped
09 [f1dfd749] (000/698) No match (V2 was not tested)
10 [e7c48f0a] (000/699) No match (V2 was not tested)
11 [c0d6a3b7] (058/701) Accurately ripped
12 [a33bd0fc] (000/694) No match (V2 was not tested)
13 [1ccccaec] (000/702) No match (V2 was not tested)
14 [14738996] (058/696) Accurately ripped
15 [bf0ab217] (000/696) No match (V2 was not tested)
16 [ff637262] (059/694) Accurately ripped
17 [30136bd5] (061/705) Accurately ripped
18 [34189698] (058/694) Accurately ripped
19 [fe10e14a] (060/694) Accurately ripped
20 [d2e7ee76] (059/690) Accurately ripped

Track Peak [ CRC32 ] [W/O NULL] [ LOG ]
– 100,0 [4485F091] [4A0B8606]
01 99,9 [B0D01CC8] [B62A4EC8] CRC32
02 100,0 [2870D15F] [18987E8D] CRC32
03 99,8 [07F44841] [DB7A41D6] CRC32
04 99,9 [5B7D7A96] [05FDE8ED] CRC32
05 99,8 [11DBEEA1] [80083E1A] CRC32
06 99,9 [0AD4F9A9] [E3012E75] CRC32
07 99,9 [4B394009] [250C5D32] CRC32
08 99,9 [0817E04F] [34CE31F5] CRC32
09 99,7 [AA464F70] [ACF650B9] CRC32
10 99,9 [7285296D] [E97CF7CB] CRC32
11 99,9 [7F2A631C] [154C5465] CRC32
12 99,9 [48D31C73] [403B2A4F] CRC32
13 99,9 [24697EE0] [BD434B3F] CRC32
14 99,9 [F1488F8F] [6C95EA14] CRC32
15 99,9 [D9490690] [8B3A15C5] CRC32
16 100,0 [103E8C7D] [FA29CCDE] CRC32
17 99,5 [36F03A6C] [C7F108E9] CRC32
18 99,9 [F1127AAB] [1D8ACA16] CRC32
19 99,9 [B82B78C7] [D57A65EC] CRC32
20 99,9 [FF510302] [10FA8CE2] CRC32


Manic Street Preachers - Forever Delayed: The Greatest Hits (2002) [2CD + DVD-9]

Tracklist CD2:

01. La Tristesse Durera (Scream To A Sigh) (The Chemical Brothers Remix)
02. If You Tolerate This Your Children Will Be Next (David Holmes Remix)
03. Tsunami (Cornelius Remix)
04. So Why So Sad (Avalanches Remix)
05. Faster (The Chemical Brothers Remix)
06. If You Tolerate This Your Children Will Be Next (Massive Attack Remix)
07. Kevin Carter (Jon Carter Remix)
08. You Stole The Sun From My Heart (David Holmes Remix)
09. Tsunami (Stereolab Remix)
10. Let Robeson Sing (Ian Brown Remix)
11. The Everlasting (Stealth Sonic Orchestra Remix)
12. You Stole The Sun From My Heart (Mogwai Remix)
13. A Design For Life (Stealth Sonic Orchestra Remix)

Exact Audio Copy V0.99 prebeta 5 from 4. May 2009

Отчёт EAC об извлечении, выполненном 1. ноября 2011, 19:17

Manic Street Preachers / Forever Delayed - The Greatest Hits - CD 2

Дисковод: Optiarc DVD RW AD-5240S Adapter: 3 ID: 1

Режим чтения : Достоверность
Использование точного потока : Да
Отключение кэша аудио : Да
Использование указателей C2 : Нет

Коррекция смещения при чтении : 48
Способность читать области Lead-in и Lead-out : Нет
Заполнение пропущенных сэмплов тишиной : Да
Удаление блоков с тишиной в начале и конце : Нет
При вычислениях CRC использовались нулевые сэмплы : Да
Интерфейс : Встроенный Win32-интерфейс для Win NT/2000
Обработка зазоров : Добавлено к предыдущему треку

Выходной формат : Пользовательский кодировщик
Выбранный битрейт : 768 kBit/s
Качество : Высокий
Добавление ID3-тэга : Нет
Утилита сжатия : L:\программы\Exact Audio Copy\FLAC\FLAC.EXE
Дополнительные параметры : -6 -V -T "ARTIST=%a" -T "TITLE=%t" -T "ALBUM=%g" -T "DATE=%y" -T "TRACKNUMBER=%n" -T "GENRE=%m" -T "COMMENT=%e" %s -o %d


TOC извлечённого CD

Трек | Старт | Длительность | Начальный сектор | Конечный сектор
––––––––––––––––––––––––––––––––––-
1 | 0:00.00 | 6:31.57 | 0 | 29381
2 | 6:31.57 | 9:59.37 | 29382 | 74343
3 | 16:31.19 | 4:07.00 | 74344 | 92868
4 | 20:38.19 | 4:58.54 | 92869 | 115272
5 | 25:36.73 | 5:45.49 | 115273 | 141196
6 | 31:22.47 | 4:55.01 | 141197 | 163322
7 | 36:17.48 | 7:43.12 | 163323 | 198059
8 | 44:00.60 | 5:11.28 | 198060 | 221412
9 | 49:12.13 | 6:44.60 | 221413 | 251772
10 | 55:56.73 | 5:01.37 | 251773 | 274384
11 | 60:58.35 | 5:13.45 | 274385 | 297904
12 | 66:12.05 | 6:14.15 | 297905 | 325969
13 | 72:26.20 | 4:50.20 | 325970 | 347739


Трек 1

Имя файла L:\Новая папка\01. Manic Street Preachers - La Tristesse Durera (Scream To A Sigh) (The Chemical Brothers Remix).wav

Длина предзазора 0:00:02.00

Пиковый уровень 99.7 %
Качество трека 100.0 %
CRC теста 65D56745
CRC копии 65D56745
Точность не определена (достоверность 97) [43DF266E], AccurateRip вернул [31A38F0A]
Копирование… OK

Трек 2

Имя файла L:\Новая папка\02. Manic Street Preachers - If You Tolerate This Your Children Will Be Next (David Holmes Remix).wav

Длина предзазора 0:00:00.64

Пиковый уровень 99.9 %
Качество трека 100.0 %
CRC теста 5A76E6A5
CRC копии 5A76E6A5
Точность не определена (достоверность 99) [87F8B858], AccurateRip вернул [D47472A1]
Копирование… OK

Трек 3

Имя файла L:\Новая папка\03. Manic Street Preachers - Tsunami (Cornelius Remix).wav

Длина предзазора 0:00:00.26

Пиковый уровень 97.7 %
Качество трека 100.0 %
CRC теста 90D5FE4C
CRC копии 90D5FE4C
Точное извлечение (достоверность 98) [A1EA8E11]
Копирование… OK

Трек 4

Имя файла L:\Новая папка\04. Manic Street Preachers - So Why So Sad (Avalanches Remix).wav

Длина предзазора 0:00:02.32

Пиковый уровень 99.9 %
Качество трека 100.0 %
CRC теста 5856CF00
CRC копии 5856CF00
Точное извлечение (достоверность 103) [18919B63]
Копирование… OK

Трек 5

Имя файла L:\Новая папка\05. Manic Street Preachers - Faster (The Chemical Brothers Remix).wav

Длина предзазора 0:00:01.66

Пиковый уровень 100.0 %
Качество трека 99.9 %
CRC теста 6EAF3302
CRC копии 6EAF3302
Точное извлечение (достоверность 99) [D4E7FCB7]
Копирование… OK

Трек 6

Имя файла L:\Новая папка\06. Manic Street Preachers - If You Tolerate This Your Children Will Be Next (Massive Attack Remix).wav

Длина предзазора 0:00:01.53

Пиковый уровень 99.9 %
Качество трека 100.0 %
CRC теста 89689D16
CRC копии 89689D16
Точность не определена (достоверность 100) [E89B789F], AccurateRip вернул [391B2379]
Копирование… OK

Трек 7

Имя файла L:\Новая папка\07. Manic Street Preachers - Kevin Carter (Jon Carter Remix).wav

Длина предзазора 0:00:02.21

Пиковый уровень 99.9 %
Качество трека 100.0 %
CRC теста 2B7986E5
CRC копии 2B7986E5
Точность не определена (достоверность 100) [3B88525D], AccurateRip вернул [FF7929FE]
Копирование… OK

Трек 8

Имя файла L:\Новая папка\08. Manic Street Preachers - You Stole The Sun From My Heart (David Holmes Remix).wav

Длина предзазора 0:00:00.49

Пиковый уровень 99.9 %
Качество трека 100.0 %
CRC теста C9018F33
CRC копии C9018F33
Точное извлечение (достоверность 3) [31F2B36E]
Копирование… OK

Трек 9

Имя файла L:\Новая папка\09. Manic Street Preachers - Tsunami (Stereolab Remix).wav

Длина предзазора 0:00:00.46

Пиковый уровень 100.0 %
Качество трека 99.9 %
CRC теста 1FE576E9
CRC копии 1FE576E9
Точное извлечение (достоверность 103) [F7FA768F]
Копирование… OK

Трек 10

Имя файла L:\Новая папка\10. Manic Street Preachers - Let Robeson Sing (Ian Brown Remix).wav

Длина предзазора 0:00:01.01

Пиковый уровень 99.9 %
Качество трека 99.9 %
CRC теста 024A6E3E
CRC копии 024A6E3E
Точное извлечение (достоверность 102) [B6C0FF2D]
Копирование… OK

Трек 11

Имя файла L:\Новая папка\11. Manic Street Preachers - The Everlasting (Stealth Sonic Orchestra Remix).wav

Длина предзазора 0:00:01.20

Пиковый уровень 99.3 %
Качество трека 100.0 %
CRC теста 3540D1F7
CRC копии 3540D1F7
Точное извлечение (достоверность 100) [192057C1]
Копирование… OK

Трек 12

Имя файла L:\Новая папка\12. Manic Street Preachers - You Stole The Sun From My Heart (Mogwai Remix).wav

Длина предзазора 0:00:01.44

Пиковый уровень 100.0 %
Качество трека 100.0 %
CRC теста 065B1D85
CRC копии 065B1D85
Точное извлечение (достоверность 102) [57BE9109]
Копирование… OK

Трек 13

Имя файла L:\Новая папка\13. Manic Street Preachers - A Design For Life (Stealth Sonic Orchestra Remix).wav

Длина предзазора 0:00:01.02

Пиковый уровень 99.9 %
Качество трека 100.0 %
CRC теста 772F0DA7
CRC копии 772F0DA7
Точное извлечение (достоверность 100) [FAA86895]
Копирование… OK


9 трек(и) скопированы точно
4 трек(и) не удалось проверить на точность

Некоторые треки не прошли проверку на точность

Ошибок не произошло

Конец отчёта


[CUETools log; Date: 04.06.2021 17:21:59; Version: 2.1.4]
[AccurateRip ID: 0026a902-017daf39-d4121c0d] found.
Track [ CRC | V2 ] Status
01 [43df266e|5068acae] (000+003/289) Accurately ripped
02 [87f8b858|3936da3a] (000+002/292) Accurately ripped
03 [a1ea8e11|ac6449a7] (104+137/293) Accurately ripped
04 [18919b63|0f5c10e5] (109+138/297) Accurately ripped
05 [d4e7fcb7|3c22c53d] (105+137/295) Accurately ripped
06 [e89b789f|747f0df3] (000+003/296) Accurately ripped
07 [3b88525d|9647ef82] (000+003/296) Accurately ripped
08 [31f2b36e|fe6c0d90] (003+004/298) Accurately ripped
09 [f7fa768f|278e6a47] (109+137/297) Accurately ripped
10 [b6c0ff2d|3ae82467] (108+138/297) Accurately ripped
11 [192057c1|89225cea] (106+136/296) Accurately ripped
12 [57be9109|7bc57189] (108+136/292) Accurately ripped
13 [faa86895|82d4bd99] (106+135/291) Accurately ripped
Offsetted by -891:
01 [ce706199] (000/289) No match (V2 was not tested)
02 [7dbfd2cb] (000/292) No match (V2 was not tested)
03 [fcef48e1] (008/293) Accurately ripped
04 [58a1fad8] (008/297) Accurately ripped
05 [fc540454] (008/295) Accurately ripped
06 [ac8ded23] (000/296) No match (V2 was not tested)
07 [572cee17] (000/296) No match (V2 was not tested)
08 [53818522] (000/298) No match (V2 was not tested)
09 [4243ab9a] (008/297) Accurately ripped
10 [93743e3d] (008/297) Accurately ripped
11 [a73f7c83] (008/296) Accurately ripped
12 [03b51ac6] (008/292) Accurately ripped
13 [848dee45] (008/291) Accurately ripped
Offsetted by -646:
01 [01b15154] (000/289) No match (V2 was not tested)
02 [ca1d0b4e] (000/292) No match (V2 was not tested)
03 [40ff82b1] (009/293) Accurately ripped
04 [a13c13bd] (009/297) Accurately ripped
05 [3874a8e1] (009/295) Accurately ripped
06 [06555067] (000/296) No match (V2 was not tested)
07 [cd21dbb1] (000/296) No match (V2 was not tested)
08 [cb924696] (000/298) No match (V2 was not tested)
09 [c387bf35] (009/297) Accurately ripped
10 [9567284d] (009/297) Accurately ripped
11 [3856d0a5] (009/296) Accurately ripped
12 [81f65773] (009/292) Accurately ripped
13 [787eccf5] (009/291) Accurately ripped

Track Peak [ CRC32 ] [W/O NULL] [ LOG ]
– 100,0 [937FDD1D] [0BAF55B7]
01 99,7 [65D56745] [DFC41FB8] CRC32
02 99,9 [5A76E6A5] [DE996286] CRC32
03 97,7 [90D5FE4C] [4C81DD24] CRC32
04 99,9 [5856CF00] [19707540] CRC32
05 100,0 [6EAF3302] [9A619627] CRC32
06 99,9 [89689D16] [5449975F] CRC32
07 99,9 [2B7986E5] [F6D20976] CRC32
08 99,9 [C9018F33] [318D627E] CRC32
09 100,0 [1FE576E9] [AB6B7C5F] CRC32
10 99,9 [024A6E3E] [EE514FC7] CRC32
11 99,3 [3540D1F7] [C8FC26BB] CRC32
12 100,0 [065B1D85] [405C1AD8] CRC32
13 99,9 [772F0DA7] [F679C0DF] CRC32


Manic Street Preachers - Forever Delayed: The Greatest Hits (2002) [2CD + DVD-9]

Tracklist DVD:

Videos:
1 Motown Junk
2 You Love Us (Heavenly Recordings Version)
3 You Love Us (Sony Music Version)
4 Stay Beautiful
5 Love's Sweet Exile
6 Slash 'N' Burn
7 Motorcycle Emptiness
8 Little Baby Nothing
9 Theme From MASH (Suicide Is Painless)
10 From Despair To Where
11 La Tristesse Durera (Scream To A Sigh)
12 Roses In The Hospital
13 Life Becoming A Landslide
14 Faster
15 Revol
16 She Is Suffering
17 A Design For Life
18 Everything Must Go
19 Kevin Carter
20 Australia
21 If You Tolerate This Your Children Will Be Next
22 The Everlasting
23 You Stole The Sun From My Heart
24 Tsunami
25 The Masses Against The Classes
26 Found That Soul
27 So Why So Sad
28 Ocean Spray
29 Let Robeson Sing
30 There By The Grace Of God

Remixes:
31 La Tristesse Durera (Scream To A Sigh) (The Chemical Brothers Remix)
Remix – The Chemical Brothers
32 If You Tolerate This Your Children Will Be Next (David Holmes Remix)
Remix – David Holmes
33 Tsunami (Cornelius Remix)
Remix – Cornelius
34 So Why So Sad (Avalanches Remix)
Remix – The Avalanches
35 Faster (The Chemical Brothers Remix)
Remix – The Chemical Brothers
36 If You Tolerate This Your Children Will Be Next (Massive Attack Remix)
Remix – Massive Attack
37 Kevin Carter (Jon Carter Remix)
Remix – Jon Carter
38 You Stole The Sun From My Heart (David Holmes Remix)
Remix – David Holmes
39 Tsunami (Stereolab Remix)
Remix – Stereolab
40 Let Robeson Sing (Ian Brown Remix)
Remix – Ian Brown
41 The Everlasting (Stealth Sonic Orchestra Remix)
Remix – Stealth Sonic Orchestra
42 You Stole The Sun From My Heart (Mogwai Remix)
Remix – Mogwai
43 A Design For Life (Stealth Sonic Orchestra Remix)
Remix – Stealth Sonic Orchestra
44 Ocean Spray (Kinobe Remix)
Remix – Kinobe

Title: Manic Street Preachers 2002 - Forever Delayed - DVD
Size: 7.79 Gb ( 8 165 754,00 KBytes ) - DVD-9
Enabled regions: 1, 2, 3, 4, 5, 6, 7, 8

VTS_01 :
Play Length: 00:01:24+01:22:19+01:59:25
Video: PAL 4:3 (720x576) VBR
Audio:
English (Dolby AC3, 2 ch)
English (Dolby AC3, 2 ch)

Manic Street Preachers - Forever Delayed: The Greatest Hits (2002) [2CD + DVD-9]

Manic Street Preachers - Forever Delayed: The Greatest Hits (2002) [2CD + DVD-9]

Manic Street Preachers - Forever Delayed: The Greatest Hits (2002) [2CD + DVD-9]

Manic Street Preachers - Forever Delayed: The Greatest Hits (2002) [2CD + DVD-9]

All thanks go to the original releaser

Manic Street Preachers in my Blog

Download Manic Street Preachers - Forever Delayed: The Greatest Hits (2002):