Subcategories

Maria Joao Pires - Verdes Anos 1976-1985: J.S. Bach, Beethoven, Chopin, Schumann, Mozart (2005) 5CD Box Set

Posted By: Designol
Maria Joao Pires - Verdes Anos 1976-1985: J.S. Bach, Beethoven, Chopin, Schumann, Mozart (2005) 5CD Box Set

Maria João Pires - Verdes Anos 1976-1985 (2005) 5CD Box Set
J.S. Bach, Beethoven, Chopin, Schumann, Mozart

EAC | FLAC | Image (Cue&Log) ~ 1.21 Gb | Mp3 (CBR320) ~ 780 Mb | Scans ~ 22 Mb
Genre: Classical | Label: Erato/Warner Classics | # 2564612482 | Time: 05:30:10

Maria João Pires “shapes and colours every phrase, and with immaculate taste, and she makes sure the phrases end as eloquently as they begin,” wrote Gramophone in 1974. “She conveys not just the details but the relevance of every note to the whole … Best of all, she communicates everything she has discovered about the music, and it is worth having.” This Portuguese pupil of Wilhelm Kempff, Pires was one of the artists who defined the Erato label in the 1970s and 1980s.

This 5-CD box gathers together the recordings she made over the period from 1976 to 1985 and it reflects the consistent focus of her repertoire, with its special emphasis on Austro-German composers of the Classical and early-Romantic periods. Embracing solo works, piano duets and concertos, it contains works by Mozart, Schumann, Beethoven, but also by Bach and Chopin.

In 1974, Gramophone welcomed her (in Mozart) as a pianist who “shapes and colours every phrase, and with immaculate taste, and she makes sure the phrases end as eloquently as they begin … she gets beneath the music’s surface and conveys not just the details but the relevance of every note to the whole … Best of all, in the moment of performance she communicates everything she has discovered about the music, and it is worth having.”

After initial studies at the Lisbon Conservatory, Maria João Pires moved to Germany where her teachers included the great Wilhelm Kempff and the man who became her mentor: the Swiss-born pianist Karl Engel, a pupil of Alfred Cortot and well known as an accompanist to singers. In 1970, she won the Beethoven Bicentennial Competition in Brussels, which brought her to international attention. Over the years she has become recognised as a pianist in the line of such great figures as Kempff, Edwin Fischer and Clara Haskil – musicians valued by connoisseurs for favouring clarity and putting the composer and his music first, rather than drawing attention to themselves.

The Penguin Guide wrote that “She strikes an ideal balance between poise and expressive sensibility, conveying a sense of spontaneity in everything she does, while in a 2012 interview Pires summed up her philosophy as a musician: “Learning music is learning about life. You don’t learn how to play an instrument without learning how to discover music through yourself. Your relationship to the outside world is very important.” Speaking to Gramophone in 1996, she said: a concert should allow one to experience some kind of emotion … to dream … Life is so short – we should try to live things more intensely.”

Seeing her performing career as just one part of her life, Pires has never been hungry for publicity and fame; her family is very important to her and for several years she ran a music education centre on her farm in Portugal.

Maria Joao Pires - Verdes Anos 1976-1985: J.S. Bach, Beethoven, Chopin, Schumann, Mozart (2005) 5CD Box Set



Tracklist:

CD1:

Johann Sebastian Bach (1685-1750):

Keyboard Concerto No. 1 in D minor, BWV1052
01. Allegro (08:05)
02. Adagio (09:12)
03. Allegro (08:16)

Keyboard Concerto No. 4 in A major, BWV1055
04. Allegro (04:47)
05. Larghetto (05:07)
06. Allegro ma non troppo (04:36)

Keyboard Concerto No. 5 in F minor, BWV1056
07. Allegro (03:49)
08. Largo (03:13)
09. Presto (03:45)

Orquestra de Câmara da Fundação Gulbenkian
Michel Corboz - conductor

CD2:

Ludwig van Beethoven (1770-1827):

Piano Sonata No. 14 in C sharp minor 'Moonlight', Op. 27-2
01. Adagio sostenuto (05:28)
02. Allegretto (01:59)
03. Presto (06:00)

Piano Sonata No. 8 in C minor 'Pathetique', Op. 13
04. Grave-Allegro di molto e con brio (09:12)
05. Adagio cantabile (04:21)
06. Rondo (04:39)

Piano Sonata No. 17 in D minor 'Tempest', Op. 31-2
07. Largo-Allegro (08:47)
08. Adagio (07:22)
09. Allegretto (06:33)

Piano Sonata No. 23 in F minor 'Appassionata', Op. 57
10. Allegro assai (09:28)
11. Andante con moto-Allegro ma non troppo (11:12)

CD3:

Frédéric Chopin (1810-1849):

14 Valses
01. Valse brillante op.3 n.43 (02:23)
02. Grande Valse op.42 (04:03)
03. Valse op.64 n.1 (02:02)
04. Valse op.69 n.1 (04:40)
05. Valse op.64 n.2 (03:19)
06. Valse op.70 n.1 (01:59)
07. Valse op.69 n.2 (03:54)
08. KK Iva n.15 (02:50)
09. Valse brillante op.34 n.2 (05:18)
10. Valse op.64 n.3 (02:45)
11. Valse op.70 n.2 (02:45)
12. Valse op.70 n.3 (02:25)
13. Grande Valse brillante op.18 (05:05)
14. Valse brillante op.34 n.1 (05:40)

Robert Schumann (1810-1856):

Kinderszenen op.15
15. I. Von fremden landern Menschen (01:40)
16. II. Kuriose Geschichte (01:00)
17. III. Hasche-Mann (00:34)
18. IV. Bittendes Kind (01:44)
19. V. Gluckes genug (01:06)
20. VI. Wichtige begebenheit (00:53)
21. VII. Traumerei (03:14)
22. VIII. Am Kamin (00:54)
23. IX. Riiter vom steckenpferd (00:38)
24. X. Fast zu ernst (01:57)
25. XI. Furchtenmachen (02:03)
26. XII. Kind am Einschlummern (01:45)
27. XIII. Der Dichter spricht (02:56)

CD4:

Wolfgang Amadeus Mozart (1756-1791):

Piano Concerto No.23
01. I. Allegro (11:19)
02. II. Adagio (07:20)
03. III. Allegro assai (08:00)

Piano Concerto No.9 'Jeunehomme'
04. I. Allegro (10:28)
05. II. Andantino (12:26)
06. III. Rondo (Presto) Menuetto (10:36)

07. Konzert-Rondo No.28 (10:08)

Orquestra da Fundação Gulbenkian
Theodor Guschlbauer - conductor

CD5:

Wolfgang Amadeus Mozart:

Piano Concerto No. 20 in D minor, K. 466
01. Allegro (14:46)
02. Romanza (09:39)
03. Allegro assai (08:13)

Piano Concerto No. 27 in B flat major, K. 595
04. Allegro (14:01)
05. Larghetto (08:05)
06. Allegro (09:18)

Orchestre de Chambre de Lausanne
Armin Jordan - conductor


Exact Audio Copy V1.0 beta 3 from 29. August 2011

EAC extraction logfile from 23. July 2012, 8:41

Maria-João Pires / Maria João Pires - the early years - 1976-1985 (Disc 1)

Used drive : HL-DT-STDVDRAM GSA-H10A Adapter: 0 ID: 0

Read mode : Secure
Utilize accurate stream : Yes
Defeat audio cache : Yes
Make use of C2 pointers : No

Read offset correction : 667
Overread into Lead-In and Lead-Out : No
Fill up missing offset samples with silence : Yes
Delete leading and trailing silent blocks : No
Null samples used in CRC calculations : Yes
Used interface : Native Win32 interface for Win NT & 2000

Used output format : User Defined Encoder
Selected bitrate : 1024 kBit/s
Quality : High
Add ID3 tag : No
Command line compressor : C:\Program Files\Exact Audio Copy\Flac\flac.exe
Additional command line options : -8 -V -T "TITLE=%title%" -T "ARTIST=%artist%" -T "ALBUMARTIST=%albumartist%" -T "ALBUM=%albumtitle%" -T "DATE=%year%" -T "TRACKNUMBER=%tracknr%" -T "TRACKTOTAL=%numtracks%" -T "GENRE=%genre%" -T "COMMENT=%comment%" -T "PERFORMER=%albuminterpret%" -T "COMPOSER=%composer%" %source% -o %dest%


TOC of the extracted CD

Track | Start | Length | Start sector | End sector
––––––––––––––––––––––––––––-
1 | 0:00.00 | 8:05.26 | 0 | 36400
2 | 8:05.26 | 9:12.22 | 36401 | 77822
3 | 17:17.48 | 8:16.73 | 77823 | 115095
4 | 25:34.46 | 4:47.52 | 115096 | 136672
5 | 30:22.23 | 5:07.10 | 136673 | 159707
6 | 35:29.33 | 4:36.46 | 159708 | 180453
7 | 40:06.04 | 3:49.36 | 180454 | 197664
8 | 43:55.40 | 3:13.26 | 197665 | 212165
9 | 47:08.66 | 3:45.06 | 212166 | 229046


Range status and errors

Selected range

Filename F:\Ripped general\[4230] Maria João Pires - the early years - 1976-1985\cd1\Maria João Pires - the early years - 1976-1985 (Disc 1).wav

Peak level 94.7 %
Extraction speed 7.2 X
Range quality 100.0 %
Test CRC 758D48CF
Copy CRC 758D48CF
Copy OK

No errors occurred


AccurateRip summary

Track 1 not present in database
Track 2 not present in database
Track 3 not present in database
Track 4 not present in database
Track 5 not present in database
Track 6 not present in database
Track 7 not present in database
Track 8 not present in database
Track 9 not present in database

None of the tracks are present in the AccurateRip database

End of status report

foobar2000 1.2 / Dynamic Range Meter 1.1.1
log date: 2016-11-16 20:01:41

––––––––––––––––––––––––––––––––––––––––
Analyzed: Gulbenkian Foundation Chamber Orchestra, Lisbon & Michel Corboz / Maria Joao Pires - The Early Years 1976-1985 CD1 - Bach
––––––––––––––––––––––––––––––––––––––––

DR Peak RMS Duration Track
––––––––––––––––––––––––––––––––––––––––
DR13 -0.47 dB -18.30 dB 8:05 01-JS Bach - Piano Concerto No 1 in D minor, BWV 1052- Allegro
DR13 -4.83 dB -22.56 dB 9:12 02-JS Bach - Piano Concerto No 1 in D minor, BWV 1052- Adagio
DR13 -1.62 dB -17.78 dB 8:17 03-JS Bach - Piano Concerto No 1 in D minor, BWV 1052- Allegro
DR13 -3.98 dB -20.33 dB 4:48 04-JS Bach - Piano Concerto No 4 in A major, BWV 1055- Allegro
DR12 -8.35 dB -24.27 dB 5:07 05-JS Bach - Piano Concerto No 4 in A major, BWV 1055- Larghetto
DR12 -1.65 dB -18.63 dB 4:37 06-JS Bach - Piano Concerto No 4 in A major, BWV 1055- Allegro ma non troppo
DR11 -2.67 dB -20.95 dB 3:49 07-JS Bach - Piano Concerto No 5 in F minor, BWV 1056- Allegro
DR14 -11.94 dB -31.70 dB 3:13 08-JS Bach - Piano Concerto No 5 in F minor, BWV 1056- Largo
DR13 -2.51 dB -20.19 dB 3:45 09-JS Bach - Piano Concerto No 5 in F minor, BWV 1056- Presto
––––––––––––––––––––––––––––––––––––––––

Number of tracks: 9
Official DR value: DR13

Samplerate: 44100 Hz
Channels: 2
Bits per sample: 16
Bitrate: 606 kbps
Codec: FLAC
================================================================================


Exact Audio Copy V1.0 beta 3 from 29. August 2011

EAC extraction logfile from 23. July 2012, 9:05

Maria-João Pires / Maria João Pires - the early years - 1976-1985 (Disc 2)

Used drive : HL-DT-STDVDRAM GSA-H10A Adapter: 0 ID: 0

Read mode : Secure
Utilize accurate stream : Yes
Defeat audio cache : Yes
Make use of C2 pointers : No

Read offset correction : 667
Overread into Lead-In and Lead-Out : No
Fill up missing offset samples with silence : Yes
Delete leading and trailing silent blocks : No
Null samples used in CRC calculations : Yes
Used interface : Native Win32 interface for Win NT & 2000

Used output format : User Defined Encoder
Selected bitrate : 1024 kBit/s
Quality : High
Add ID3 tag : No
Command line compressor : C:\Program Files\Exact Audio Copy\Flac\flac.exe
Additional command line options : -8 -V -T "TITLE=%title%" -T "ARTIST=%artist%" -T "ALBUMARTIST=%albumartist%" -T "ALBUM=%albumtitle%" -T "DATE=%year%" -T "TRACKNUMBER=%tracknr%" -T "TRACKTOTAL=%numtracks%" -T "GENRE=%genre%" -T "COMMENT=%comment%" -T "PERFORMER=%albuminterpret%" -T "COMPOSER=%composer%" %source% -o %dest%


TOC of the extracted CD

Track | Start | Length | Start sector | End sector
––––––––––––––––––––––––––––-
1 | 0:00.00 | 5:28.34 | 0 | 24633
2 | 5:28.34 | 1:59.49 | 24634 | 33607
3 | 7:28.08 | 6:00.57 | 33608 | 60664
4 | 13:28.65 | 9:12.39 | 60665 | 102103
5 | 22:41.29 | 4:21.63 | 102104 | 121741
6 | 27:03.17 | 4:39.21 | 121742 | 142687
7 | 31:42.38 | 8:47.38 | 142688 | 182250
8 | 40:30.01 | 7:22.03 | 182251 | 215403
9 | 47:52.04 | 6:33.22 | 215404 | 244900
10 | 54:25.26 | 9:28.20 | 244901 | 287520
11 | 63:53.46 | 11:12.70 | 287521 | 337990


Range status and errors

Selected range

Filename F:\Ripped general\[4230] Maria João Pires - the early years - 1976-1985\cd2\Maria João Pires - the early years - 1976-1985 (Disc 2).wav

Peak level 93.6 %
Extraction speed 7.7 X
Range quality 100.0 %
Test CRC 87C6E3C2
Copy CRC 87C6E3C2
Copy OK

No errors occurred


AccurateRip summary

Track 1 not present in database
Track 2 not present in database
Track 3 not present in database
Track 4 not present in database
Track 5 not present in database
Track 6 not present in database
Track 7 not present in database
Track 8 not present in database
Track 9 not present in database
Track 10 not present in database
Track 11 not present in database

None of the tracks are present in the AccurateRip database

End of status report

foobar2000 1.2 / Dynamic Range Meter 1.1.1
log date: 2016-11-16 20:02:07

––––––––––––––––––––––––––––––––––––––––
Analyzed: Maria-Joao Pires / Maria Joao Pires - The Early Years 1976-1985 CD2 - Beethoven
––––––––––––––––––––––––––––––––––––––––

DR Peak RMS Duration Track
––––––––––––––––––––––––––––––––––––––––
DR13 -4.09 dB -24.10 dB 5:28 01-Piano Sonata No. 14 in C sharp minor (Moonlight), Op. 27-2- Adagio sostenuto
DR13 -1.57 dB -20.11 dB 2:00 02-Piano Sonata No. 14 in C sharp minor (Moonlight), Op. 27-2- Allegretto
DR13 -0.61 dB -19.24 dB 6:01 03-Piano Sonata No. 14 in C sharp minor (Moonlight), Op. 27-2- Presto
DR13 -1.50 dB -20.61 dB 9:13 04-Piano Sonata No. 8 in C minor (Pathetique), Op. 13- Grave-Allegro di molto e con brio
DR14 -3.51 dB -24.76 dB 4:22 05-Piano Sonata No. 8 in C minor (Pathetique), Op. 13- Adagio cantabile
DR13 -1.59 dB -18.94 dB 4:39 06-Piano Sonata No. 8 in C minor (Pathetique), Op. 13- Rondo
DR12 -1.78 dB -20.36 dB 8:48 07-Piano Sonata No. 17 in D minor (Tempest), Op. 31-2- Largo-Allegro
DR16 -2.88 dB -23.82 dB 7:22 08-Piano Sonata No. 17 in D minor (Tempest), Op. 31-2- Adagio
DR12 -0.57 dB -17.49 dB 6:33 09-Piano Sonata No. 17 in D minor (Tempest), Op. 31-2- Allegretto
DR14 -0.66 dB -19.45 dB 9:28 10-Piano Sonata No. 23 in F minor (Appassionata), Op. 57- Allegro assai
DR13 -1.89 dB -20.20 dB 11:13 11-Piano Sonata No. 23 in F minor (Appassionata), Op. 57- Andante con moto-Allegro ma non troppo
––––––––––––––––––––––––––––––––––––––––

Number of tracks: 11
Official DR value: DR13

Samplerate: 44100 Hz
Channels: 2
Bits per sample: 16
Bitrate: 467 kbps
Codec: FLAC
================================================================================


Exact Audio Copy V1.0 beta 3 from 29. August 2011

EAC extraction logfile from 23. July 2012, 9:35

Maria João Pires / Maria João Pires - the early years - 1976-1985 (Disc 3)

Used drive : HL-DT-STDVDRAM GSA-H10A Adapter: 0 ID: 0

Read mode : Secure
Utilize accurate stream : Yes
Defeat audio cache : Yes
Make use of C2 pointers : No

Read offset correction : 667
Overread into Lead-In and Lead-Out : No
Fill up missing offset samples with silence : Yes
Delete leading and trailing silent blocks : No
Null samples used in CRC calculations : Yes
Used interface : Native Win32 interface for Win NT & 2000

Used output format : User Defined Encoder
Selected bitrate : 1024 kBit/s
Quality : High
Add ID3 tag : No
Command line compressor : C:\Program Files\Exact Audio Copy\Flac\flac.exe
Additional command line options : -8 -V -T "TITLE=%title%" -T "ARTIST=%artist%" -T "ALBUMARTIST=%albumartist%" -T "ALBUM=%albumtitle%" -T "DATE=%year%" -T "TRACKNUMBER=%tracknr%" -T "TRACKTOTAL=%numtracks%" -T "GENRE=%genre%" -T "COMMENT=%comment%" -T "PERFORMER=%albuminterpret%" -T "COMPOSER=%composer%" %source% -o %dest%


TOC of the extracted CD

Track | Start | Length | Start sector | End sector
––––––––––––––––––––––––––––-
1 | 0:00.00 | 2:23.29 | 0 | 10753
2 | 2:23.29 | 4:03.71 | 10754 | 29049
3 | 6:27.25 | 2:02.60 | 29050 | 38259
4 | 8:30.10 | 4:40.46 | 38260 | 59305
5 | 13:10.56 | 3:19.44 | 59306 | 74274
6 | 16:30.25 | 1:59.09 | 74275 | 83208
7 | 18:29.34 | 3:54.14 | 83209 | 100772
8 | 22:23.48 | 2:50.39 | 100773 | 113561
9 | 25:14.12 | 5:18.14 | 113562 | 137425
10 | 30:32.26 | 2:45.38 | 137426 | 149838
11 | 33:17.64 | 2:45.19 | 149839 | 162232
12 | 36:03.08 | 2:25.69 | 162233 | 173176
13 | 38:29.02 | 5:05.30 | 173177 | 196081
14 | 43:34.32 | 5:40.47 | 196082 | 221628
15 | 49:15.04 | 1:40.20 | 221629 | 229148
16 | 50:55.24 | 1:00.51 | 229149 | 233699
17 | 51:56.00 | 0:34.54 | 233700 | 236303
18 | 52:30.54 | 1:44.18 | 236304 | 244121
19 | 54:14.72 | 1:06.35 | 244122 | 249106
20 | 55:21.32 | 0:53.14 | 249107 | 253095
21 | 56:14.46 | 3:14.32 | 253096 | 267677
22 | 59:29.03 | 0:54.40 | 267678 | 271767
23 | 60:23.43 | 0:38.32 | 271768 | 274649
24 | 61:02.00 | 1:57.20 | 274650 | 283444
25 | 62:59.20 | 2:03.23 | 283445 | 292692
26 | 65:02.43 | 1:45.73 | 292693 | 300640
27 | 66:48.41 | 2:56.69 | 300641 | 313909


Range status and errors

Selected range

Filename F:\Ripped general\[4230] Maria João Pires - the early years - 1976-1985\cd3\Maria João Pires - the early years - 1976-1985 (Disc 3).wav

Peak level 73.1 %
Extraction speed 7.7 X
Range quality 100.0 %
Test CRC 04E5883C
Copy CRC 04E5883C
Copy OK

No errors occurred


AccurateRip summary

Track 1 not present in database
Track 2 not present in database
Track 3 not present in database
Track 4 not present in database
Track 5 not present in database
Track 6 not present in database
Track 7 not present in database
Track 8 not present in database
Track 9 not present in database
Track 10 not present in database
Track 11 not present in database
Track 12 not present in database
Track 13 not present in database
Track 14 not present in database
Track 15 not present in database
Track 16 not present in database
Track 17 not present in database
Track 18 not present in database
Track 19 not present in database
Track 20 not present in database
Track 21 not present in database
Track 22 not present in database
Track 23 not present in database
Track 24 not present in database
Track 25 not present in database
Track 26 not present in database
Track 27 not present in database

None of the tracks are present in the AccurateRip database

End of status report

foobar2000 1.2 / Dynamic Range Meter 1.1.1
log date: 2016-11-16 20:02:38

––––––––––––––––––––––––––––––––––––––––
Analyzed: Maria Joao Pires / Maria Joao Pires - The Early Years 1976-1985 CD3 - Chopin, Schumann
––––––––––––––––––––––––––––––––––––––––

DR Peak RMS Duration Track
––––––––––––––––––––––––––––––––––––––––
DR13 -5.65 dB -23.46 dB 2:23 01-Chopin - Valse brillante op.3 n.43
DR13 -3.34 dB -20.87 dB 4:04 02-Chopin - Grande Valse op.42
DR11 -5.49 dB -21.80 dB 2:03 03-Chopin - Waltz op.64 n.1
DR13 -9.12 dB -28.23 dB 4:41 04-Chopin - Waltz op.69 n.1
DR11 -7.43 dB -25.98 dB 3:20 05-Chopin - Waltz op.64 n.2
DR12 -4.22 dB -21.27 dB 1:59 06-Chopin - Waltz op.70 n.1
DR12 -6.29 dB -25.03 dB 3:54 07-Chopin - Waltz op.69 n.2
DR12 -2.77 dB -19.76 dB 2:51 08-Chopin - KK Iva n.15
DR13 -7.04 dB -26.28 dB 5:18 09-Chopin - Valse brillante op.34 n.2
DR12 -6.01 dB -23.31 dB 2:46 10-Chopin - Waltz op.64 n.3
DR13 -6.61 dB -25.31 dB 2:45 11-Chopin - Waltz op.70 n.2
DR13 -4.77 dB -22.17 dB 2:26 12-Chopin - Waltz op.70 n.3
DR12 -2.72 dB -20.39 dB 5:05 13-Chopin - Grande Valse brillante op.18
DR12 -3.44 dB -21.52 dB 5:41 14-Chopin - Valse brillante op.34 n.1
DR12 -13.70 dB -31.02 dB 1:40 15-Schumann - Kinderszenen op.15 - I. Von fremden landern Menschen
DR13 -6.46 dB -23.96 dB 1:01 16-Schumann - Kinderszenen op.15 - II. Kuriose Geschichte
DR10 -8.99 dB -23.60 dB 0:35 17-Schumann - Kinderszenen op.15 - III. Hasche-Mann
DR14 -10.44 dB -31.01 dB 1:44 18-Schumann - Kinderszenen op.15 - IV. Bittendes Kind
DR11 -6.02 dB -19.84 dB 1:06 19-Schumann - Kinderszenen op.15 - V. Gluckes genug
DR11 -2.72 dB -16.34 dB 0:53 20-Schumann - Kinderszenen op.15 - VI. Wichtige begebenheit
DR14 -11.75 dB -32.87 dB 3:14 21-Schumann - Kinderszenen op.15 - VII. Traumerei
DR11 -6.11 dB -22.89 dB 0:55 22-Schumann - Kinderszenen op.15 - VIII. Am Kamin
DR11 -3.42 dB -17.22 dB 0:38 23-Schumann - Kinderszenen op.15 - IX. Riiter vom steckenpferd
DR11 -10.66 dB -28.47 dB 1:57 24-Schumann - Kinderszenen op.15 - X. Fast zu ernst
DR17 -5.08 dB -28.19 dB 2:03 25-Schumann - Kinderszenen op.15 - XI. Furchtenmachen
DR12 -12.43 dB -29.70 dB 1:46 26-Schumann - Kinderszenen op.15 - XII. Kind am Einschlummern
DR13 -11.83 dB -34.27 dB 2:57 27-Schumann - Kinderszenen op.15 - XIII. Der Dichter spricht
––––––––––––––––––––––––––––––––––––––––

Number of tracks: 27
Official DR value: DR12

Samplerate: 44100 Hz
Channels: 2
Bits per sample: 16
Bitrate: 391 kbps
Codec: FLAC
================================================================================


Exact Audio Copy V1.0 beta 3 from 29. August 2011

EAC extraction logfile from 23. July 2012, 9:57

Maria João Pires / Maria João Pires - the early years - 1976-1985 (Disc 4)

Used drive : HL-DT-STDVDRAM GSA-H10A Adapter: 0 ID: 0

Read mode : Secure
Utilize accurate stream : Yes
Defeat audio cache : Yes
Make use of C2 pointers : No

Read offset correction : 667
Overread into Lead-In and Lead-Out : No
Fill up missing offset samples with silence : Yes
Delete leading and trailing silent blocks : No
Null samples used in CRC calculations : Yes
Used interface : Native Win32 interface for Win NT & 2000

Used output format : User Defined Encoder
Selected bitrate : 1024 kBit/s
Quality : High
Add ID3 tag : No
Command line compressor : C:\Program Files\Exact Audio Copy\Flac\flac.exe
Additional command line options : -8 -V -T "TITLE=%title%" -T "ARTIST=%artist%" -T "ALBUMARTIST=%albumartist%" -T "ALBUM=%albumtitle%" -T "DATE=%year%" -T "TRACKNUMBER=%tracknr%" -T "TRACKTOTAL=%numtracks%" -T "GENRE=%genre%" -T "COMMENT=%comment%" -T "PERFORMER=%albuminterpret%" -T "COMPOSER=%composer%" %source% -o %dest%


TOC of the extracted CD

Track | Start | Length | Start sector | End sector
––––––––––––––––––––––––––––-
1 | 0:00.00 | 11:19.68 | 0 | 50992
2 | 11:19.68 | 7:20.64 | 50993 | 84056
3 | 18:40.57 | 8:00.44 | 84057 | 120100
4 | 26:41.26 | 10:28.57 | 120101 | 167257
5 | 37:10.08 | 12:26.44 | 167258 | 223251
6 | 49:36.52 | 10:36.03 | 223252 | 270954
7 | 60:12.55 | 10:08.14 | 270955 | 316568


Range status and errors

Selected range

Filename F:\Ripped general\[4230] Maria João Pires - the early years - 1976-1985\cd4\Maria João Pires - the early years - 1976-1985 (Disc 4).wav

Peak level 100.0 %
Extraction speed 7.7 X
Range quality 100.0 %
Test CRC 0B22BFE2
Copy CRC 0B22BFE2
Copy OK

No errors occurred


AccurateRip summary

Track 1 not present in database
Track 2 not present in database
Track 3 not present in database
Track 4 not present in database
Track 5 not present in database
Track 6 not present in database
Track 7 not present in database

None of the tracks are present in the AccurateRip database

End of status report

foobar2000 1.2 / Dynamic Range Meter 1.1.1
log date: 2016-11-16 20:03:17

––––––––––––––––––––––––––––––––––––––––
Analyzed: Maria Joao Pires / Maria Joao Pires - The Early Years 1976-1985 CD4 - Mozart
––––––––––––––––––––––––––––––––––––––––

DR Peak RMS Duration Track
––––––––––––––––––––––––––––––––––––––––
DR13 -2.65 dB -20.98 dB 11:20 01-Piano Concerto No.23 - I. Allegro
DR13 -8.59 dB -25.84 dB 7:21 02-Piano Concerto No.23 - II. Adagio
DR12 -3.18 dB -19.24 dB 8:01 03-Piano Concerto No.23 - III. Allegro assai
DR13 -1.98 dB -21.89 dB 10:29 04-Piano Concerto No.9 'Jeunehomme' - I. Allegro
DR13 -5.11 dB -23.71 dB 12:27 05-Piano Concerto No.9 'Jeunehomme' - II. Andantino
DR14 -2.65 dB -21.25 dB 10:36 06-Piano Concerto No.9 'Jeunehomme' - III. Rondo (Presto) Menuetto
DR16 0.00 dB -21.10 dB 10:08 07-Konzert-Rondo No.28
––––––––––––––––––––––––––––––––––––––––

Number of tracks: 7
Official DR value: DR13

Samplerate: 44100 Hz
Channels: 2
Bits per sample: 16
Bitrate: 556 kbps
Codec: FLAC
================================================================================


Exact Audio Copy V1.0 beta 3 from 29. August 2011

EAC extraction logfile from 23. July 2012, 10:16

Maria-João Pires / Maria João Pires - the early years - 1976-1985 (Disc 5)

Used drive : HL-DT-STDVDRAM GSA-H10A Adapter: 0 ID: 0

Read mode : Secure
Utilize accurate stream : Yes
Defeat audio cache : Yes
Make use of C2 pointers : No

Read offset correction : 667
Overread into Lead-In and Lead-Out : No
Fill up missing offset samples with silence : Yes
Delete leading and trailing silent blocks : No
Null samples used in CRC calculations : Yes
Used interface : Native Win32 interface for Win NT & 2000

Used output format : User Defined Encoder
Selected bitrate : 1024 kBit/s
Quality : High
Add ID3 tag : No
Command line compressor : C:\Program Files\Exact Audio Copy\Flac\flac.exe
Additional command line options : -8 -V -T "TITLE=%title%" -T "ARTIST=%artist%" -T "ALBUMARTIST=%albumartist%" -T "ALBUM=%albumtitle%" -T "DATE=%year%" -T "TRACKNUMBER=%tracknr%" -T "TRACKTOTAL=%numtracks%" -T "GENRE=%genre%" -T "COMMENT=%comment%" -T "PERFORMER=%albuminterpret%" -T "COMPOSER=%composer%" %source% -o %dest%


TOC of the extracted CD

Track | Start | Length | Start sector | End sector
––––––––––––––––––––––––––––-
1 | 0:00.00 | 14:46.73 | 0 | 66522
2 | 14:46.73 | 9:39.24 | 66523 | 109971
3 | 24:26.22 | 8:13.08 | 109972 | 146954
4 | 32:39.30 | 14:01.23 | 146955 | 210052
5 | 46:40.53 | 8:05.19 | 210053 | 246446
6 | 54:45.72 | 9:18.01 | 246447 | 288297


Range status and errors

Selected range

Filename F:\Ripped general\[4230] Maria João Pires - the early years - 1976-1985\cd5\Maria João Pires - the early years - 1976-1985 (Disc 5).wav

Peak level 99.1 %
Extraction speed 7.4 X
Range quality 100.0 %
Test CRC 7A1013FB
Copy CRC 7A1013FB
Copy OK

No errors occurred


AccurateRip summary

Track 1 not present in database
Track 2 not present in database
Track 3 not present in database
Track 4 not present in database
Track 5 not present in database
Track 6 not present in database

None of the tracks are present in the AccurateRip database

End of status report

foobar2000 1.2 / Dynamic Range Meter 1.1.1
log date: 2016-11-16 20:03:50

––––––––––––––––––––––––––––––––––––––––
Analyzed: Maria-Joao Pires / Maria Joao Pires - The Early Years 1976-1985 CD5 - Mozart
––––––––––––––––––––––––––––––––––––––––

DR Peak RMS Duration Track
––––––––––––––––––––––––––––––––––––––––
DR13 -0.36 dB -18.28 dB 14:47 01-Piano Concerto No. 20 in D minor, K. 466- Allegro
DR13 -2.23 dB -20.33 dB 9:39 02-Piano Concerto No. 20 in D minor, K. 466- Romanza
DR13 -0.07 dB -18.13 dB 8:13 03-Piano Concerto No. 20 in D minor, K. 466- Allegro assai
DR14 -1.50 dB -20.91 dB 14:01 04-Piano Concerto No. 27 in B flat major, K. 595- Allegro
DR13 -4.44 dB -24.26 dB 8:05 05-Piano Concerto No. 27 in B flat major, K. 595- Larghetto
DR13 -2.18 dB -19.41 dB 9:18 06-Piano Concerto No. 27 in B flat major, K. 595- Allegro
––––––––––––––––––––––––––––––––––––––––

Number of tracks: 6
Official DR value: DR13

Samplerate: 44100 Hz
Channels: 2
Bits per sample: 16
Bitrate: 594 kbps
Codec: FLAC
================================================================================

Maria Joao Pires - Verdes Anos 1976-1985: J.S. Bach, Beethoven, Chopin, Schumann, Mozart (2005) 5CD Box Set

All thanks to Odeonmusic

More interesting music in My Blog