Subcategories
Tags
Language
Tags

Mark Ashley: Discography (1998 - 2017) Re-up

Posted By: v3122
Mark Ashley: Discography (1998 - 2017) Re-up

Mark Ashley: Discography (1998 - 2017)
EAC | Flac(Image) + Cue + Log & MP3 CBR 320Kbps
24CD | Label: Various | ~ 6433 or 2796 Mb | Artwork(jpg) -> 765 Mb
Europop, Synth-pop, Disco

Mark is the new smooth king of "Love Pop", the german invention of the '80s. With his wonderful voice and tender ways of singing, Mark captures the hearts of millions of fans around the world.
Mark Ashley: Discography (1998 - 2017) Re-up

Mark Ashley: Discography (1998 - 2017):

Mark Ashley: Discography (1998 - 2017) Re-up

Tracklist CD01. 1998 - Dream Of Great Emotion:
Dance Street – DST 055-70394.3

01.Dream Of Great Emotion (Radio Mix) (3:46)
02.Dream Of Great Emotion (Radio Version) (3:46)
03.Dream Of Great Emotion (Extended Mix) (6:02)
04.Dream Of Great Emotion (Instrumental Version) (3:46)

Exact Audio Copy V0.99 prebeta 4 from 23. January 2008

Отчёт EAC об извлечении, выполненном 9. сентября 2008, 1:45

Mark Ashley / Dream Of Great Emotion

Дисковод: PLEXTOR DVDR PX-810UF Adapter: 2 ID: 0

Режим чтения : Достоверность
Использование точного потока : Да
Отключение кэша аудио : Да
Использование указателей C2 : Нет

Коррекция смещения при чтении : 667
Способность читать области Lead-in и Lead-out : Нет
Заполнение пропущенных сэмплов тишиной : Да
Удаление блоков с тишиной в начале и конце : Нет
При вычислениях CRC использовались нулевые сэмплы : Да
Интерфейс : Встроенный Win32-интерфейс для Win NT/2000

Выходной формат : Внутренние WAV-операции
Формат сэмплов : 44.100 Гц; 16 бит; стерео


TOC извлечённого CD

Трек | Старт | Длительность | Начальный сектор | Конечный сектор
––––––––––––––––––––––––––––––––––-
1 | 0:00.00 | 3:45.42 | 0 | 16916
2 | 3:45.42 | 3:45.46 | 16917 | 33837
3 | 7:31.13 | 6:02.26 | 33838 | 61013
4 | 13:33.39 | 3:45.39 | 61014 | 77927


Характеристики диапазона извлечения и сообщения об ошибках

Выбранный диапазон

Имя файла Z:\Temp\Mark Ashley - Dream Of Great Emotion.wav

Пиковый уровень 100.0 %
Качество диапазона 99.9 %
CRC теста F2BC61C1
CRC копии F2BC61C1
Копирование… OK

Ошибок не произошло


AccurateRip: сводка

Трек 1 нет в базе данных
Трек 2 нет в базе данных
Трек 3 нет в базе данных
Трек 4 нет в базе данных

Ни одного трека нет в базе AccurateRip

Конец отчёта


Mark Ashley: Discography (1998 - 2017) Re-up

Tracklist CD02. 1998 - Mareen:
Dance Street – DST 055-70561.3

01.Mareen (Radio Mix) (3:48)
02.Mareen (Club Mix) (5:52)
03.Mareen (Instrumental) (3:49)

Exact Audio Copy V0.99 prebeta 4 from 23. January 2008

Отчёт EAC об извлечении, выполненном 9. сентября 2008, 2:15

Mark Ashley / Mareen

Дисковод: PLEXTOR DVDR PX-810UF Adapter: 2 ID: 0

Режим чтения : Достоверность
Использование точного потока : Да
Отключение кэша аудио : Да
Использование указателей C2 : Нет

Коррекция смещения при чтении : 667
Способность читать области Lead-in и Lead-out : Нет
Заполнение пропущенных сэмплов тишиной : Да
Удаление блоков с тишиной в начале и конце : Нет
При вычислениях CRC использовались нулевые сэмплы : Да
Интерфейс : Встроенный Win32-интерфейс для Win NT/2000

Выходной формат : Внутренние WAV-операции
Формат сэмплов : 44.100 Гц; 16 бит; стерео


TOC извлечённого CD

Трек | Старт | Длительность | Начальный сектор | Конечный сектор
––––––––––––––––––––––––––––––––––-
1 | 0:00.00 | 3:48.15 | 0 | 17114
2 | 3:48.15 | 5:51.58 | 17115 | 43497
3 | 9:39.73 | 3:48.52 | 43498 | 60649


Характеристики диапазона извлечения и сообщения об ошибках

Выбранный диапазон

Имя файла Z:\Temp\Mark Ashley - Mareen.wav

Пиковый уровень 100.0 %
Качество диапазона 100.0 %
CRC теста 9A2194CD
CRC копии 9A2194CD
Копирование… OK

Ошибок не произошло


AccurateRip: сводка

Трек 1 нет в базе данных
Трек 2 нет в базе данных
Трек 3 нет в базе данных

Ни одного трека нет в базе AccurateRip

Конец отчёта


Mark Ashley: Discography (1998 - 2017) Re-up

Tracklist CD03. 1999 - Love Is Like The Sea:
Dance Street – DST 055-70628.3

01.Love Is Like The Sea (Radio Version) (3:24)
02.Love Is Like The Sea (Extended Mix) (5:02)
03.Love Is Like The Sea (Club Remix) (4:50)
04.Dream Of Great Emotion (Dance Remix) (5:32)

Exact Audio Copy V0.99 prebeta 4 from 23. January 2008

Отчёт EAC об извлечении, выполненном 9. сентября 2008, 2:44

Mark Ashley / Love Is Like The Sea

Дисковод: PLEXTOR DVDR PX-810UF Adapter: 2 ID: 0

Режим чтения : Достоверность
Использование точного потока : Да
Отключение кэша аудио : Да
Использование указателей C2 : Нет

Коррекция смещения при чтении : 667
Способность читать области Lead-in и Lead-out : Нет
Заполнение пропущенных сэмплов тишиной : Да
Удаление блоков с тишиной в начале и конце : Нет
При вычислениях CRC использовались нулевые сэмплы : Да
Интерфейс : Встроенный Win32-интерфейс для Win NT/2000

Выходной формат : Внутренние WAV-операции
Формат сэмплов : 44.100 Гц; 16 бит; стерео


TOC извлечённого CD

Трек | Старт | Длительность | Начальный сектор | Конечный сектор
––––––––––––––––––––––––––––––––––-
1 | 0:00.00 | 3:23.51 | 0 | 15275
2 | 3:23.51 | 5:01.69 | 15276 | 37919
3 | 8:25.45 | 4:49.51 | 37920 | 59645
4 | 13:15.21 | 5:32.37 | 59646 | 84582


Характеристики диапазона извлечения и сообщения об ошибках

Выбранный диапазон

Имя файла Z:\Temp\Mark Ashley - Love Is Like The Sea.wav

Пиковый уровень 100.0 %
Качество диапазона 100.0 %
CRC теста 31D1A666
CRC копии 31D1A666
Копирование… OK

Ошибок не произошло


AccurateRip: сводка

Трек 1 нет в базе данных
Трек 2 нет в базе данных
Трек 3 нет в базе данных
Трек 4 нет в базе данных

Ни одного трека нет в базе AccurateRip

Конец отчёта


Mark Ashley: Discography (1998 - 2017) Re-up

Tracklist CD04. 2000 - Lover Why:
Dance Street – DST 70793-8

01.Lover Why (Radio Version) (3:56)
02.Lover Why (Club Mix) (6:14)
03.Lover Why (Extended Mix) (6:15)

Exact Audio Copy V0.99 prebeta 4 from 23. January 2008

Отчёт EAC об извлечении, выполненном 9. сентября 2008, 3:31

Mark Ashley / Lover Why

Дисковод: PLEXTOR DVDR PX-810UF Adapter: 2 ID: 0

Режим чтения : Достоверность
Использование точного потока : Да
Отключение кэша аудио : Да
Использование указателей C2 : Нет

Коррекция смещения при чтении : 667
Способность читать области Lead-in и Lead-out : Нет
Заполнение пропущенных сэмплов тишиной : Да
Удаление блоков с тишиной в начале и конце : Нет
При вычислениях CRC использовались нулевые сэмплы : Да
Интерфейс : Встроенный Win32-интерфейс для Win NT/2000

Выходной формат : Внутренние WAV-операции
Формат сэмплов : 44.100 Гц; 16 бит; стерео


TOC извлечённого CD

Трек | Старт | Длительность | Начальный сектор | Конечный сектор
––––––––––––––––––––––––––––––––––-
1 | 0:00.00 | 3:55.49 | 0 | 17673
2 | 3:55.49 | 6:14.37 | 17674 | 45760
3 | 10:10.11 | 6:14.62 | 45761 | 73872


Характеристики диапазона извлечения и сообщения об ошибках

Выбранный диапазон

Имя файла Z:\Temp\Mark Ashley - Lover Why.wav

Пиковый уровень 98.9 %
Качество диапазона 100.0 %
CRC теста 49BFB3E4
CRC копии 49BFB3E4
Копирование… OK

Ошибок не произошло


AccurateRip: сводка

Трек 1 нет в базе данных
Трек 2 нет в базе данных
Трек 3 нет в базе данных

Ни одного трека нет в базе AccurateRip

Конец отчёта


Mark Ashley: Discography (1998 - 2017) Re-up

Tracklist CD05. 2000 - On A Sundady:
Dance Street – DST 70722-8

01.On A Sunday (Radio Mix) (3:32)
02.On A Sunday (Extended Mix) (5:28)
03.On A Sunday (Instrumental) (3:27)

Exact Audio Copy V0.99 prebeta 4 from 23. January 2008

Отчёт EAC об извлечении, выполненном 9. сентября 2008, 3:05

Mark Ashley / On A Sundady

Дисковод: PLEXTOR DVDR PX-810UF Adapter: 2 ID: 0

Режим чтения : Достоверность
Использование точного потока : Да
Отключение кэша аудио : Да
Использование указателей C2 : Нет

Коррекция смещения при чтении : 667
Способность читать области Lead-in и Lead-out : Нет
Заполнение пропущенных сэмплов тишиной : Да
Удаление блоков с тишиной в начале и конце : Нет
При вычислениях CRC использовались нулевые сэмплы : Да
Интерфейс : Встроенный Win32-интерфейс для Win NT/2000

Выходной формат : Внутренние WAV-операции
Формат сэмплов : 44.100 Гц; 16 бит; стерео


TOC извлечённого CD

Трек | Старт | Длительность | Начальный сектор | Конечный сектор
––––––––––––––––––––––––––––––––––-
1 | 0:00.00 | 3:32.00 | 0 | 15899
2 | 3:32.00 | 5:28.30 | 15900 | 40529
3 | 9:00.30 | 3:26.67 | 40530 | 56046


Характеристики диапазона извлечения и сообщения об ошибках

Выбранный диапазон

Имя файла Z:\Temp\Mark Ashley - On A Sundady.wav

Пиковый уровень 98.0 %
Качество диапазона 100.0 %
CRC теста 7A819647
CRC копии 7A819647
Копирование… OK

Ошибок не произошло


AccurateRip: сводка

Трек 1 нет в базе данных
Трек 2 нет в базе данных
Трек 3 нет в базе данных

Ни одного трека нет в базе AccurateRip

Конец отчёта


Mark Ashley: Discography (1998 - 2017) Re-up

Tracklist CD06. 2000 - My Hit Collection:
Dance Street – DST 70796-2

01.On A Sunday (Radio Version) (3:35)
02.Mareen (Radio Version) (3:52)
03.Lover Why (Radio Version) (3:59)
04.Dream Of Great Emotion (Radio Version) (3:50)
05.Love Is Like The Sea (Radio Version) (3:28)
06.On A Sunday (Extended Mix) (5:32)
07.Mareen (Club Mix) (5:55)
08.Lover Why (Club Mix) (6:14)
09.Dream Of Great Emotion (Dance Remix) (5:35)
10.Love Is Like The Sea (Extendend Mix) (5:02)

Exact Audio Copy V0.99 prebeta 4 from 23. January 2008

Отчёт EAC об извлечении, выполненном 18. сентября 2008, 3:14

Mark Ashley / My Hit Collection

Дисковод: PLEXTOR DVDR PX-810UF Adapter: 2 ID: 0

Режим чтения : Достоверность
Использование точного потока : Да
Отключение кэша аудио : Да
Использование указателей C2 : Нет

Коррекция смещения при чтении : 667
Способность читать области Lead-in и Lead-out : Нет
Заполнение пропущенных сэмплов тишиной : Да
Удаление блоков с тишиной в начале и конце : Нет
При вычислениях CRC использовались нулевые сэмплы : Да
Интерфейс : Встроенный Win32-интерфейс для Win NT/2000

Выходной формат : Внутренние WAV-операции
Формат сэмплов : 44.100 Гц; 16 бит; стерео


TOC извлечённого CD

Трек | Старт | Длительность | Начальный сектор | Конечный сектор
––––––––––––––––––––––––––––––––––-
1 | 0:00.00 | 3:35.11 | 0 | 16135
2 | 3:35.11 | 3:51.68 | 16136 | 33528
3 | 7:27.04 | 3:59.24 | 33529 | 51477
4 | 11:26.28 | 3:49.46 | 51478 | 68698
5 | 15:15.74 | 3:27.51 | 68699 | 84274
6 | 18:43.50 | 5:32.01 | 84275 | 109175
7 | 24:15.51 | 5:54.63 | 109176 | 135788
8 | 30:10.39 | 6:14.34 | 135789 | 163872
9 | 36:24.73 | 5:34.46 | 163873 | 188968
10 | 41:59.44 | 5:01.69 | 188969 | 211612


Характеристики диапазона извлечения и сообщения об ошибках

Выбранный диапазон

Имя файла Z:\Temp\Mark Ashley - My Hit Collection.wav

Пиковый уровень 99.0 %
Качество диапазона 100.0 %
CRC теста 06EE4EFB
CRC копии 06EE4EFB
Копирование… OK

Ошибок не произошло


AccurateRip: сводка

Трек 1 нет в базе данных
Трек 2 нет в базе данных
Трек 3 нет в базе данных
Трек 4 нет в базе данных
Трек 5 нет в базе данных
Трек 6 нет в базе данных
Трек 7 нет в базе данных
Трек 8 нет в базе данных
Трек 9 нет в базе данных
Трек 10 нет в базе данных

Ни одного трека нет в базе AccurateRip

Конец отчёта


Mark Ashley: Discography (1998 - 2017) Re-up

Tracklist CD07. 2001 - Love Is Stronger:


01.Love Is Stronger (Radio Version) (3:32)
02.Love Is Stronger (Club Mix) (5:16)
03.Love Is Stronger (Remix Version) (5:01)

Exact Audio Copy V0.99 prebeta 4 from 23. January 2008

Отчёт EAC об извлечении, выполненном 22. сентября 2008, 22:20

Mark Ashley / Love Is Stronger

Дисковод: PLEXTOR DVDR PX-810UF Adapter: 2 ID: 0

Режим чтения : Достоверность
Использование точного потока : Да
Отключение кэша аудио : Да
Использование указателей C2 : Нет

Коррекция смещения при чтении : 667
Способность читать области Lead-in и Lead-out : Нет
Заполнение пропущенных сэмплов тишиной : Да
Удаление блоков с тишиной в начале и конце : Нет
При вычислениях CRC использовались нулевые сэмплы : Да
Интерфейс : Встроенный Win32-интерфейс для Win NT/2000

Выходной формат : Внутренние WAV-операции
Формат сэмплов : 44.100 Гц; 16 бит; стерео


TOC извлечённого CD

Трек | Старт | Длительность | Начальный сектор | Конечный сектор
––––––––––––––––––––––––––––––––––-
1 | 0:00.00 | 3:31.47 | 0 | 15871
2 | 3:31.47 | 5:15.48 | 15872 | 39544
3 | 8:47.20 | 5:01.18 | 39545 | 62137


Характеристики диапазона извлечения и сообщения об ошибках

Выбранный диапазон

Имя файла Z:\Temp\Mark Ashley - Love Is Stronger.wav

Пиковый уровень 96.5 %
Качество диапазона 99.9 %
CRC теста 90EB3811
CRC копии 90EB3811
Копирование… OK

Ошибок не произошло


AccurateRip: сводка

Трек 1 нет в базе данных
Трек 2 нет в базе данных
Трек 3 нет в базе данных

Ни одного трека нет в базе AccurateRip

Конец отчёта


Mark Ashley: Discography (1998 - 2017) Re-up

Tracklist CD08. 2001 - You Are The One:
Dance Street – DST 70848-8

01.You Are The One (Radio Version) (3:34)
02.You Are The One (Dance Mix) (4:16)
03.You Are The One (Playback Version) (3:35)

Exact Audio Copy V0.99 prebeta 4 from 23. January 2008

Отчёт EAC об извлечении, выполненном 18. сентября 2008, 4:37

Mark Ashley / You Are The One

Дисковод: PLEXTOR DVDR PX-810UF Adapter: 2 ID: 0

Режим чтения : Достоверность
Использование точного потока : Да
Отключение кэша аудио : Да
Использование указателей C2 : Нет

Коррекция смещения при чтении : 667
Способность читать области Lead-in и Lead-out : Нет
Заполнение пропущенных сэмплов тишиной : Да
Удаление блоков с тишиной в начале и конце : Нет
При вычислениях CRC использовались нулевые сэмплы : Да
Интерфейс : Встроенный Win32-интерфейс для Win NT/2000

Выходной формат : Внутренние WAV-операции
Формат сэмплов : 44.100 Гц; 16 бит; стерео


TOC извлечённого CD

Трек | Старт | Длительность | Начальный сектор | Конечный сектор
––––––––––––––––––––––––––––––––––-
1 | 0:00.00 | 3:33.72 | 0 | 16046
2 | 3:33.72 | 4:16.37 | 16047 | 35283
3 | 7:50.34 | 3:35.27 | 35284 | 51435


Характеристики диапазона извлечения и сообщения об ошибках

Выбранный диапазон

Имя файла Z:\Temp\Mark Ashley - You Are The One.wav

Пиковый уровень 100.0 %
Качество диапазона 100.0 %
CRC теста EA1A8A38
CRC копии EA1A8A38
Копирование… OK

Ошибок не произошло


AccurateRip: сводка

Трек 1 нет в базе данных
Трек 2 нет в базе данных
Трек 3 нет в базе данных

Ни одного трека нет в базе AccurateRip

Конец отчёта


Mark Ashley: Discography (1998 - 2017) Re-up

Tracklist CD09. 2002 - The Fans Of Modern Talking:
Dance Street – DST 71085-8

01.The Fans Of Modern Talking (Radio Version) (3:23)
02.The Fans Of Modern Talking (Club Mix) (5:35)
03.The Fans Of Modern Talking (Karaoke Version) (3:23)

Exact Audio Copy V0.99 prebeta 4 from 23. January 2008

Отчёт EAC об извлечении, выполненном 19. сентября 2008, 2:14

Mark Ashley / The Fans Of Modern Talking

Дисковод: PLEXTOR DVDR PX-810UF Adapter: 2 ID: 0

Режим чтения : Достоверность
Использование точного потока : Да
Отключение кэша аудио : Да
Использование указателей C2 : Нет

Коррекция смещения при чтении : 667
Способность читать области Lead-in и Lead-out : Нет
Заполнение пропущенных сэмплов тишиной : Да
Удаление блоков с тишиной в начале и конце : Нет
При вычислениях CRC использовались нулевые сэмплы : Да
Интерфейс : Встроенный Win32-интерфейс для Win NT/2000

Выходной формат : Внутренние WAV-операции
Формат сэмплов : 44.100 Гц; 16 бит; стерео


TOC извлечённого CD

Трек | Старт | Длительность | Начальный сектор | Конечный сектор
––––––––––––––––––––––––––––––––––-
1 | 0:00.00 | 3:22.49 | 0 | 15198
2 | 3:22.49 | 5:34.47 | 15199 | 40295
3 | 8:57.21 | 3:22.48 | 40296 | 55493


Характеристики диапазона извлечения и сообщения об ошибках

Выбранный диапазон

Имя файла Z:\Temp\Mark Ashley - The Fans Of Modern Talking.wav

Пиковый уровень 97.0 %
Качество диапазона 100.0 %
CRC теста 94071399
CRC копии 94071399
Копирование… OK

Ошибок не произошло


AccurateRip: сводка

Трек 1 нет в базе данных
Трек 2 нет в базе данных
Трек 3 нет в базе данных

Ни одного трека нет в базе AccurateRip

Конец отчёта


Mark Ashley: Discography (1998 - 2017) Re-up

Tracklist CD10. 2002 - It's Just The Way:


01.It's Just The Way I Love You So (3:44)
02.On A Sunday (3:32)
03.You Are The One (3:33)
04.The Fans Of Modern Talking (3:22)
05.Love Is Stronger (3:27)
06.My Valerie (4:31)
07.Love Is Like The Sea (3:25)
08.Mareen (3:50)
09.Lover Why (3:56)
10.Sarah (3:41)
11.Dream Of Great Emotion (3:46)
12.Mark Ashley's Rainbow Megamix (10:19)
13.Love Is Stronger (Trance Remix) (5:03)
14.Lover Why (Club Remix) (6:15)

Exact Audio Copy V0.99 prebeta 4 from 23. January 2008

Отчёт EAC об извлечении, выполненном 19. сентября 2008, 3:20

Mark Ashley / It's Just The Way

Дисковод: PLEXTOR DVDR PX-810UF Adapter: 2 ID: 0

Режим чтения : Достоверность
Использование точного потока : Да
Отключение кэша аудио : Да
Использование указателей C2 : Нет

Коррекция смещения при чтении : 667
Способность читать области Lead-in и Lead-out : Нет
Заполнение пропущенных сэмплов тишиной : Да
Удаление блоков с тишиной в начале и конце : Нет
При вычислениях CRC использовались нулевые сэмплы : Да
Интерфейс : Встроенный Win32-интерфейс для Win NT/2000

Выходной формат : Внутренние WAV-операции
Формат сэмплов : 44.100 Гц; 16 бит; стерео


TOC извлечённого CD

Трек | Старт | Длительность | Начальный сектор | Конечный сектор
––––––––––––––––––––––––––––––––––-
1 | 0:00.00 | 3:44.15 | 0 | 16814
2 | 3:44.15 | 3:31.70 | 16815 | 32709
3 | 7:16.10 | 3:33.19 | 32710 | 48703
4 | 10:49.29 | 3:22.17 | 48704 | 63870
5 | 14:11.46 | 3:27.20 | 63871 | 79415
6 | 17:38.66 | 4:30.70 | 79416 | 99735
7 | 22:09.61 | 3:24.48 | 99736 | 115083
8 | 25:34.34 | 3:49.62 | 115084 | 132320
9 | 29:24.21 | 3:55.48 | 132321 | 149993
10 | 33:19.69 | 3:41.33 | 149994 | 166601
11 | 37:01.27 | 3:46.16 | 166602 | 183567
12 | 40:47.43 | 10:19.25 | 183568 | 230017
13 | 51:06.68 | 5:02.64 | 230018 | 252731
14 | 56:09.57 | 6:14.38 | 252732 | 280819


Характеристики диапазона извлечения и сообщения об ошибках

Выбранный диапазон

Имя файла Z:\Temp\Mark Ashley - It's Just The Way.wav

Пиковый уровень 98.9 %
Качество диапазона 100.0 %
CRC теста 91913A89
CRC копии 91913A89
Копирование… OK

Ошибок не произошло


AccurateRip: сводка

Трек 1 нет в базе данных
Трек 2 нет в базе данных
Трек 3 нет в базе данных
Трек 4 нет в базе данных
Трек 5 нет в базе данных
Трек 6 нет в базе данных
Трек 7 нет в базе данных
Трек 8 нет в базе данных
Трек 9 нет в базе данных
Трек 10 нет в базе данных
Трек 11 нет в базе данных
Трек 12 нет в базе данных
Трек 13 нет в базе данных
Трек 14 нет в базе данных

Ни одного трека нет в базе AccurateRip

Конец отчёта


Mark Ashley: Discography (1998 - 2017) Re-up

Tracklist CD11. 2003 - When I See The Angels Cry:
Dance Street – DST 71090-2

01.When I See The Angels Cry (Radio Mix) (3:45)
02.When I See The Angels Cry (Club Mix) (5:55)
03.When I See The Angels Cry (Original Mix) (3:46)
04.When I See The Angels Cry (Instrumental) (3:45)

Exact Audio Copy V0.99 prebeta 5 from 4. May 2009

Отчёт EAC об извлечении, выполненном 20. февраля 2010, 6:40

Mark Ashley / When I See The Angels Cry

Дисковод: ASUS DRW-2014S1T Adapter: 3 ID: 0

Режим чтения : Достоверность
Использование точного потока : Да
Отключение кэша аудио : Да
Использование указателей C2 : Нет

Коррекция смещения при чтении : 6
Способность читать области Lead-in и Lead-out : Нет
Заполнение пропущенных сэмплов тишиной : Да
Удаление блоков с тишиной в начале и конце : Нет
При вычислениях CRC использовались нулевые сэмплы : Да
Интерфейс : Установленный внешний ASPI-интерфейс

Выходной формат : Внутренние WAV-операции
Формат сэмплов : 44.100 Гц; 16 бит; стерео


TOC извлечённого CD

Трек | Старт | Длительность | Начальный сектор | Конечный сектор
––––––––––––––––––––––––––––––––––-
1 | 0:00.00 | 3:44.46 | 0 | 16845
2 | 3:44.46 | 5:54.60 | 16846 | 43455
3 | 9:39.31 | 3:45.49 | 43456 | 60379
4 | 13:25.05 | 3:44.54 | 60380 | 77233


Характеристики диапазона извлечения и сообщения об ошибках

Выбранный диапазон

Имя файла Z:\Temp\Mark Ashley - When I See The Angels Cry.wav

Пиковый уровень 100.0 %
Качество диапазона 100.0 %
CRC теста 7A158FD0
CRC копии 7A158FD0
Копирование… OK

Ошибок не произошло


AccurateRip: сводка

Трек 1 точное извлечение (доверие 2) [8F48892B]
Трек 2 точное извлечение (доверие 2) [17A2D3C8]
Трек 3 точное извлечение (доверие 2) [40D906F6]
Трек 4 точное извлечение (доверие 2) [C450C484]

Все треки извлечены точно

Конец отчёта


Mark Ashley: Discography (1998 - 2017) Re-up

Tracklist CD12. 2004 - I'll Be There For You Tonight:
Dance Street – DST 75063-8

01.I'll Be There For You Tonight (Radio Version) (3:42)
02.I'll Be There For You Tonight (Extended Mix) (5:04)
03.I'll Be There For You Tonight (Weatherstorm's Spread-Club-Mix) (4:14)
04.I'll Be There For You Tonight (Weatherstorm's No Night Stand Remix) (5:52)
05.I'll Be There For You Tonight (Karaoke Version) (3:34)

Exact Audio Copy V0.99 prebeta 5 from 4. May 2009

Отчёт EAC об извлечении, выполненном 20. февраля 2010, 6:19

Mark Ashley / I'll Be There For You Tonight

Дисковод: ASUS DRW-2014S1T Adapter: 3 ID: 0

Режим чтения : Достоверность
Использование точного потока : Да
Отключение кэша аудио : Да
Использование указателей C2 : Нет

Коррекция смещения при чтении : 6
Способность читать области Lead-in и Lead-out : Нет
Заполнение пропущенных сэмплов тишиной : Да
Удаление блоков с тишиной в начале и конце : Нет
При вычислениях CRC использовались нулевые сэмплы : Да
Интерфейс : Установленный внешний ASPI-интерфейс

Выходной формат : Внутренние WAV-операции
Формат сэмплов : 44.100 Гц; 16 бит; стерео


TOC извлечённого CD

Трек | Старт | Длительность | Начальный сектор | Конечный сектор
––––––––––––––––––––––––––––––––––-
1 | 0:00.00 | 3:42.20 | 0 | 16669
2 | 3:42.20 | 5:03.47 | 16670 | 39441
3 | 8:45.67 | 4:13.72 | 39442 | 58488
4 | 12:59.64 | 5:52.29 | 58489 | 84917
5 | 18:52.18 | 3:33.58 | 84918 | 100950


Характеристики диапазона извлечения и сообщения об ошибках

Выбранный диапазон

Имя файла Z:\Temp\Mark Ashley - I'll Be There For You Tonight.wav

Пиковый уровень 98.8 %
Качество диапазона 100.0 %
CRC теста 33F107B4
CRC копии 33F107B4
Копирование… OK

Ошибок не произошло


AccurateRip: сводка

Трек 1 нет в базе данных
Трек 2 нет в базе данных
Трек 3 нет в базе данных
Трек 4 нет в базе данных
Трек 5 нет в базе данных

Ни одного трека нет в базе AccurateRip

Конец отчёта


Mark Ashley: Discography (1998 - 2017) Re-up

Tracklist CD13. 2005 - If You Love Me:
Music Sternchen Records – MS 426009149003

01.If You Love Me (Single Edit) (3:27)
02.If You Love Me (Extended Remix) (5:56)
03.If You Love Me (Weatherstorm Re-X) (4:32)
04.If You Love Me (J.С.Carlten's Stumble Remix) (3:38)
05.If You Love Me (J.С.Carlten's I.Y.L.M. Re-Mix) (3:59)
06.If You Love Me (Dick's Drum Ghost Mix) (6:21)
07.If You Love Me (Horse Rmx) (3:26)
08.If You Love Me (No Vocal Version) (3:25)

Exact Audio Copy V0.99 prebeta 4 from 23. January 2008

Отчёт EAC об извлечении, выполненном 20. сентября 2008, 22:23

Mark Ashley / If You Love Me

Дисковод: PLEXTOR DVDR PX-810UF Adapter: 2 ID: 0

Режим чтения : Достоверность
Использование точного потока : Да
Отключение кэша аудио : Да
Использование указателей C2 : Нет

Коррекция смещения при чтении : 667
Способность читать области Lead-in и Lead-out : Нет
Заполнение пропущенных сэмплов тишиной : Да
Удаление блоков с тишиной в начале и конце : Нет
При вычислениях CRC использовались нулевые сэмплы : Да
Интерфейс : Встроенный Win32-интерфейс для Win NT/2000

Выходной формат : Внутренние WAV-операции
Формат сэмплов : 44.100 Гц; 16 бит; стерео


TOC извлечённого CD

Трек | Старт | Длительность | Начальный сектор | Конечный сектор
––––––––––––––––––––––––––––––––––-
1 | 0:00.00 | 3:26.64 | 0 | 15513
2 | 3:26.64 | 5:56.29 | 15514 | 42242
3 | 9:23.18 | 4:32.37 | 42243 | 62679
4 | 13:55.55 | 3:38.32 | 62680 | 79061
5 | 17:34.12 | 3:59.08 | 79062 | 96994
6 | 21:33.20 | 6:21.33 | 96995 | 125602
7 | 27:54.53 | 3:26.15 | 125603 | 141067
8 | 31:20.68 | 3:25.08 | 141068 | 156450


Характеристики диапазона извлечения и сообщения об ошибках

Выбранный диапазон

Имя файла Z:\Temp\Mark Ashley - If You Love Me.wav

Пиковый уровень 89.1 %
Качество диапазона 99.9 %
CRC теста 763ABF9D
CRC копии 763ABF9D
Копирование… OK

Ошибок не произошло


AccurateRip: сводка

Трек 1 нет в базе данных
Трек 2 нет в базе данных
Трек 3 нет в базе данных
Трек 4 нет в базе данных
Трек 5 нет в базе данных
Трек 6 нет в базе данных
Трек 7 нет в базе данных
Трек 8 нет в базе данных

Ни одного трека нет в базе AccurateRip

Конец отчёта


Mark Ashley: Discography (1998 - 2017) Re-up

Tracklist CD14. 2005 - Luckystar:
Music Sternchen Records – MS LP 426009149001

01.Luckystar (3:35)
02.Little Lady Love Me (3:41)
03.Higher Than Heaven (3:36)
04.Run For Cover (3:34)
05.Never Lie To Me (3:27)
06.To The Moon And Back (3:46)
07.Save Me (Don't Break Me) (3:35)
08.Undying (3:26)
09.I Can't Life Without You (3:48)
10.Greatest Love (3:31)
11.Life! (3:36)
12.Your Love Is My Love (4:29)
13.Luckystar (Another Vision Mix) (3:36)
14.Run For Cover (Weatherstorm's Sign Of Life Re-X) (4:16)
15.I Can't Life Without You (Weatherstorm's Sunlight Remix) (4:08)
16.Never Lie To Me (Dick's Vegas Rmx) (4:49)
17.Undying (Instrumental Version) (3:24)

Exact Audio Copy V0.99 prebeta 4 from 23. January 2008

Отчёт EAC об извлечении, выполненном 19. сентября 2008, 8:07

Mark Ashley / Luckystar

Дисковод: _NEC DVD_RW ND-4571A Adapter: 1 ID: 0

Режим чтения : Достоверность
Использование точного потока : Да
Отключение кэша аудио : Да
Использование указателей C2 : Нет

Коррекция смещения при чтении : 48
Способность читать области Lead-in и Lead-out : Нет
Заполнение пропущенных сэмплов тишиной : Да
Удаление блоков с тишиной в начале и конце : Нет
При вычислениях CRC использовались нулевые сэмплы : Да
Интерфейс : Встроенный Win32-интерфейс для Win NT/2000

Выходной формат : Внутренние WAV-операции
Формат сэмплов : 44.100 Гц; 16 бит; стерео


TOC извлечённого CD

Трек | Старт | Длительность | Начальный сектор | Конечный сектор
––––––––––––––––––––––––––––––––––-
1 | 0:00.00 | 3:35.01 | 0 | 16125
2 | 3:35.01 | 3:41.03 | 16126 | 32703
3 | 7:16.04 | 3:36.02 | 32704 | 48905
4 | 10:52.06 | 3:34.01 | 48906 | 64956
5 | 14:26.07 | 3:27.00 | 64957 | 80481
6 | 17:53.07 | 3:46.01 | 80482 | 97432
7 | 21:39.08 | 3:35.00 | 97433 | 113557
8 | 25:14.08 | 3:26.00 | 113558 | 129007
9 | 28:40.08 | 3:48.01 | 129008 | 146108
10 | 32:28.09 | 3:31.00 | 146109 | 161933
11 | 35:59.09 | 3:36.01 | 161934 | 178134
12 | 39:35.10 | 4:29.30 | 178135 | 198339
13 | 44:04.40 | 3:36.01 | 198340 | 214540
14 | 47:40.41 | 4:15.74 | 214541 | 233739
15 | 51:56.40 | 4:08.05 | 233740 | 252344
16 | 56:04.45 | 4:49.31 | 252345 | 274050
17 | 60:54.01 | 3:24.00 | 274051 | 289350


Характеристики диапазона извлечения и сообщения об ошибках

Выбранный диапазон

Имя файла Z:\Temp\Mark Ashley - Luckystar.wav

Пиковый уровень 91.6 %
Качество диапазона 99.9 %
CRC теста E7AC47EA
CRC копии E7AC47EA
Копирование… OK

Ошибок не произошло


AccurateRip: сводка

Трек 1 нет в базе данных
Трек 2 нет в базе данных
Трек 3 нет в базе данных
Трек 4 нет в базе данных
Трек 5 нет в базе данных
Трек 6 нет в базе данных
Трек 7 нет в базе данных
Трек 8 нет в базе данных
Трек 9 нет в базе данных
Трек 10 нет в базе данных
Трек 11 нет в базе данных
Трек 12 нет в базе данных
Трек 13 нет в базе данных
Трек 14 нет в базе данных
Трек 15 нет в базе данных
Трек 16 нет в базе данных
Трек 17 нет в базе данных

Ни одного трека нет в базе AccurateRip

Конец отчёта


Mark Ashley: Discography (1998 - 2017) Re-up

Tracklist CD15. 2005 - The Fans Of Modern Talking CD1:
Dance Street – DST 76081-2

01.When I See The Angels Cry (3:45)
02.I'll Be There For You Tonight (3:40)
03.Save Our Love (4:16)
04.Dream Of Great Emotion (3:44)
05.On A Sunday (3:30)
06.You Got Me With A Smile (3:34)
07.The Fans Of Modern Talking (3:20)
08.Mareen (3:48)
09.Say You'll Be Mine (3:50)
10.You Are The One (3:31)
11.Love Is Stronger (3:25)
12.I Love You So (Jc's Dancer Mix) (3:12)
13.My Valerie (4:29)
14.Love Is Like The Sea (3:23)
15.You Are The One (3:21)
16.It's Just The Way I Love You So (3:42)
17.Lover Why (3:53)
18.Forever Blue (3:39)
19.Sarah (3:39)

Exact Audio Copy V0.99 prebeta 4 from 23. January 2008

Отчёт EAC об извлечении, выполненном 22. сентября 2008, 23:44

Mark Ashley Feat.T.M.-Joy / The Fans Of Modern Talking CD1

Дисковод: PLEXTOR DVDR PX-810UF Adapter: 2 ID: 0

Режим чтения : Достоверность
Использование точного потока : Да
Отключение кэша аудио : Да
Использование указателей C2 : Нет

Коррекция смещения при чтении : 667
Способность читать области Lead-in и Lead-out : Нет
Заполнение пропущенных сэмплов тишиной : Да
Удаление блоков с тишиной в начале и конце : Нет
При вычислениях CRC использовались нулевые сэмплы : Да
Интерфейс : Встроенный Win32-интерфейс для Win NT/2000

Выходной формат : Внутренние WAV-операции
Формат сэмплов : 44.100 Гц; 16 бит; стерео


TOC извлечённого CD

Трек | Старт | Длительность | Начальный сектор | Конечный сектор
––––––––––––––––––––––––––––––––––-
1 | 0:00.00 | 3:45.02 | 0 | 16876
2 | 3:45.02 | 3:40.14 | 16877 | 33390
3 | 7:25.16 | 4:16.32 | 33391 | 52622
4 | 11:41.48 | 3:44.09 | 52623 | 69431
5 | 15:25.57 | 3:30.21 | 69432 | 85202
6 | 18:56.03 | 3:34.01 | 85203 | 101253
7 | 22:30.04 | 3:20.24 | 101254 | 116277
8 | 25:50.28 | 3:48.02 | 116278 | 133379
9 | 29:38.30 | 3:50.28 | 133380 | 150657
10 | 33:28.58 | 3:31.20 | 150658 | 166502
11 | 37:00.03 | 3:25.16 | 166503 | 181893
12 | 40:25.19 | 3:12.33 | 181894 | 196326
13 | 43:37.52 | 4:29.03 | 196327 | 216504
14 | 48:06.55 | 3:22.40 | 216505 | 231694
15 | 51:29.20 | 3:20.72 | 231695 | 246766
16 | 54:50.17 | 3:42.05 | 246767 | 263421
17 | 58:32.22 | 3:53.32 | 263422 | 280928
18 | 62:25.54 | 3:38.64 | 280929 | 297342
19 | 66:04.43 | 3:39.27 | 297343 | 313794


Характеристики диапазона извлечения и сообщения об ошибках

Выбранный диапазон

Имя файла Z:\Temp\Mark Ashley Feat.T.M.-Joy - The Fans Of Modern Talking CD1.wav

Пиковый уровень 99.0 %
Качество диапазона 99.9 %
CRC теста 8BB0BBA0
CRC копии 8BB0BBA0
Копирование… OK

Ошибок не произошло


AccurateRip: сводка

Трек 1 нет в базе данных
Трек 2 нет в базе данных
Трек 3 нет в базе данных
Трек 4 нет в базе данных
Трек 5 нет в базе данных
Трек 6 нет в базе данных
Трек 7 нет в базе данных
Трек 8 нет в базе данных
Трек 9 нет в базе данных
Трек 10 нет в базе данных
Трек 11 нет в базе данных
Трек 12 нет в базе данных
Трек 13 нет в базе данных
Трек 14 нет в базе данных
Трек 15 нет в базе данных
Трек 16 нет в базе данных
Трек 17 нет в базе данных
Трек 18 нет в базе данных
Трек 19 нет в базе данных

Ни одного трека нет в базе AccurateRip

Конец отчёта


Tracklist CD16. 2005 - The Fans Of Modern Talking CD2:

01.Mark Ashley Megamix (10:19)
02.You Are The One (Karaoke Version) (3:35)
03.I'll Be There For You Tonight (Karaoke Version) (3:36)
04.The Fans Of Modern Talking (Karaoke Version) (3:23)
05.On A Sunday (Karaoke Version) (3:27)
06.Dream Of Great Emotion (Karaoke Version) (3:46)
07.Mareen (Karaoke Version) (3:49)

Exact Audio Copy V0.99 prebeta 4 from 23. January 2008

Отчёт EAC об извлечении, выполненном 20. сентября 2008, 13:10

Mark Ashley Feat.T.M.-Joy / The Fans Of Modern Talking CD2

Дисковод: PLEXTOR DVDR PX-810UF Adapter: 2 ID: 0

Режим чтения : Достоверность
Использование точного потока : Да
Отключение кэша аудио : Да
Использование указателей C2 : Нет

Коррекция смещения при чтении : 667
Способность читать области Lead-in и Lead-out : Нет
Заполнение пропущенных сэмплов тишиной : Да
Удаление блоков с тишиной в начале и конце : Нет
При вычислениях CRC использовались нулевые сэмплы : Да
Интерфейс : Встроенный Win32-интерфейс для Win NT/2000

Выходной формат : Внутренние WAV-операции
Формат сэмплов : 44.100 Гц; 16 бит; стерео


TOC извлечённого CD

Трек | Старт | Длительность | Начальный сектор | Конечный сектор
––––––––––––––––––––––––––––––––––-
1 | 0:00.00 | 10:19.24 | 0 | 46448
2 | 10:19.24 | 3:35.30 | 46449 | 62603
3 | 13:54.54 | 3:36.10 | 62604 | 78813
4 | 17:30.64 | 3:22.51 | 78814 | 94014
5 | 20:53.40 | 3:27.00 | 94015 | 109539
6 | 24:20.40 | 3:45.42 | 109540 | 126456
7 | 28:06.07 | 3:48.54 | 126457 | 143610
8 | 34:26.61 | 12:58.03 | 155011 | 213363


Характеристики диапазона извлечения и сообщения об ошибках

Выбранный диапазон

Имя файла Z:\Temp\Mark Ashley Feat.T.M.-Joy - The Fans Of Modern Talking CD2.wav

Пиковый уровень 98.8 %
Качество диапазона 100.0 %
CRC теста 9AEB0050
CRC копии 9AEB0050
Копирование… OK

Ошибок не произошло


AccurateRip: сводка

Трек 1 нет в базе данных
Трек 2 нет в базе данных
Трек 3 нет в базе данных
Трек 4 нет в базе данных
Трек 5 нет в базе данных
Трек 6 нет в базе данных
Трек 7 нет в базе данных

Ни одного трека нет в базе AccurateRip

Конец отчёта


Mark Ashley: Discography (1998 - 2017) Re-up

Tracklist CD17. 2006 - Give A Little Sweet Love:
Music Sternchen Records – MS 426009149004

01.Give A Little Sweet Love (Single Edit) (3:56)
02.I've Never Been So Lonely (S.I.B. Version) (3:23)
03.I've Never Been So Lonely (Romantic Version) (3:40)
04.Give A Little Sweet Love (Instrumental) (3:56)
05.I've Never Been So Lonely (Instrumental) (3:18)

Exact Audio Copy V0.99 prebeta 4 from 23. January 2008

Отчёт EAC об извлечении, выполненном 20. сентября 2008, 23:58

Mark Ashley / Give A Little Sweet Love

Дисковод: PLEXTOR DVDR PX-810UF Adapter: 2 ID: 0

Режим чтения : Достоверность
Использование точного потока : Да
Отключение кэша аудио : Да
Использование указателей C2 : Нет

Коррекция смещения при чтении : 667
Способность читать области Lead-in и Lead-out : Нет
Заполнение пропущенных сэмплов тишиной : Да
Удаление блоков с тишиной в начале и конце : Нет
При вычислениях CRC использовались нулевые сэмплы : Да
Интерфейс : Встроенный Win32-интерфейс для Win NT/2000

Выходной формат : Внутренние WAV-операции
Формат сэмплов : 44.100 Гц; 16 бит; стерео


TOC извлечённого CD

Трек | Старт | Длительность | Начальный сектор | Конечный сектор
––––––––––––––––––––––––––––––––––-
1 | 0:00.00 | 3:55.46 | 0 | 17670
2 | 3:55.46 | 3:23.03 | 17671 | 32898
3 | 7:18.49 | 3:40.05 | 32899 | 49403
4 | 10:58.54 | 3:56.03 | 49404 | 67106
5 | 14:54.57 | 3:18.11 | 67107 | 81967


Характеристики диапазона извлечения и сообщения об ошибках

Выбранный диапазон

Имя файла Z:\Temp\Mark Ashley - Give A Little Sweet Love.wav

Пиковый уровень 99.0 %
Качество диапазона 100.0 %
CRC теста C6535381
CRC копии C6535381
Копирование… OK

Ошибок не произошло


AccurateRip: сводка

Трек 1 нет в базе данных
Трек 2 нет в базе данных
Трек 3 нет в базе данных
Трек 4 нет в базе данных
Трек 5 нет в базе данных

Ни одного трека нет в базе AccurateRip

Конец отчёта


Mark Ashley: Discography (1998 - 2017) Re-up

Tracklist CD18. 2006 - Give Me A Chance Single:
Rojam Records – 061201

01.Give Me A Chance (4:01)
02.Give Me A Chance (Karaoke Version) (4:01)
03.Destination Love (3:36)
04.One Race, One World (3:38)

Exact Audio Copy V0.99 prebeta 4 from 23. January 2008

Отчёт EAC об извлечении, выполненном 21. сентября 2008, 3:04

Mark Ashley / Give Me A Chance

Дисковод: PLEXTOR DVDR PX-810UF Adapter: 2 ID: 0

Режим чтения : Достоверность
Использование точного потока : Да
Отключение кэша аудио : Да
Использование указателей C2 : Нет

Коррекция смещения при чтении : 667
Способность читать области Lead-in и Lead-out : Нет
Заполнение пропущенных сэмплов тишиной : Да
Удаление блоков с тишиной в начале и конце : Нет
При вычислениях CRC использовались нулевые сэмплы : Да
Интерфейс : Встроенный Win32-интерфейс для Win NT/2000

Выходной формат : Внутренние WAV-операции
Формат сэмплов : 44.100 Гц; 16 бит; стерео


TOC извлечённого CD

Трек | Старт | Длительность | Начальный сектор | Конечный сектор
––––––––––––––––––––––––––––––––––-
1 | 0:00.00 | 4:00.66 | 0 | 18065
2 | 4:00.66 | 4:00.61 | 18066 | 36126
3 | 8:01.52 | 3:36.36 | 36127 | 52362
4 | 11:38.13 | 3:38.30 | 52363 | 68742


Характеристики диапазона извлечения и сообщения об ошибках

Выбранный диапазон

Имя файла Z:\Temp\Mark Ashley - Give Me A Chance.wav

Пиковый уровень 100.0 %
Качество диапазона 100.0 %
CRC теста 86E3E10F
CRC копии 86E3E10F
Копирование… OK

Ошибок не произошло


AccurateRip: сводка

Трек 1 нет в базе данных
Трек 2 нет в базе данных
Трек 3 нет в базе данных
Трек 4 нет в базе данных

Ни одного трека нет в базе AccurateRip

Конец отчёта


Mark Ashley: Discography (1998 - 2017) Re-up

Tracklist CD19. 2006 - Give Me A Chance:
Rojam Records – 061201

01.Give Me A Chance (4:01)
02.Blue Horizon (3:41)
03.Destination Love (3:36)
04.Spanish Guitar (3:36)
05.Could This Be Love (3:33)
06.Give Me A Call (3:43)
07.Stop Playing Games (3:37)
08.Vienna By Night (3:59)
09.When The Night Falls (5:01)
10.Wheel Of Fortune (3:33)
11.You Are My Paradise (3:13)
12.One Race One World (3:38)

Exact Audio Copy V0.99 prebeta 4 from 23. January 2008

Отчёт EAC об извлечении, выполненном 21. сентября 2008, 2:16

Mark Ashley / Give Me A Chance

Дисковод: PLEXTOR DVDR PX-810UF Adapter: 2 ID: 0

Режим чтения : Достоверность
Использование точного потока : Да
Отключение кэша аудио : Да
Использование указателей C2 : Нет

Коррекция смещения при чтении : 667
Способность читать области Lead-in и Lead-out : Нет
Заполнение пропущенных сэмплов тишиной : Да
Удаление блоков с тишиной в начале и конце : Нет
При вычислениях CRC использовались нулевые сэмплы : Да
Интерфейс : Встроенный Win32-интерфейс для Win NT/2000

Выходной формат : Внутренние WAV-операции
Формат сэмплов : 44.100 Гц; 16 бит; стерео


TOC извлечённого CD

Трек | Старт | Длительность | Начальный сектор | Конечный сектор
––––––––––––––––––––––––––––––––––-
1 | 0:00.00 | 4:00.67 | 0 | 18066
2 | 4:00.67 | 3:40.66 | 18067 | 34632
3 | 7:41.58 | 3:36.37 | 34633 | 50869
4 | 11:18.20 | 3:35.42 | 50870 | 67036
5 | 14:53.62 | 3:33.22 | 67037 | 83033
6 | 18:27.09 | 3:42.53 | 83034 | 99736
7 | 22:09.62 | 3:37.07 | 99737 | 116018
8 | 25:46.69 | 3:58.43 | 116019 | 133911
9 | 29:45.37 | 5:01.18 | 133912 | 156504
10 | 34:46.55 | 3:32.65 | 156505 | 172469
11 | 38:19.45 | 3:13.17 | 172470 | 186961
12 | 41:32.62 | 3:38.31 | 186962 | 203342


Характеристики диапазона извлечения и сообщения об ошибках

Выбранный диапазон

Имя файла Z:\Temp\Mark Ashley - Give Me A Chance.wav

Пиковый уровень 100.0 %
Качество диапазона 99.9 %
CRC теста FFA62AC8
CRC копии FFA62AC8
Копирование… OK

Ошибок не произошло


AccurateRip: сводка

Трек 1 нет в базе данных
Трек 2 нет в базе данных
Трек 3 нет в базе данных
Трек 4 нет в базе данных
Трек 5 нет в базе данных
Трек 6 нет в базе данных
Трек 7 нет в базе данных
Трек 8 нет в базе данных
Трек 9 нет в базе данных
Трек 10 нет в базе данных
Трек 11 нет в базе данных
Трек 12 нет в базе данных

Ни одного трека нет в базе AccurateRip

Конец отчёта


Mark Ashley: Discography (1998 - 2017) Re-up

Tracklist CD20. 2008 - Heartbreak Boulevard:
Spectre Media – 1075728

01.Operation Love (3:11)
02.Back To The Summer '97 (3:28)
03.Gimme Gimme Money (3:46)
04.Cinderella's Heart (4:39)
05.Marilyn's Dream (3:43)
06.Lonely Nights In Avalon (3:37)
07.Do You Remember (3:35)
08.King Of Roses (4:15)
09.Heartbreak Boulevard (3:57)
10.High In The Sky (3:28)
11.In The Name Of Love (3:22)
12.Magical Moon (3:46)
13.You Kill Me With Your Smile (3:39)
14.Never Say Never (3:29)
15.Give A Little Sweet Love (3:53)

Exact Audio Copy V0.99 prebeta 4 from 23. January 2008

Отчёт EAC об извлечении, выполненном 22. сентября 2008, 21:57

Mark Ashley / Heartbreak Boulevard

Дисковод: _NEC DVD_RW ND-4571A Adapter: 1 ID: 0

Режим чтения : Достоверность
Использование точного потока : Да
Отключение кэша аудио : Да
Использование указателей C2 : Нет

Коррекция смещения при чтении : 48
Способность читать области Lead-in и Lead-out : Нет
Заполнение пропущенных сэмплов тишиной : Да
Удаление блоков с тишиной в начале и конце : Нет
При вычислениях CRC использовались нулевые сэмплы : Да
Интерфейс : Встроенный Win32-интерфейс для Win NT/2000

Выходной формат : Внутренние WAV-операции
Формат сэмплов : 44.100 Гц; 16 бит; стерео


TOC извлечённого CD

Трек | Старт | Длительность | Начальный сектор | Конечный сектор
––––––––––––––––––––––––––––––––––-
1 | 0:00.00 | 3:10.57 | 0 | 14306
2 | 3:10.57 | 3:28.01 | 14307 | 29907
3 | 6:38.58 | 3:46.07 | 29908 | 46864
4 | 10:24.65 | 4:38.74 | 46865 | 67788
5 | 15:03.64 | 3:43.10 | 67789 | 84523
6 | 18:46.74 | 3:37.04 | 84524 | 100802
7 | 22:24.03 | 3:35.24 | 100803 | 116951
8 | 25:59.27 | 4:14.41 | 116952 | 136042
9 | 30:13.68 | 3:56.71 | 136043 | 153813
10 | 34:10.64 | 3:27.56 | 153814 | 169394
11 | 37:38.45 | 3:22.00 | 169395 | 184544
12 | 41:00.45 | 3:46.14 | 184545 | 201508
13 | 44:46.59 | 3:39.13 | 201509 | 217946
14 | 48:25.72 | 3:29.26 | 217947 | 233647
15 | 51:55.23 | 3:52.62 | 233648 | 251109


Характеристики диапазона извлечения и сообщения об ошибках

Выбранный диапазон

Имя файла Z:\Temp\Mark Ashley - Heartbreak Boulevard.wav

Пиковый уровень 100.0 %
Качество диапазона 100.0 %
CRC теста 264A047D
CRC копии 264A047D
Копирование… OK

Ошибок не произошло


AccurateRip: сводка

Трек 1 нет в базе данных
Трек 2 нет в базе данных
Трек 3 нет в базе данных
Трек 4 нет в базе данных
Трек 5 нет в базе данных
Трек 6 нет в базе данных
Трек 7 нет в базе данных
Трек 8 нет в базе данных
Трек 9 нет в базе данных
Трек 10 нет в базе данных
Трек 11 нет в базе данных
Трек 12 нет в базе данных
Трек 13 нет в базе данных
Трек 14 нет в базе данных
Трек 15 нет в базе данных

Ни одного трека нет в базе AccurateRip

Конец отчёта


Mark Ashley: Discography (1998 - 2017) Re-up

Tracklist CD21. 2010 - Play The Music - The 7th Album:
Music Sternchen Records – MSLP 426009149006

01.You And Me (The Power Of Love) (3:58)
02.I've Never Been So Lonely (New Version) (3:47)
03.Touch By Touch (4:37)
04.It's All Over (4:22)
05.I Need You Tonight (3:12)
06.Marilyn's Dream (New Version) (3:37)
07.Vienna By Night (New Version) (3:51)
08.To The Moon And Back (New Version) (3:58)
09.Give A Little Sweet Love (New Version) (3:18)
10.Mareen (New Version) (3:58)
11.Play The Music (4:07)
12.One, Two, Three, Four (Feat. Rakel) (3:19)
13.Noche De Fiesta (Feat. J. Martinez) (3:47)
14.You're My Heart, You're My Soul (3:44)
15.Mark Ashley Megamix (11:07)

Exact Audio Copy V1.0 beta 1 from 15. November 2010

Отчёт EAC об извлечении, выполненном 10. апреля 2011, 2:32

Mark Ashley / Play The Music - The 7th Album

Дисковод: PIONEER DVD-RW DVR-218L Adapter: 0 ID: 1

Режим чтения : Достоверность
Использование точного потока : Да
Отключение кэша аудио : Да
Использование указателей C2 : Нет

Коррекция смещения при чтении : 6
Способность читать области Lead-in и Lead-out : Нет
Заполнение пропущенных сэмплов тишиной : Да
Удаление блоков с тишиной в начале и конце : Нет
При вычислениях CRC использовались нулевые сэмплы : Да
Интерфейс : Установленный внешний ASPI-интерфейс

Выходной формат : Внутренние WAV-операции
Формат сэмплов : 44.100 Гц; 16 бит; стерео


TOC извлечённого CD

Трек | Старт | Длительность | Начальный сектор | Конечный сектор
––––––––––––––––––––––––––––––––––-
1 | 4:08.07 | 3:58.21 | 18607 | 36477
2 | 8:06.28 | 3:47.01 | 36478 | 53503
3 | 11:53.29 | 4:37.10 | 53504 | 74288
4 | 16:30.39 | 4:22.10 | 74289 | 93948
5 | 20:52.49 | 3:12.09 | 93949 | 108357
6 | 24:04.58 | 3:36.56 | 108358 | 124613
7 | 27:41.39 | 3:50.49 | 124614 | 141912
8 | 31:32.13 | 3:58.03 | 141913 | 159765
9 | 35:30.16 | 3:18.37 | 159766 | 174652
10 | 38:48.53 | 3:57.70 | 174653 | 192497
11 | 42:46.48 | 4:06.73 | 192498 | 211020
12 | 46:53.46 | 3:19.09 | 211021 | 225954
13 | 50:12.55 | 3:47.02 | 225955 | 242981
14 | 53:59.57 | 3:43.44 | 242982 | 259750
15 | 57:43.26 | 11:06.53 | 259751 | 309753


Характеристики диапазона извлечения и сообщения об ошибках

Выбранный диапазон (Секторы 18607-309753)

Имя файла Z:\Temp\Mark Ashley - Play The Music - The 7th Album.wav

Пиковый уровень 98.8 %
Скорость извлечения 0.3 X
Качество диапазона 100.0 %
CRC копии 8ABB1E36
Копирование… OK

Ошибок не произошло


AccurateRip: сводка

Трек 1 отсутствует в базе данных
Трек 2 отсутствует в базе данных
Трек 3 отсутствует в базе данных
Трек 4 отсутствует в базе данных
Трек 5 отсутствует в базе данных
Трек 6 отсутствует в базе данных
Трек 7 отсутствует в базе данных
Трек 8 отсутствует в базе данных
Трек 9 отсутствует в базе данных
Трек 10 отсутствует в базе данных
Трек 11 отсутствует в базе данных
Трек 12 отсутствует в базе данных
Трек 13 отсутствует в базе данных
Трек 14 отсутствует в базе данных
Трек 15 отсутствует в базе данных

Ни одного трека нет в базе AccurateRip

Конец отчёта

==== Контрольная сумма отчёта 21108D6ADD0E7FD03B3AB0C7E1696556A10FA70D7BB3F3F38C8013532535C9D4 ====

––––––––––––––––––––––––––––––

Exact Audio Copy V1.0 beta 1 from 15. November 2010

Отчёт EAC об извлечении, выполненном 10. апреля 2011, 16:15

Mark Ashley / Play The Music - The 7th Album

Дисковод: PIONEER DVD-RW DVR-218L Adapter: 0 ID: 1

Режим чтения : Достоверность
Использование точного потока : Да
Отключение кэша аудио : Да
Использование указателей C2 : Нет

Коррекция смещения при чтении : 6
Способность читать области Lead-in и Lead-out : Нет
Заполнение пропущенных сэмплов тишиной : Да
Удаление блоков с тишиной в начале и конце : Нет
При вычислениях CRC использовались нулевые сэмплы : Да
Интерфейс : Установленный внешний ASPI-интерфейс

Выходной формат : Внутренние WAV-операции
Формат сэмплов : 44.100 Гц; 16 бит; стерео


TOC извлечённого CD

Трек | Старт | Длительность | Начальный сектор | Конечный сектор
––––––––––––––––––––––––––––––––––-
1 | 4:08.07 | 3:58.21 | 18607 | 36477
2 | 8:06.28 | 3:47.01 | 36478 | 53503
3 | 11:53.29 | 4:37.10 | 53504 | 74288
4 | 16:30.39 | 4:22.10 | 74289 | 93948
5 | 20:52.49 | 3:12.09 | 93949 | 108357
6 | 24:04.58 | 3:36.56 | 108358 | 124613
7 | 27:41.39 | 3:50.49 | 124614 | 141912
8 | 31:32.13 | 3:58.03 | 141913 | 159765
9 | 35:30.16 | 3:18.37 | 159766 | 174652
10 | 38:48.53 | 3:57.70 | 174653 | 192497
11 | 42:46.48 | 4:06.73 | 192498 | 211020
12 | 46:53.46 | 3:19.09 | 211021 | 225954
13 | 50:12.55 | 3:47.02 | 225955 | 242981
14 | 53:59.57 | 3:43.44 | 242982 | 259750
15 | 57:43.26 | 11:06.53 | 259751 | 309753


Характеристики диапазона извлечения и сообщения об ошибках

Выбранный диапазон (Секторы 18607-309753)

Имя файла Z:\Temp\Mark Ashley - Play The Music - The 7th Album.wav

Пиковый уровень 98.8 %
Скорость извлечения 0.3 X
Качество диапазона 100.0 %
CRC копии 8ABB1E36
Копирование… OK

Ошибок не произошло


AccurateRip: сводка

Трек 1 отсутствует в базе данных
Трек 2 отсутствует в базе данных
Трек 3 отсутствует в базе данных
Трек 4 отсутствует в базе данных
Трек 5 отсутствует в базе данных
Трек 6 отсутствует в базе данных
Трек 7 отсутствует в базе данных
Трек 8 отсутствует в базе данных
Трек 9 отсутствует в базе данных
Трек 10 отсутствует в базе данных
Трек 11 отсутствует в базе данных
Трек 12 отсутствует в базе данных
Трек 13 отсутствует в базе данных
Трек 14 отсутствует в базе данных
Трек 15 отсутствует в базе данных

Ни одного трека нет в базе AccurateRip

Конец отчёта

==== Контрольная сумма отчёта 9777C32389F69ED45E4DCDE81EAEA3C7474C53400B692181246DCE2DD48F980B ====


Mark Ashley: Discography (1998 - 2017) Re-up

Tracklist CD22. 2011 - Play The Music (Brazilian Special Edition):
Italo 4ever – AA001000

01.Touch By Touch (4:35)
02.I Need You Tonight (3:10)
03.You're My Heart, You're My Soul (3:42)
04.It's All Over (4:20)
05.You And Me (The Power Of Love) (3:56)
06.Noche De Fiesta (Feat. J. Martinez) (3:45)
07.One, Two, Three, Four (Feat. Rakel) (3:17)
08.Vienna By Night (New Version) (3:49)
09.Marilyn's Dream (New Version) (3:35)
10.I've Never Been So Lonely (New Version) (3:45)
11.Mareen (New Version) (3:56)
12.To The Moon And Back (New Version) (3:56)
13.Give A Little Sweet Love (New Version) (3:16)
14.Play The Music (4:05)
BONUS TRACKS:
15.Cheek To Cheek (Brazilian Version) (3:50)
16.Cheek To Cheek (80's Classic Brazilian Version) (4:06)
17.Mark Ashley Megamix (Radio Version) (6:09)

Exact Audio Copy V1.0 beta 1 from 15. November 2010

Отчёт EAC об извлечении, выполненном 9. апреля 2011, 17:06

Mark Ashley / Play The Music (Brazilian Special Edition)

Дисковод: ASUS DRW-2014S1T Adapter: 0 ID: 2

Режим чтения : Достоверность
Использование точного потока : Да
Отключение кэша аудио : Да
Использование указателей C2 : Нет

Коррекция смещения при чтении : 6
Способность читать области Lead-in и Lead-out : Нет
Заполнение пропущенных сэмплов тишиной : Да
Удаление блоков с тишиной в начале и конце : Нет
При вычислениях CRC использовались нулевые сэмплы : Да
Интерфейс : Установленный внешний ASPI-интерфейс

Выходной формат : Внутренние WAV-операции
Формат сэмплов : 44.100 Гц; 16 бит; стерео


TOC извлечённого CD

Трек | Старт | Длительность | Начальный сектор | Конечный сектор
––––––––––––––––––––––––––––––––––-
1 | 0:00.00 | 4:35.07 | 0 | 20631
2 | 4:35.07 | 3:10.05 | 20632 | 34886
3 | 7:45.12 | 3:41.40 | 34887 | 51501
4 | 11:26.52 | 4:20.06 | 51502 | 71007
5 | 15:46.58 | 3:56.17 | 71008 | 88724
6 | 19:43.00 | 3:44.71 | 88725 | 105595
7 | 23:27.71 | 3:17.05 | 105596 | 120375
8 | 26:45.01 | 3:48.44 | 120376 | 137519
9 | 30:33.45 | 3:34.52 | 137520 | 153621
10 | 34:08.22 | 3:44.71 | 153622 | 170492
11 | 37:53.18 | 3:55.65 | 170493 | 188182
12 | 41:49.08 | 3:55.74 | 188183 | 205881
13 | 45:45.07 | 3:16.33 | 205882 | 220614
14 | 49:01.40 | 4:04.68 | 220615 | 238982
15 | 53:06.33 | 3:49.64 | 238983 | 256221
16 | 56:56.22 | 4:06.07 | 256222 | 274678
17 | 61:02.29 | 6:09.08 | 274679 | 302361
18 | 69:43.37 | 4:28.58 | 313762 | 333919


Характеристики диапазона извлечения и сообщения об ошибках

Выбранный диапазон

Имя файла Z:\Temp\Mark Ashley - Play The Music (Brazilian Special Edition).wav

Пиковый уровень 98.8 %
Скорость извлечения 0.4 X
Качество диапазона 100.0 %
CRC теста ED52DEBF
CRC копии ED52DEBF
Копирование… OK

Ошибок не произошло


AccurateRip: сводка

Трек 1 отсутствует в базе данных
Трек 2 отсутствует в базе данных
Трек 3 отсутствует в базе данных
Трек 4 отсутствует в базе данных
Трек 5 отсутствует в базе данных
Трек 6 отсутствует в базе данных
Трек 7 отсутствует в базе данных
Трек 8 отсутствует в базе данных
Трек 9 отсутствует в базе данных
Трек 10 отсутствует в базе данных
Трек 11 отсутствует в базе данных
Трек 12 отсутствует в базе данных
Трек 13 отсутствует в базе данных
Трек 14 отсутствует в базе данных
Трек 15 отсутствует в базе данных
Трек 16 отсутствует в базе данных
Трек 17 отсутствует в базе данных

Ни одного трека нет в базе AccurateRip

Конец отчёта

==== Контрольная сумма отчёта C72E8DC4414254743F66EFEF979625F8723937898528285E431184F37B6BD45C ====


Mark Ashley: Discography (1998 - 2017) Re-up

Tracklist CD23. 2011 - Tango In The Night (The 8th Album):
Music Sternchen Records – MSLP 426009149008

01.Tango In The Night (3:59)
02.Hey Little Girl (3:55)
03.Luckystar (New Version) (3:44)
04.Cinderella's Heart (Edit Dancefloor Remix) (4:50)
05.The Fans Of Modern Talking (New Version) (3:33)
06.Undying (New Version) (3:36)
07.In The Name Of Love (New Version) (3:05)
08.Words (3:34)
09.Save Me (Don't Break Me) (New Version) (3:17)
10.Never Say Never (New Version) (3:33)
11.Flames Of Love (4:09)
12.Wenn Ich Dich Wiederseh (3:46)
13.Jeden Tag (4:18)
14.It's Christmas Time (New Version) (3:28)
15.Stay (4:01)
16.Cinderella's Heart (Special Dancefloor Remix) (8:52)
17.Tango In The Night (Acapella) (2:41)
18.Hey Little Girl (Acapella) (3:10)

Exact Audio Copy V1.0 beta 3 from 29. August 2011

Отчёт EAC об извлечении, выполненном 10. апреля 2012, 19:29

Mark Ashley / Tango In The Night (The 8th Album)

Дисковод: ASUS DRW-2014S1T Adapter: 11 ID: 0

Режим чтения : Достоверность
Использование точного потока : Да
Отключение кэша аудио : Да
Использование указателей C2 : Нет

Коррекция смещения при чтении : 6
Способность читать области Lead-in и Lead-out : Нет
Заполнение пропущенных сэмплов тишиной : Да
Удаление блоков с тишиной в начале и конце : Нет
При вычислениях CRC использовались нулевые сэмплы : Да
Интерфейс : Установленный внешний ASPI-интерфейс

Выходной формат : Внутренние WAV-операции
Формат сэмплов : 44.100 Гц; 16 бит; стерео


TOC извлечённого CD

Трек | Старт | Длительность | Начальный сектор | Конечный сектор
––––––––––––––––––––––––––––––––––-
1 | 0:00.00 | 3:58.42 | 0 | 17891
2 | 3:58.42 | 3:54.69 | 17892 | 35510
3 | 7:53.36 | 3:43.40 | 35511 | 52275
4 | 11:37.01 | 4:49.73 | 52276 | 74023
5 | 16:26.74 | 3:32.58 | 74024 | 89981
6 | 19:59.57 | 3:35.73 | 89982 | 106179
7 | 23:35.55 | 3:05.29 | 106180 | 120083
8 | 26:41.09 | 3:34.23 | 120084 | 136156
9 | 30:15.32 | 3:17.10 | 136157 | 150941
10 | 33:32.42 | 3:32.39 | 150942 | 166880
11 | 37:05.06 | 4:09.03 | 166881 | 185558
12 | 41:14.09 | 3:46.34 | 185559 | 202542
13 | 45:00.43 | 4:18.10 | 202543 | 221902
14 | 49:18.53 | 3:28.19 | 221903 | 237521
15 | 52:46.72 | 4:01.09 | 237522 | 255605
16 | 56:48.06 | 8:51.38 | 255606 | 295468
17 | 65:39.44 | 2:40.58 | 295469 | 307526
18 | 68:20.27 | 3:09.59 | 307527 | 321760


Характеристики диапазона извлечения и сообщения об ошибках

Выбранный диапазон

Имя файла Z:\Temp\Mark Ashley - Tango In The Night (The 8th Album).wav

Пиковый уровень 98.8 %
Скорость извлечения 9.5 X
Качество диапазона 100.0 %
CRC теста AFF3F142
CRC копии AFF3F142
Копирование… OK

Ошибок не произошло


AccurateRip: сводка

Трек 1 отсутствует в базе данных
Трек 2 отсутствует в базе данных
Трек 3 отсутствует в базе данных
Трек 4 отсутствует в базе данных
Трек 5 отсутствует в базе данных
Трек 6 отсутствует в базе данных
Трек 7 отсутствует в базе данных
Трек 8 отсутствует в базе данных
Трек 9 отсутствует в базе данных
Трек 10 отсутствует в базе данных
Трек 11 отсутствует в базе данных
Трек 12 отсутствует в базе данных
Трек 13 отсутствует в базе данных
Трек 14 отсутствует в базе данных
Трек 15 отсутствует в базе данных
Трек 16 отсутствует в базе данных
Трек 17 отсутствует в базе данных
Трек 18 отсутствует в базе данных

Ни одного трека нет в базе AccurateRip

Конец отчёта

–– CUETools DB Plugin V2.1.3

[CTDB TOCID: 9kILSSCv4Okh40xPwMOV24a5AV0-] disk not present in database, Submit result: 9kILSSCv4Okh40xPwMOV24a5AV0- has been uploaded


==== Контрольная сумма отчёта 2E5610EB4169BD63B427CBAAF1972D3BC4B0D33DBE560634FA3DFBE040253B4F ====


Mark Ashley: Discography (1998 - 2017) Re-up

Tracklist CD24. 2017 - I Will Not Forget You:
Music Sternchen Records – MSLP 4260091490203

01.Jenny Come Home (4:03)
02.Please Believe Me (3:07)
03.Breath Of An Angel (3:22)
04.I Will Not Forget You (3:13)
05.A Night Of Desire (3:29)
06.You're My One Love (3:35)
07.Words (3:21)
08.Pulse Of Time (3:34)
09.Tragedy Of Love (3:32)
10.Hot Like Fire (3:20)
11.Face On The Wall (3:31)
12.Heart To Heart (4:14)
13.Jenny Come Home (Karaoke Version) (4:02)
14.I Will Not Forget You (Karaoke Version) (3:12)
15.Hot Like Fire (Karaoke Version) (3:20)
16.Breath Of An Angel (Karaoke Version) (3:20)

Exact Audio Copy V1.3 from 2. September 2016

Отчёт EAC об извлечении, выполненном 19. февраля 2018, 23:07

Mark Ashley / I Will Not Forget You

Дисковод: ASUS DRW-2014S1T Adapter: 1 ID: 0

Режим чтения : Достоверность
Использование точного потока : Да
Отключение кэша аудио : Да
Использование указателей C2 : Нет

Коррекция смещения при чтении : 6
Способность читать области Lead-in и Lead-out : Нет
Заполнение пропущенных сэмплов тишиной : Да
Удаление блоков с тишиной в начале и конце : Нет
При вычислениях CRC использовались нулевые сэмплы : Да
Интерфейс : Встроенный Win32-интерфейс для Win NT/2000

Выходной формат : Внутренние WAV-операции
Формат сэмплов : 44.100 Гц; 16 бит; стерео


TOC извлечённого CD

Трек | Старт | Длительность | Начальный сектор | Конечный сектор
––––––––––––––––––––––––––––––––––-
1 | 0:00.00 | 4:02.38 | 0 | 18187
2 | 4:02.38 | 3:07.18 | 18188 | 32230
3 | 7:09.56 | 3:22.12 | 32231 | 47392
4 | 10:31.68 | 3:12.39 | 47393 | 61831
5 | 13:44.32 | 3:29.37 | 61832 | 77543
6 | 17:13.69 | 3:35.00 | 77544 | 93668
7 | 20:48.69 | 3:20.54 | 93669 | 108722
8 | 24:09.48 | 3:34.15 | 108723 | 124787
9 | 27:43.63 | 3:32.09 | 124788 | 140696
10 | 31:15.72 | 3:20.18 | 140697 | 155714
11 | 34:36.15 | 3:31.06 | 155715 | 171545
12 | 38:07.21 | 4:13.64 | 171546 | 190584
13 | 42:21.10 | 4:02.36 | 190585 | 208770
14 | 46:23.46 | 3:12.35 | 208771 | 223205
15 | 49:36.06 | 3:20.19 | 223206 | 238224
16 | 52:56.25 | 3:20.17 | 238225 | 253241


Характеристики диапазона извлечения и сообщения об ошибках

Выбранный диапазон

Имя файла Z:\Temp\Mark Ashley - I Will Not Forget You.wav

Пиковый уровень 98.8 %
Скорость извлечения 8.5 X
Качество диапазона 100.0 %
CRC теста FB735761
CRC копии FB735761
Копирование… OK

Ошибок не произошло


AccurateRip: сводка

Трек 1 : извлечено точно (доверие 1) [2474EC48] (AR v2)
Трек 2 : извлечено точно (доверие 1) [C1313565] (AR v2)
Трек 3 : извлечено точно (доверие 1) [5436C2E2] (AR v2)
Трек 4 : извлечено точно (доверие 1) [E434CC55] (AR v2)
Трек 5 : извлечено точно (доверие 1) [FA45FDF1] (AR v2)
Трек 6 : извлечено точно (доверие 1) [5B12B692] (AR v2)
Трек 7 : извлечено точно (доверие 1) [9DE0930B] (AR v2)
Трек 8 : извлечено точно (доверие 1) [D857FA1B] (AR v2)
Трек 9 : извлечено точно (доверие 1) [05977233] (AR v2)
Трек 10 : извлечено точно (доверие 1) [9D9E439D] (AR v2)
Трек 11 : извлечено точно (доверие 1) [4F418CBB] (AR v2)
Трек 12 : извлечено точно (доверие 1) [C431BF77] (AR v2)
Трек 13 : извлечено точно (доверие 1) [990DF815] (AR v2)
Трек 14 : извлечено точно (доверие 1) [0B42972B] (AR v2)
Трек 15 : извлечено точно (доверие 1) [58AFB1A2] (AR v2)
Трек 16 : извлечено точно (доверие 1) [EACB9D9C] (AR v2)

Все треки извлечены точно

Конец отчёта

–– CUETools DB Plugin V2.1.6

[CTDB TOCID: tWb7gLkKqHeQTvPRasmLrB2AeFw-] found
Submit result: already submitted
Track | CTDB Status
1 | (7/7) Accurately ripped
2 | (7/7) Accurately ripped
3 | (7/7) Accurately ripped
4 | (7/7) Accurately ripped
5 | (7/7) Accurately ripped
6 | (7/7) Accurately ripped
7 | (7/7) Accurately ripped
8 | (7/7) Accurately ripped
9 | (7/7) Accurately ripped
10 | (7/7) Accurately ripped
11 | (7/7) Accurately ripped
12 | (7/7) Accurately ripped
13 | (7/7) Accurately ripped
14 | (7/7) Accurately ripped
15 | (7/7) Accurately ripped
16 | (7/7) Accurately ripped


==== Контрольная сумма отчёта DA009DD1F180AB78606AFF0AF313EE4C7A474F2892062DFA9320059BC7F550AA ====


All thanks go to the original releaser

Mark Ashley in my Blog

Download Mark Ashley: Discography (1998 - 2017):