Tags
Language
Tags

Metallica - Re-Fuel (2004) [4CD Bootleg Flip-Top Box Set]

Posted By: v3122
Metallica - Re-Fuel (2004) [4CD Bootleg Flip-Top Box Set]

Metallica - Re-Fuel (2004)
EAC | Flac(Image) + Cue + Log & MP3 CBR 320Kbps
Chatback Records | ~ 592 or 223 Mb | Artwork(jpg) -> 31 Mb
Thrash Metal

~ Box Set includes Fuel CD Singles Part 1-3 & Interview CD ~

Metallica - Re-Fuel (2004):

Metallica - Re-Fuel (2004) [4CD Bootleg Flip-Top Box Set]

Tracklist CD1 - METCD 16/568 413-2:

01. Fuel (4:31)
02. Sad But True (Live) (6:24)
03. Nothing Else Matters (Live) (6:09)

Exact Audio Copy V0.99 prebeta 5 from 4. May 2009

EAC extraction logfile from 16. September 2011, 20:08

Metallica / Re-Fuel (Part 1, METCD 16)

Used drive : PLEXTOR DVDR PX-760A Adapter: 0 ID: 0

Read mode : Secure
Utilize accurate stream : Yes
Defeat audio cache : Yes
Make use of C2 pointers : No

Read offset correction : 30
Overread into Lead-In and Lead-Out : No
Fill up missing offset samples with silence : Yes
Delete leading and trailing silent blocks : No
Null samples used in CRC calculations : Yes
Used interface : Native Win32 interface for Win NT & 2000

Used output format : User Defined Encoder
Selected bitrate : 1024 kBit/s
Quality : High
Add ID3 tag : No
Command line compressor : C:\Program Files (x86)\Exact Audio Copy\Flac\flac.exe
Additional command line options : -8 -V %s


TOC of the extracted CD

Track | Start | Length | Start sector | End sector
––––––––––––––––––––––––––––-
1 | 0:00.32 | 4:30.63 | 32 | 20344
2 | 4:31.20 | 6:23.60 | 20345 | 49129
3 | 10:55.05 | 6:08.65 | 49130 | 76794


Range status and errors

Selected range

Filename D:\bki71\Metallica\Metallica - Re-Fuel (Part 1, METCD 16).wav

Peak level 100.0 %
Range quality 100.0 %
Test CRC 72A6CBB2
Copy CRC 72A6CBB2
Copy OK

No errors occurred


AccurateRip summary

Track 1 accurately ripped (confidence 4) [4973DEB8]
Track 2 accurately ripped (confidence 5) [F034ABBB]
Track 3 accurately ripped (confidence 5) [9B868FB7]

All tracks accurately ripped

End of status report


[CUETools log; Date: 13.08.2019 13:26:13; Version: 2.1.4]
Pregap length 00:00:32.
[AccurateRip ID: 00023b7e-00078ebc-2003ff03] found.
Track [ CRC | V2 ] Status
01 [4973deb8|b065eb51] (04+04/19) Accurately ripped
02 [f034abbb|30653173] (05+03/21) Accurately ripped
03 [9b868fb7|b6542e7b] (05+03/20) Accurately ripped
Offsetted by -2563:
01 [b57eb575] (08/19) Accurately ripped
02 [c2db0fc7] (09/21) Accurately ripped
03 [6ec8c50f] (08/20) Accurately ripped

Track Peak [ CRC32 ] [W/O NULL] [ LOG ]
– 99,9 [72A6CBB2] [A32E5A23] CRC32
01 99,9 [3E80AC6E] [E6269957]
02 99,9 [E8DEFCAB] [A30C8C71]
03 99,9 [B0DD233D] [785DEAB8]


Metallica - Re-Fuel (2004) [4CD Bootleg Flip-Top Box Set]

Tracklist CD2 - METDD 16/568 415-2:

01. Fuel (4:32)
02. Wherever I May Roam (Live) (6:51)
03. One (Live) (8:07)

Exact Audio Copy V0.99 prebeta 5 from 4. May 2009

EAC extraction logfile from 16. September 2011, 20:18

Metallica / Re-Fuel (Part 2, METDD 16)

Used drive : PLEXTOR DVDR PX-760A Adapter: 0 ID: 0

Read mode : Secure
Utilize accurate stream : Yes
Defeat audio cache : Yes
Make use of C2 pointers : No

Read offset correction : 30
Overread into Lead-In and Lead-Out : No
Fill up missing offset samples with silence : Yes
Delete leading and trailing silent blocks : No
Null samples used in CRC calculations : Yes
Used interface : Native Win32 interface for Win NT & 2000

Used output format : User Defined Encoder
Selected bitrate : 1024 kBit/s
Quality : High
Add ID3 tag : No
Command line compressor : C:\Program Files (x86)\Exact Audio Copy\Flac\flac.exe
Additional command line options : -8 -V %s


TOC of the extracted CD

Track | Start | Length | Start sector | End sector
––––––––––––––––––––––––––––-
1 | 0:00.32 | 4:31.38 | 32 | 20394
2 | 4:31.70 | 6:50.70 | 20395 | 51214
3 | 11:22.65 | 8:06.67 | 51215 | 87731


Range status and errors

Selected range

Filename D:\bki71\Metallica\Metallica - Re-Fuel (Part 2, METDD 16).wav

Peak level 100.0 %
Range quality 100.0 %
Test CRC 4468B28F
Copy CRC 4468B28F
Copy OK

No errors occurred


AccurateRip summary

Track 1 accurately ripped (confidence 5) [EE7A29E0]
Track 2 accurately ripped (confidence 6) [72B4013F]
Track 3 accurately ripped (confidence 6) [FE8BC924]

All tracks accurately ripped

End of status report


[CUETools log; Date: 13.08.2019 13:27:12; Version: 2.1.4]
Pregap length 00:00:32.
[AccurateRip ID: 00026e8e-00085273-20049103] found.
Track [ CRC | V2 ] Status
01 [ee7a29e0|323092b2] (06+05/11) Accurately ripped
02 [72b4013f|057d1228] (07+06/13) Accurately ripped
03 [fe8bc924|770a24fa] (07+06/13) Accurately ripped

Track Peak [ CRC32 ] [W/O NULL] [ LOG ]
– 99,9 [4468B28F] [5CE81306] CRC32
01 99,9 [3554F5F2] [248E26D9]
02 99,9 [7F7FF216] [4081765C]
03 99,9 [1DB9BC1E] [0EB93F49]


Metallica - Re-Fuel (2004) [4CD Bootleg Flip-Top Box Set]

Tracklist CD3 - METED 16/568 417-2:

01. Fuel (4:30)
02. Until It Sleeps (Live) (4:26)
03. Fuel (Live) (4:42)
04. Fuel (Demo) (4:25)

Exact Audio Copy V0.99 prebeta 5 from 4. May 2009

EAC extraction logfile from 16. September 2011, 20:36

Metallica / Re-Fuel (Part 3, METED 16)

Used drive : PLEXTOR DVDR PX-760A Adapter: 0 ID: 0

Read mode : Secure
Utilize accurate stream : Yes
Defeat audio cache : Yes
Make use of C2 pointers : No

Read offset correction : 30
Overread into Lead-In and Lead-Out : No
Fill up missing offset samples with silence : Yes
Delete leading and trailing silent blocks : No
Null samples used in CRC calculations : Yes
Used interface : Native Win32 interface for Win NT & 2000

Used output format : User Defined Encoder
Selected bitrate : 1024 kBit/s
Quality : High
Add ID3 tag : No
Command line compressor : C:\Program Files (x86)\Exact Audio Copy\Flac\flac.exe
Additional command line options : -8 -V %s


TOC of the extracted CD

Track | Start | Length | Start sector | End sector
––––––––––––––––––––––––––––-
1 | 0:00.00 | 4:30.35 | 0 | 20284
2 | 4:30.35 | 4:25.53 | 20285 | 40212
3 | 8:56.13 | 4:41.50 | 40213 | 61337
4 | 13:37.63 | 4:25.35 | 61338 | 81247


Range status and errors

Selected range

Filename D:\bki71\Metallica\Metallica - Re-Fuel (Part 3, METED 16).wav

Peak level 100.0 %
Range quality 100.0 %
Test CRC 2A279A88
Copy CRC 2A279A88
Copy OK

No errors occurred


AccurateRip summary

Track 1 accurately ripped (confidence 6) [F4ACE96A]
Track 2 accurately ripped (confidence 7) [7EE4C93B]
Track 3 accurately ripped (confidence 7) [3B40768B]
Track 4 accurately ripped (confidence 7) [5D588F8D]

All tracks accurately ripped

End of status report


[CUETools log; Date: 13.08.2019 13:28:09; Version: 2.1.4]
[AccurateRip ID: 0003194c-000c6702-2f043b04] found.
Track [ CRC | V2 ] Status
01 [f4ace96a|8237cb17] (07+04/11) Accurately ripped
02 [7ee4c93b|4f53f9dd] (08+06/14) Accurately ripped
03 [3b40768b|3c794f55] (08+06/14) Accurately ripped
04 [5d588f8d|f1935720] (08+06/14) Accurately ripped

Track Peak [ CRC32 ] [W/O NULL] [ LOG ]
– 99,9 [2A279A88] [9FBC81C5] CRC32
01 99,9 [6F2B997E] [5DC3B4AE]
02 99,9 [A6309A36] [71A03319]
03 99,9 [FCC94FE9] [57D80152]
04 99,9 [8355944E] [17643B81]


Metallica - Re-Fuel (2004) [4CD Bootleg Flip-Top Box Set]

Tracklist CD4 - Chatback Records CHATCD13:

01. The Interview Sessions (39:52)

Exact Audio Copy V0.99 prebeta 5 from 4. May 2009

EAC extraction logfile from 16. September 2011, 21:26

Metallica / Re-Fuel (The Interview Sessions)

Used drive : PIONEER DVD-RW DVR-215 Adapter: 5 ID: 0

Read mode : Secure
Utilize accurate stream : Yes
Defeat audio cache : Yes
Make use of C2 pointers : No

Read offset correction : 48
Overread into Lead-In and Lead-Out : No
Fill up missing offset samples with silence : Yes
Delete leading and trailing silent blocks : No
Null samples used in CRC calculations : Yes
Used interface : Native Win32 interface for Win NT & 2000

Used output format : User Defined Encoder
Selected bitrate : 1024 kBit/s
Quality : High
Add ID3 tag : No
Command line compressor : C:\Program Files (x86)\Exact Audio Copy\Flac\flac.exe
Additional command line options : -8 -V %s


TOC of the extracted CD

Track | Start | Length | Start sector | End sector
––––––––––––––––––––––––––––-
1 | 0:00.00 | 39:52.30 | 0 | 179429


Range status and errors

Selected range

Filename D:\bki71\Metallica\Metallica - Re-Fuel (The Interview Sessions).wav

Peak level 84.7 %
Range quality 100.0 %
Test CRC E075F2AA
Copy CRC E075F2AA
Copy OK

No errors occurred


AccurateRip summary

Track 1 not present in database

None of the tracks are present in the AccurateRip database

End of status report


[CUETools log; Date: 13.08.2019 13:29:42; Version: 2.1.4]
[AccurateRip ID: 0002bce6-000579cd-02095801] found.
Track [ CRC | V2 ] Status
01 [7edd17af|a813412e] (1+0/1) Accurately ripped

Track Peak [ CRC32 ] [W/O NULL] [ LOG ]
– 84,7 [E075F2AA] [488B16E6] CRC32
01 84,7 [E075F2AA] [488B16E6] CRC32



All thanks go to the original releaser

Metallica in my Blog

Download Metallica - Re-Fuel (2004):