Subcategories
Tags
Language
Tags

Michael Nesmith - Different Drum: The Lost RCA Victor Recordings (2021)

Posted By: ciklon5
Michael Nesmith - Different Drum: The Lost RCA Victor Recordings (2021)

Michael Nesmith - Different Drum: The Lost RCA Victor Recordings (2021)
FLAC (tracks + .cue,log) / Mp3 320 kbps | 1:19:49 | 450 / 183 Mb
Genre: Country / Label: Real Gone Music

Michael Nesmith has always travelled to the beat of a 'Different Drum''whether as the writer of that classic hit for Linda Ronstadt and The Stone Poneys, the wool hat-clad member of The Monkees, or one of the earliest progenitors of the country-rock genre. In recent years, Nesmith has penned a critically acclaimed autobiography, reformed the First National Band to sold-out audiences, and both recorded and performed live to fans young and old with The Monkees. Now, Real Gone Music and Second Disc Records are proud to present a major deep dive into the Nez archives. Different Drum: The Lost RCA Victor Recordings features 22 tracks drawn from the RCA Victor vaults, every one of which is previously unreleased in any physical format. Over six RCA albums released between 1970 and 1973, Nesmith blossomed as a singer, songwriter, bandleader, and producer under the aegis of RCA Nashville legends Chet Atkins and Felton Jarvis. With bandmates including legendary pedal steel guitarist O.J. 'Red' Rhodes, John Ware, and John London, Nesmith pioneered country-rock with a spiritual and searching style all his own. Different Drum premieres on CD some of his most remarkable musical explorations from this vivid period including cosmic reimaginings of Monkees-era favorites like 'Tapioca Tundra,' 'Magnolia Simms,' 'Circle Sky,' and 'Listen to the Band;' unheard outtakes like 'American Airman' and 'Six Days on the Road;' vastly different alternate takes of 'Different Drum,' 'Dedicated Friend,' and 'Tengo Amore;' and even an early version of 'Marie's Theme' from his cult classic multimedia project The Prison. The mind-altering music on Different Drum has been mixed from the original multitracks by Andrew Sandoval and mastered by Vic Anesini at Sony's Battery Studios, while Papa Nez himself has contributed insightful new commentary to the liner notes by The Second Disc's Joe Marchese. Rare photos by renowned photographer Henry Diltz and previously unseen images round out this landmark package. Different Drum is a freewheeling, widescreen journey through the world of one of rock's greatest iconoclasts. Don't take our word for it: listen to the band!

Track List:
01. Different Drum (alternate version) (2:56)
02. American Airman (2:32)
03. Bye, Bye, Bye (alternate version) (4:03)
04. Dedicated Friend (alternate version) (6:58)
05. Tengo Amore (alternate instrumental) (4:00)
06. Texas Morning (alternate take) (3:26)
07. Renee (uncut version) (3:05)
08. Six Days On The Road (5:18)
09. Circle Sky (2:56)
10. Listen To The Band (alternate version) (4:41)
11. Some Of Shelly's Blues (alternate version) (2:26)
12. Keep On (alternate version) (3:43)
13. Roll With The Flow (alternate version) (3:36)
14. Marie's Theme (alternate version) (4:13)
15. Magnolia Simms (3:38)
16. Born To Love You (2:48)
17. Hollywood (alternate backing track) (2:27)
18. Tapioca Tundra (2:59)
19. Roses Are Blooming - Come Back To Me Darking? (3:59)
20. Tan My Hide (3:37)
21. You Are The One (alternate instrumental) (4:52)
22. Loose Salute (Radio Spots) (1:48)

Exact Audio Copy V1.5 from 20. February 2020

EAC extraction logfile from 12. May 2021, 6:50

Michael Nesmith / Different Drum: The Lost RCA Victor Recordings

Used drive : MATSHITADVD-RAM UJ880A Adapter: 1 ID: 0

Read mode : Secure
Utilize accurate stream : Yes
Defeat audio cache : Yes
Make use of C2 pointers : No

Read offset correction : 102
Overread into Lead-In and Lead-Out : No
Fill up missing offset samples with silence : Yes
Delete leading and trailing silent blocks : No
Null samples used in CRC calculations : Yes
Used interface : Native Win32 interface for Win NT & 2000
Gap handling : Appended to previous track

Used output format : User Defined Encoder
Selected bitrate : 1024 kBit/s
Quality : High
Add ID3 tag : No
Command line compressor : C:\Program Files (x86)\Exact Audio Copy\FLAC\FLAC.EXE
Additional command line options : -6 -V -T "ARTIST=%artist%" -T "TITLE=%title%" -T "ALBUM=%albumtitle%" -T "DATE=%year%" -T "TRACKNUMBER=%tracknr%" -T "GENRE=%genre%" -T "COMMENT=%comment%" -T "BAND=%albuminterpret%" -T "ALBUMARTIST=%albuminterpret%" -T "COMPOSER=%composer%" %haslyrics%–tag-from-file=LYRICS="%lyricsfile%"%haslyrics% -T "DISCNUMBER=%cdnumber%" -T "TOTALDISCS=%totalcds%" -T "TOTALTRACKS=%numtracks%" %hascover%–picture="%coverfile%"%hascover% %source% -o %dest%


TOC of the extracted CD

Track | Start | Length | Start sector | End sector
––––––––––––––––––––––––––––-
1 | 0:00.00 | 2:56.30 | 0 | 13229
2 | 2:56.30 | 2:31.42 | 13230 | 24596
3 | 5:27.72 | 4:03.32 | 24597 | 42853
4 | 9:31.29 | 6:57.56 | 42854 | 74184
5 | 16:29.10 | 3:59.50 | 74185 | 92159
6 | 20:28.60 | 3:25.60 | 92160 | 107594
7 | 23:54.45 | 3:04.52 | 107595 | 121446
8 | 26:59.22 | 5:18.23 | 121447 | 145319
9 | 32:17.45 | 2:55.62 | 145320 | 158506
10 | 35:13.32 | 4:40.74 | 158507 | 179580
11 | 39:54.31 | 2:26.37 | 179581 | 190567
12 | 42:20.68 | 3:43.36 | 190568 | 207328
13 | 46:04.29 | 3:35.47 | 207329 | 223500
14 | 49:40.01 | 4:12.50 | 223501 | 242450
15 | 53:52.51 | 3:38.18 | 242451 | 258818
16 | 57:30.69 | 2:47.57 | 258819 | 271400
17 | 60:18.51 | 2:27.18 | 271401 | 282443
18 | 62:45.69 | 2:59.37 | 282444 | 295905
19 | 65:45.31 | 3:58.58 | 295906 | 313813
20 | 69:44.14 | 3:37.00 | 313814 | 330088
21 | 73:21.14 | 4:52.21 | 330089 | 352009
22 | 78:13.35 | 1:47.44 | 352010 | 360078


Track 1

Filename C:\Users\travi\Music\Torrent Downloads\Albums\Michael Nesmith - 2021 - Different Drum- The Lost RCA Victor Recordings [FLAC]\01 - Michael Nesmith & The First National Band - Different Drum (alternate version).wav

Pre-gap length 0:00:02.00

Peak level 91.7 %
Extraction speed 1.4 X
Track quality 100.0 %
Test CRC A5ED6B56
Copy CRC A5ED6B56
Track not present in AccurateRip database
Copy OK

Track 2

Filename C:\Users\travi\Music\Torrent Downloads\Albums\Michael Nesmith - 2021 - Different Drum- The Lost RCA Victor Recordings [FLAC]\02 - Michael Nesmith & The First National Band - American Airman.wav

Pre-gap length 0:00:01.74

Peak level 91.8 %
Extraction speed 1.5 X
Track quality 100.0 %
Test CRC 7A0A5495
Copy CRC 7A0A5495
Track not present in AccurateRip database
Copy OK

Track 3

Filename C:\Users\travi\Music\Torrent Downloads\Albums\Michael Nesmith - 2021 - Different Drum- The Lost RCA Victor Recordings [FLAC]\03 - Michael Nesmith & The First National Band - Bye, Bye, Bye (alternate version).wav

Pre-gap length 0:00:01.76

Peak level 90.0 %
Extraction speed 1.7 X
Track quality 100.0 %
Test CRC 3FA49B08
Copy CRC 3FA49B08
Track not present in AccurateRip database
Copy OK

Track 4

Filename C:\Users\travi\Music\Torrent Downloads\Albums\Michael Nesmith - 2021 - Different Drum- The Lost RCA Victor Recordings [FLAC]\04 - Michael Nesmith & The First National Band - Dedicated Friend (alternate version).wav

Pre-gap length 0:00:01.76

Peak level 92.0 %
Extraction speed 2.0 X
Track quality 100.0 %
Test CRC A15C5109
Copy CRC A15C5109
Track not present in AccurateRip database
Copy OK

Track 5

Filename C:\Users\travi\Music\Torrent Downloads\Albums\Michael Nesmith - 2021 - Different Drum- The Lost RCA Victor Recordings [FLAC]\05 - Michael Nesmith & The First National Band - Tengo Amore (alternate instrumental).wav

Pre-gap length 0:00:01.74

Peak level 91.1 %
Extraction speed 1.8 X
Track quality 99.9 %
Test CRC FF75837C
Copy CRC FF75837C
Track not present in AccurateRip database
Copy OK

Track 6

Filename C:\Users\travi\Music\Torrent Downloads\Albums\Michael Nesmith - 2021 - Different Drum- The Lost RCA Victor Recordings [FLAC]\06 - Michael Nesmith & The First National Band - Texas Morning (alternate take).wav

Pre-gap length 0:00:01.76

Peak level 99.2 %
Extraction speed 2.1 X
Track quality 100.0 %
Test CRC 4376F234
Copy CRC 4376F234
Track not present in AccurateRip database
Copy OK

Track 7

Filename C:\Users\travi\Music\Torrent Downloads\Albums\Michael Nesmith - 2021 - Different Drum- The Lost RCA Victor Recordings [FLAC]\07 - Michael Nesmith & The First National Band - Renee (uncut version).wav

Pre-gap length 0:00:01.76

Peak level 98.3 %
Extraction speed 2.1 X
Track quality 100.0 %
Test CRC CBA6CA99
Copy CRC CBA6CA99
Track not present in AccurateRip database
Copy OK

Track 8

Filename C:\Users\travi\Music\Torrent Downloads\Albums\Michael Nesmith - 2021 - Different Drum- The Lost RCA Victor Recordings [FLAC]\08 - Michael Nesmith & The Second National Band - Six Days On The Road.wav

Pre-gap length 0:00:01.74

Peak level 98.1 %
Extraction speed 2.4 X
Track quality 100.0 %
Test CRC 7447572D
Copy CRC 7447572D
Track not present in AccurateRip database
Copy OK

Track 9

Filename C:\Users\travi\Music\Torrent Downloads\Albums\Michael Nesmith - 2021 - Different Drum- The Lost RCA Victor Recordings [FLAC]\09 - Michael Nesmith & The Second National Band - Circle Sky.wav

Pre-gap length 0:00:01.74

Peak level 93.2 %
Extraction speed 2.3 X
Track quality 100.0 %
Test CRC 35AE715D
Copy CRC 35AE715D
Track not present in AccurateRip database
Copy OK

Track 10

Filename C:\Users\travi\Music\Torrent Downloads\Albums\Michael Nesmith - 2021 - Different Drum- The Lost RCA Victor Recordings [FLAC]\10 - Michael Nesmith & The Second National Band - Listen To The Band (alternate version).wav

Pre-gap length 0:00:01.74

Peak level 98.2 %
Extraction speed 2.6 X
Track quality 100.0 %
Test CRC 05A9C1FB
Copy CRC 05A9C1FB
Track not present in AccurateRip database
Copy OK

Track 11

Filename C:\Users\travi\Music\Torrent Downloads\Albums\Michael Nesmith - 2021 - Different Drum- The Lost RCA Victor Recordings [FLAC]\11 - Michael Nesmith - Some Of Shelly's Blues (alternate version).wav

Pre-gap length 0:00:01.76

Peak level 83.5 %
Extraction speed 2.4 X
Track quality 100.0 %
Test CRC 41AD49DD
Copy CRC 41AD49DD
Track not present in AccurateRip database
Copy OK

Track 12

Filename C:\Users\travi\Music\Torrent Downloads\Albums\Michael Nesmith - 2021 - Different Drum- The Lost RCA Victor Recordings [FLAC]\12 - Michael Nesmith - Keep On (alternate version).wav

Pre-gap length 0:00:01.76

Peak level 76.6 %
Extraction speed 2.6 X
Track quality 100.0 %
Test CRC DBC065A4
Copy CRC DBC065A4
Track not present in AccurateRip database
Copy OK

Track 13

Filename C:\Users\travi\Music\Torrent Downloads\Albums\Michael Nesmith - 2021 - Different Drum- The Lost RCA Victor Recordings [FLAC]\13 - Michael Nesmith - Roll With The Flow (alternate version).wav

Pre-gap length 0:00:01.76

Peak level 84.1 %
Extraction speed 2.7 X
Track quality 100.0 %
Test CRC 6005ED8D
Copy CRC 6005ED8D
Track not present in AccurateRip database
Copy OK

Track 14

Filename C:\Users\travi\Music\Torrent Downloads\Albums\Michael Nesmith - 2021 - Different Drum- The Lost RCA Victor Recordings [FLAC]\14 - Michael Nesmith - Marie's Theme (alternate version).wav

Pre-gap length 0:00:01.74

Peak level 87.3 %
Extraction speed 2.5 X
Track quality 99.9 %
Test CRC 2B8FE2D1
Copy CRC 2B8FE2D1
Track not present in AccurateRip database
Copy OK

Track 15

Filename C:\Users\travi\Music\Torrent Downloads\Albums\Michael Nesmith - 2021 - Different Drum- The Lost RCA Victor Recordings [FLAC]\15 - Michael Nesmith & The First National Band - Magnolia Simms.wav

Pre-gap length 0:00:01.74

Peak level 98.4 %
Extraction speed 2.8 X
Track quality 100.0 %
Test CRC AB52F0E8
Copy CRC AB52F0E8
Track not present in AccurateRip database
Copy OK

Track 16

Filename C:\Users\travi\Music\Torrent Downloads\Albums\Michael Nesmith - 2021 - Different Drum- The Lost RCA Victor Recordings [FLAC]\16 - Michael Nesmith & The First National Band - Born To Love You.wav

Pre-gap length 0:00:01.76

Peak level 98.9 %
Extraction speed 2.8 X
Track quality 100.0 %
Test CRC A433B35C
Copy CRC A433B35C
Track not present in AccurateRip database
Copy OK

Track 17

Filename C:\Users\travi\Music\Torrent Downloads\Albums\Michael Nesmith - 2021 - Different Drum- The Lost RCA Victor Recordings [FLAC]\17 - Michael Nesmith & The First National Band - Hollywood (alternate backing track).wav

Pre-gap length 0:00:01.76

Peak level 99.9 %
Extraction speed 2.7 X
Track quality 100.0 %
Test CRC 30055E8D
Copy CRC 30055E8D
Track not present in AccurateRip database
Copy OK

Track 18

Filename C:\Users\travi\Music\Torrent Downloads\Albums\Michael Nesmith - 2021 - Different Drum- The Lost RCA Victor Recordings [FLAC]\18 - Michael Nesmith & The First National Band - Tapioca Tundra.wav

Pre-gap length 0:00:01.74

Peak level 98.0 %
Extraction speed 2.9 X
Track quality 100.0 %
Test CRC 2831A343
Copy CRC 2831A343
Track not present in AccurateRip database
Copy OK

Track 19

Filename C:\Users\travi\Music\Torrent Downloads\Albums\Michael Nesmith - 2021 - Different Drum- The Lost RCA Victor Recordings [FLAC]\19 - Michael Nesmith & The First National Band - Roses Are Blooming - Come Back To Me Darking.wav

Pre-gap length 0:00:01.74

Peak level 98.2 %
Extraction speed 3.1 X
Track quality 100.0 %
Test CRC C4A0A693
Copy CRC C4A0A693
Track not present in AccurateRip database
Copy OK

Track 20

Filename C:\Users\travi\Music\Torrent Downloads\Albums\Michael Nesmith - 2021 - Different Drum- The Lost RCA Victor Recordings [FLAC]\20 - Michael Nesmith & The Second National Band - Tan My Hide.wav

Pre-gap length 0:00:01.76

Peak level 98.1 %
Extraction speed 3.1 X
Track quality 100.0 %
Test CRC 313C7571
Copy CRC 313C7571
Track not present in AccurateRip database
Copy OK

Track 21

Filename C:\Users\travi\Music\Torrent Downloads\Albums\Michael Nesmith - 2021 - Different Drum- The Lost RCA Victor Recordings [FLAC]\21 - Michael Nesmith & The Second National Band - You Are The One (alternate instrumental).wav

Pre-gap length 0:00:01.74

Peak level 98.0 %
Extraction speed 3.3 X
Track quality 100.0 %
Test CRC 98F22A59
Copy CRC 98F22A59
Track not present in AccurateRip database
Copy OK

Track 22

Filename C:\Users\travi\Music\Torrent Downloads\Albums\Michael Nesmith - 2021 - Different Drum- The Lost RCA Victor Recordings [FLAC]\22 - Michael Nesmith & The First National Band - Loose Salute (Radio Spots).wav

Pre-gap length 0:00:01.76

Peak level 62.7 %
Extraction speed 2.2 X
Track quality 99.9 %
Test CRC 9CB12156
Copy CRC 9CB12156
Track not present in AccurateRip database
Copy OK


None of the tracks are present in the AccurateRip database

No errors occurred

End of status report

–– CUETools DB Plugin V2.1.6

[CTDB TOCID: 5nLzxG695i8B5z1G0Jq9uNs8e_4-] found
Submit result: 5nLzxG695i8B5z1G0Jq9uNs8e_4- has been confirmed
Track | CTDB Status
1 | (9/9) Accurately ripped
2 | (9/9) Accurately ripped
3 | (9/9) Accurately ripped
4 | (9/9) Accurately ripped
5 | (9/9) Accurately ripped
6 | (9/9) Accurately ripped
7 | (9/9) Accurately ripped
8 | (9/9) Accurately ripped
9 | (9/9) Accurately ripped
10 | (9/9) Accurately ripped
11 | (9/9) Accurately ripped
12 | (9/9) Accurately ripped
13 | (9/9) Accurately ripped
14 | (9/9) Accurately ripped
15 | (9/9) Accurately ripped
16 | (9/9) Accurately ripped
17 | (9/9) Accurately ripped
18 | (9/9) Accurately ripped
19 | (9/9) Accurately ripped
20 | (9/9) Accurately ripped
21 | (9/9) Accurately ripped
22 | (9/9) Accurately ripped


==== Log checksum 54AB6F5B7E03B620C83544B8E836B43271EE9F6DE2AE4F4678BB49CB2A679F3B ====