Subcategories

Miguel Bosé - Made In Spain (1983) [1992, Reissue]

Posted By: BlondStyle
Miguel Bosé - Made In Spain (1983) [1992, Reissue]

Miguel Bosé - Made In Spain (1983) [1992, Reissue]
Pop/Rock, Latin Pop, Vocal, Ballad | EAC Rip | FLAC, Tracks+CUE+LOG+Scans (JPEG) | 35:49 Min. | 226,60 Mb
Label: CBS/Sony (EU) | Cat.# 472931 2 | Released: 1992 (1983)
Miguel Bosé - Made In Spain (1983) [1992, Reissue]

Luis Miguel González Bosé (born April 3, 1956), usually known as Miguel Bosé, is a Panamanian-born Spanish musician and actor. Bosé became an honorary Colombian citizen in 2010. Propelled by his famous family and their friends, in 1971, Bosé started a career as an actor, participating in various movies. He quickly won spots on the basis of his talent and good looks alone, rather than his name, and he did study serious acting as well as dancing and singing. However, he did not make that many films, and in 1975 he decided a career change was due and started exploring his talents as a singer. With the assistance of Camilo Blanes he recorded his first singles. Two years later, in 1977, Bosé signed a contract with CBS Records, and he remained with them until 1984.
~Wikipedia

Miguel Bosé - Made In Spain (1983) [1992, Reissue]

Miguel Bosé - Made In Spain (1983) [1992, Reissue]


Release of this album: 1983 [LP CBS, Cat.# S 25496, Spain]
Release of this CD: 1992 [CD CBS/Sony (EU), Cat.# 472931 2 / UPC: 5099747293122]
℗ 1983, 1992 Sony Music Entertainment (Spain) S.A.
© 1992 Sony Music Entertainment (Spain) S.A.
Made in Austria

Credits:

Arranged By – Billy Lyall, Graham Preskett, Richard Myhill, Oscar Gómez
Artwork – Andy Warhol
Producer – Oscar Gómez


Tracklist:

01. Fuego (03:32)
02. Sin Ton Ni Son (03:11)
03. La Chula (03:47)
04. Septiembre (03:53)
05. Panama Connection (03:35)
06. Snack Bar "Everybody Loves A Lover" (02:45)
07. Por Un Amor Relampago "A Song For Gail" (What Have Me Got Her Into?) (04:25)
08. Te Quiero Amor (03:31)
09. Los Ojos Del Niedo (Serie Negra) "Let Sleeping Dogs Lie" (03:47)
10. 23 Horas Al Dia (03:25)

Exact Audio Copy V1.1 from 23. June 2015

Archivo Log de extracciones desde 19. Febrero 2016, 21:25

Miguel Bosé / Made In Spain

Usar unidad : ASUS DRW-24F1ST a Adapter: 1 ID: 0

Modo de Lectura : : Seguro
Utilizar corriente precisa : Sí
Caché de audio por defecto : No
Utilizar los punteros C2 : No

Corrección de Desplazamiento de Lectura : : 6
Sobreleer tanto en Lead-In como en Lead-Out : No
Rellenar las muestras faltantes con silencios : Sí
Eliminar silencios inicial y final : No
Muestras nulas usadas en los calculos de CRC : Sí
Interfaz usada : Interfaz propio de Win32 para Windowns NT y 2000
Manejo de huecos : No se detectó, por lo que anexa a la pista anterior

Formato de Salida utilizado : : Compresor definido por el Usuario
Velocidad de bits seleccionada : 768 kBit/s
Calidad : Alta
Añadir ID3 tag : No
linea de comandos del compresor : C:\Program Files (x86)\Exact Audio Copy\FLAC\FLAC.EXE
Opciones adicionales en línea de comandos : : -6 -V -T "ARTIST=%artist%" -T "TITLE=%title%" -T "ALBUM=%albumtitle%" -T "DATE=%year%" -T "TRACKNUMBER=%tracknr%" -T "GENRE=%genre%" -T "COMMENT=%comment%" -T "BAND=%albuminterpret%" -T "ALBUMARTIST=%albuminterpret%" -T "COMPOSER=%composer%" %haslyrics%–tag-from-file=LYRICS="%lyricsfile%"%haslyrics% -T "DISCNUMBER=%cdnumber%" -T "TOTALDISCS=%totalcds%" -T "TOTALTRACKS=%numtracks%" %hascover%–picture="%coverfile%"%hascover% %source% -o %dest%


TOC extraídos del CD

Pista | Inicio | Longitud | Inicio del sector | Fin del sector
–––––––––––––––––––––––––––––––––
1 | 0:00.00 | 3:31.42 | 0 | 15866
2 | 3:31.42 | 3:10.70 | 15867 | 30186
3 | 6:42.37 | 3:46.73 | 30187 | 47209
4 | 10:29.35 | 3:52.40 | 47210 | 64649
5 | 14:22.00 | 3:34.60 | 64650 | 80759
6 | 17:56.60 | 2:45.02 | 80760 | 93136
7 | 20:41.62 | 4:24.40 | 93137 | 112976
8 | 25:06.27 | 3:31.03 | 112977 | 128804
9 | 28:37.30 | 3:46.72 | 128805 | 145826
10 | 32:24.27 | 3:25.15 | 145827 | 161216


Pista 1

Nombre de Archivo F:\EAC\01 Fuego.wav

Nivel Pico 98.9 %
Velocidad de extracción 2.9 X
Calidad de Pista 100.0 %
Copiar CRC 34C412E7
Extraida con precisión (confidencia 2) [6A9D088C] (AR v1)
Copia OK

Pista 2

Nombre de Archivo F:\EAC\02 Sin Ton Ni Son.wav

Nivel Pico 90.3 %
Velocidad de extracción 3.1 X
Calidad de Pista 100.0 %
Copiar CRC 09342532
Extraida con precisión (confidencia 2) [4BA8BD39] (AR v1)
Copia OK

Pista 3

Nombre de Archivo F:\EAC\03 La Chula.wav

Nivel Pico 88.3 %
Velocidad de extracción 3.4 X
Calidad de Pista 100.0 %
Copiar CRC 4600BF36
Extraida con precisión (confidencia 2) [CDFA1676] (AR v1)
Copia OK

Pista 4

Nombre de Archivo F:\EAC\04 Septiembre.wav

Nivel Pico 78.8 %
Velocidad de extracción 3.7 X
Calidad de Pista 100.0 %
Copiar CRC 2D033733
Extraida con precisión (confidencia 2) [48F6EE47] (AR v1)
Copia OK

Pista 5

Nombre de Archivo F:\EAC\05 Panama Connection.wav

Nivel Pico 94.7 %
Velocidad de extracción 3.8 X
Calidad de Pista 99.9 %
Copiar CRC C215D7DA
Extraida con precisión (confidencia 2) [97EDC754] (AR v1)
Copia OK

Pista 6

Nombre de Archivo F:\EAC\06 Snack Bar.wav

Nivel Pico 90.7 %
Velocidad de extracción 3.8 X
Calidad de Pista 99.9 %
Copiar CRC 12168AAD
Extraida con precisión (confidencia 2) [824BCEF8] (AR v1)
Copia OK

Pista 7

Nombre de Archivo F:\EAC\07 Por Un Amor Relámpago.wav

Nivel Pico 86.6 %
Velocidad de extracción 4.2 X
Calidad de Pista 100.0 %
Copiar CRC 8111FAB6
Extraida con precisión (confidencia 2) [7E4A9AF3] (AR v1)
Copia OK

Pista 8

Nombre de Archivo F:\EAC\08 Te Quiero Amor.wav

Nivel Pico 98.1 %
Velocidad de extracción 4.4 X
Calidad de Pista 100.0 %
Copiar CRC BEF1E23B
Extraida con precisión (confidencia 2) [98C9CE8E] (AR v1)
Copia OK

Pista 9

Nombre de Archivo F:\EAC\09 Los Ojos Del Miedo.wav

Nivel Pico 82.8 %
Velocidad de extracción 4.7 X
Calidad de Pista 100.0 %
Copiar CRC 08A9A595
Extraida con precisión (confidencia 2) [88038B05] (AR v1)
Copia OK

Pista 10

Nombre de Archivo F:\EAC\10 23 Horas Al Día.wav

Nivel Pico 86.7 %
Velocidad de extracción 4.6 X
Calidad de Pista 99.9 %
Copiar CRC 817EA671
Extraida con precisión (confidencia 1) [F04A17DD] (AR v1)
Copia OK


Todas las pistas extraidas con precisión

Sin Errores

Final del Informe

–– CUETools DB Plugin V2.1.6

[CTDB TOCID: eHGfv.GGtBkCBj17VlOr472bgfI-] found
Submit result: eHGfv.GGtBkCBj17VlOr472bgfI- has been confirmed
Track | CTDB Status
1 | (1/1) Accurately ripped
2 | (1/1) Accurately ripped
3 | (1/1) Accurately ripped
4 | (1/1) Accurately ripped
5 | (1/1) Accurately ripped
6 | (1/1) Accurately ripped
7 | (1/1) Accurately ripped
8 | (1/1) Accurately ripped
9 | (1/1) Accurately ripped
10 | (1/1) Accurately ripped

––––––––––––––––––––––––––––––––––––––––
Analyzed: Miguel Bosé / Made In Spain
––––––––––––––––––––––––––––––––––––––––

DR Peak RMS Duration Track
––––––––––––––––––––––––––––––––––––––––
DR15 -0.09 dB -17.42 dB 3:32 01-Fuego
DR15 -0.88 dB -20.83 dB 3:11 02-Sin Ton Ni Son
DR15 -1.07 dB -18.33 dB 3:47 03-La Chula
DR13 -2.06 dB -19.44 dB 3:53 04-Septiembre
DR17 -0.47 dB -19.48 dB 3:35 05-Panama Connection
DR15 -0.84 dB -19.21 dB 2:45 06-Snack Bar
DR13 -1.24 dB -19.94 dB 4:25 07-Por Un Amor Relámpago
DR15 -0.17 dB -20.96 dB 3:31 08-Te Quiero Amor
DR15 -1.64 dB -18.86 dB 3:47 09-Los Ojos Del Miedo
DR16 -1.24 dB -21.61 dB 3:25 10-23 Horas Al Día
––––––––––––––––––––––––––––––––––––––––

Number of tracks: 10
Official DR value: DR15

Samplerate: 44100 Hz
Channels: 2
Bits per sample: 16
Bitrate: 725 kbps
Codec: FLAC
================================================================================

See also:


Thanks to original releaser

password: BlondStyle