Tags
Language
Tags

Mott The Hoople - Mental Train: The Island Years 1969-1971 (2018) [6CD Box Set]

Posted By: v3122
Mott The Hoople - Mental Train: The Island Years 1969-1971 (2018) [6CD Box Set]

Mott The Hoople - Mental Train: The Island Years 1969-1971 (2018)
EAC | Flac(Image) + Cue + Log & MP3 CBR 320Kbps
Universal Music, MOTTBOX001 | ~ 2850 or 1239 Mb | Artwork(png) -> 526 Mb
Psychedelic Rock / Hard Rock / Glam / Classic Rock

Mental Train: The Island Years 1969-1971 is a deep dive into the wild, wooly years before Mott the Hoople discovered glam. In other words, it's Mott the Hoople before they had anything resembling a hit but were still one of the hardest, heaviest, and weirdest rock bands to roam the land – and one of the most prolific, too. This six-disc box set covers a mere three years, but it was three years where they released four albums, piling up B-sides and other strays along the way. Mental Train rounds up what seems to be every surviving scrap and adds them as bonus tracks to Mott the Hoople, Mad Shadows, Wildlife and Brain Capers, and presenting two discs of non-LP material: a disc of unreleased music and a disc of live material. While some of this material might not amount to much more than a fragment or alternate takes, it all amounts to a towering collection of ungainly, thrilling rock & roll. Hardcore fans know what to expect and will delight in the rarities, yet this is the rare band where neophytes may be well-served by utter immersion, as this box is bound to make the uninitiated a convert.

by Stephen Thomas Erlewine, allmusic
Mott The Hoople - Mental Train: The Island Years 1969-1971 (2018) [6CD Box Set]

Mott The Hoople - Mental Train: The Island Years 1969-1971 (2018):

Tracklist CD1 - 1969 Mott The Hoople:

01 You Really Got Me
02 At The Crossroads
03 Laugh At Me
04 Backsliding Fearlessly
05 Rock And Roll Queen
06 Rabbit Foot And Toby Time
07 Half Moon Bay
08 Wrath And Wroll

Bonus Tracks:
09 If Your Heart Lay With The Rebel (Would You Cheer The Underdog?) (Instrumental Take 2)
10 Rock And Roll Queen (Single A-Side WIP 6072)
11 Road To Birmingham (Single B-Side WIP 6072)
12 Road To Birmingham (Guy Steven’s Mix)
13 You Really Got Me (Complete Take)
14 You Really Got Me (Vocal Mix)
15 Rock And Roll Queen (Guy Steven’s Mono Mix)
16 Rock And Roll Queen (Kitchen Sink Instrumental)
17 Little Christine (Recorded 24 June 1969)

Exact Audio Copy V1.3 from 2. September 2016

EAC extraction logfile from 25. April 2019, 16:41

Mott The Hoople / Mott The Hoople

Used drive : PLEXTOR BD-R PX-B950SA Adapter: 1 ID: 1

Read mode : Secure
Utilize accurate stream : Yes
Defeat audio cache : Yes
Make use of C2 pointers : No

Read offset correction : 6
Overread into Lead-In and Lead-Out : No
Fill up missing offset samples with silence : Yes
Delete leading and trailing silent blocks : No
Null samples used in CRC calculations : Yes
Used interface : Native Win32 interface for Win NT & 2000

Used output format : Internal WAV Routines
Sample format : 44.100 Hz; 16 Bit; Stereo


TOC of the extracted CD

Track | Start | Length | Start sector | End sector
––––––––––––––––––––––––––––-
1 | 0:00.00 | 2:55.59 | 0 | 13183
2 | 2:55.59 | 5:33.07 | 13184 | 38165
3 | 8:28.66 | 6:32.02 | 38166 | 67567
4 | 15:00.68 | 3:46.68 | 67568 | 84585
5 | 18:47.61 | 5:09.72 | 84586 | 107832
6 | 23:57.58 | 2:03.74 | 107833 | 117131
7 | 26:01.57 | 10:38.44 | 117132 | 165025
8 | 36:40.26 | 1:46.10 | 165026 | 172985
9 | 38:26.36 | 3:50.21 | 172986 | 190256
10 | 42:16.57 | 3:19.43 | 190257 | 205224
11 | 45:36.25 | 3:30.44 | 205225 | 221018
12 | 49:06.69 | 3:53.69 | 221019 | 238562
13 | 53:00.63 | 11:16.54 | 238563 | 289316
14 | 64:17.42 | 2:54.34 | 289317 | 302400
15 | 67:12.01 | 3:24.00 | 302401 | 317700
16 | 70:36.01 | 5:24.72 | 317701 | 342072
17 | 76:00.73 | 3:12.46 | 342073 | 356518


Range status and errors

Selected range

Filename C:\Users\Alex\Desktop\ALLexxess\Mott The Hoople\2018 Mental Train (6CD Box Set Universal Music)\1969 Mott The Hoople\Mott The Hoople - Mott The Hoople.wav

Peak level 97.0 %
Extraction speed 8.5 X
Range quality 99.9 %
Test CRC 50B9F0DE
Copy CRC 50B9F0DE
Copy OK

No errors occurred


AccurateRip summary

Track 1 accurately ripped (confidence 5) [99768AF3] (AR v2)
Track 2 accurately ripped (confidence 5) [76A23503] (AR v2)
Track 3 accurately ripped (confidence 5) [6DD0516B] (AR v2)
Track 4 accurately ripped (confidence 5) [D2D50C07] (AR v2)
Track 5 accurately ripped (confidence 5) [5DC05ADE] (AR v2)
Track 6 accurately ripped (confidence 5) [058622C6] (AR v2)
Track 7 accurately ripped (confidence 5) [BB397B9D] (AR v2)
Track 8 accurately ripped (confidence 5) [849350B3] (AR v2)
Track 9 accurately ripped (confidence 5) [2F574D78] (AR v2)
Track 10 accurately ripped (confidence 5) [1E6E80E5] (AR v2)
Track 11 accurately ripped (confidence 5) [37FB4144] (AR v2)
Track 12 accurately ripped (confidence 5) [4E260334] (AR v2)
Track 13 accurately ripped (confidence 5) [0C078E48] (AR v2)
Track 14 accurately ripped (confidence 5) [8A19CE26] (AR v2)
Track 15 accurately ripped (confidence 5) [68488E46] (AR v2)
Track 16 accurately ripped (confidence 5) [6AC9D027] (AR v2)
Track 17 accurately ripped (confidence 5) [4B43397F] (AR v2)

All tracks accurately ripped

End of status report

–– CUETools DB Plugin V2.1.6

[CTDB TOCID: Za85kpAOGdlz82P0xckcFCQ25H0-] found
Submit result: Za85kpAOGdlz82P0xckcFCQ25H0- has been confirmed
Track | CTDB Status
1 | (22/22) Accurately ripped
2 | (22/22) Accurately ripped
3 | (22/22) Accurately ripped
4 | (22/22) Accurately ripped
5 | (22/22) Accurately ripped
6 | (22/22) Accurately ripped
7 | (22/22) Accurately ripped
8 | (22/22) Accurately ripped
9 | (22/22) Accurately ripped
10 | (22/22) Accurately ripped
11 | (22/22) Accurately ripped
12 | (22/22) Accurately ripped
13 | (22/22) Accurately ripped
14 | (22/22) Accurately ripped
15 | (22/22) Accurately ripped
16 | (22/22) Accurately ripped
17 | (22/22) Accurately ripped


==== Log checksum 06617F00C0178D9E7576741C12D1D16A56148E7FAF780732D56DAEDA400540A7 ====


[CUETools log; Date: 25.04.2019 18:33:16; Version: 2.1.4]
[AccurateRip ID: 00314774-0271847d-f3129111] found.
Track [ CRC | V2 ] Status
01 [83eb02d8|99768af3] (0+5/5) Accurately ripped
02 [3b2684d3|76a23503] (0+5/5) Accurately ripped
03 [8e6a9a7a|6dd0516b] (0+5/5) Accurately ripped
04 [c9f80584|d2d50c07] (0+5/5) Accurately ripped
05 [70547f48|5dc05ade] (0+5/5) Accurately ripped
06 [69ea149e|058622c6] (0+5/5) Accurately ripped
07 [67bb7cc7|bb397b9d] (0+5/5) Accurately ripped
08 [c3783cfd|849350b3] (0+5/5) Accurately ripped
09 [61f6553e|2f574d78] (0+5/5) Accurately ripped
10 [660fa193|1e6e80e5] (0+5/5) Accurately ripped
11 [e580cce9|37fb4144] (0+5/5) Accurately ripped
12 [91af4044|4e260334] (0+5/5) Accurately ripped
13 [66c18d51|0c078e48] (0+5/5) Accurately ripped
14 [84e9c2f7|8a19ce26] (0+5/5) Accurately ripped
15 [061e8837|68488e46] (0+5/5) Accurately ripped
16 [485e0644|6ac9d027] (0+5/5) Accurately ripped
17 [cf038171|4b43397f] (0+5/5) Accurately ripped

Track Peak [ CRC32 ] [W/O NULL] [ LOG ]
– 97,0 [50B9F0DE] [CE742BE1] CRC32
01 97,0 [F6103B73] [F3FA46AE]
02 97,0 [947DED36] [3E2DB466]
03 97,0 [5A9CCA83] [4BFCE4E6]
04 97,0 [8CA8A03E] [C72942C4]
05 97,0 [988AB2D7] [ED53FD2F]
06 97,0 [43DCC3C1] [3531391C]
07 97,0 [D3227A1C] [E6364784]
08 97,0 [4833FCC4] [77A32CE6]
09 97,0 [D72EDF43] [75AAC0F1]
10 97,0 [860FC9C2] [A9BB8436]
11 97,0 [20F49F31] [45D068FC]
12 97,0 [90B9ED10] [E4B6E875]
13 97,0 [56388C81] [AA5916C1]
14 97,0 [7735C788] [47A09C33]
15 97,0 [DB217444] [1E4D7D42]
16 97,0 [E79A5CFB] [4C7C3E68]
17 97,0 [55EE820F] [137C4CE4]


Tracklist CD2 - 1970 Mad Shadows:

01 Thunderbuck Ram
02 No Wheels To Ride
03 You Are One Of Us
04 Walkin' With A Mountain
05 I Can Feel
06 Threads Of Iron
07 When My Mind's Gone

Bonus Tracks:
10 Thunderbuck Ram (BBC Session Top Gear 21st Feb 1970)
11 Thunderbuck Ram (Original Take With Organ Solo)
12 No Wheels To Ride (Demo)
13 Moonbus (Baby's Got A Down On Me)
14 The Hunchback Fish (Vocal Rehearsal)
15 You Are One Of Us (Take 9)
16 Going Home (Recorded 16 January 1970)
17 Keep A-Knockin' (Studio Version - Take 2)

Exact Audio Copy V1.3 from 2. September 2016

EAC extraction logfile from 25. April 2019, 10:30

Mott The Hoople / Mad Shadows

Used drive : PLEXTOR BD-R PX-B950SA Adapter: 1 ID: 1

Read mode : Secure
Utilize accurate stream : Yes
Defeat audio cache : Yes
Make use of C2 pointers : No

Read offset correction : 6
Overread into Lead-In and Lead-Out : No
Fill up missing offset samples with silence : Yes
Delete leading and trailing silent blocks : No
Null samples used in CRC calculations : Yes
Used interface : Native Win32 interface for Win NT & 2000

Used output format : Internal WAV Routines
Sample format : 44.100 Hz; 16 Bit; Stereo


TOC of the extracted CD

Track | Start | Length | Start sector | End sector
––––––––––––––––––––––––––––-
1 | 0:00.00 | 4:49.60 | 0 | 21734
2 | 4:49.60 | 5:49.43 | 21735 | 47952
3 | 10:39.28 | 2:25.60 | 47953 | 58887
4 | 13:05.13 | 3:49.19 | 58888 | 76081
5 | 16:54.32 | 7:12.39 | 76082 | 108520
6 | 24:06.71 | 5:11.48 | 108521 | 131893
7 | 29:18.44 | 6:31.63 | 131894 | 161281
8 | 35:50.32 | 3:42.47 | 161282 | 177978
9 | 39:33.04 | 4:53.56 | 177979 | 200009
10 | 44:26.60 | 6:33.01 | 200010 | 229485
11 | 50:59.61 | 5:28.14 | 229486 | 254099
12 | 56:28.00 | 6:04.21 | 254100 | 281420
13 | 62:32.21 | 5:15.50 | 281421 | 305095
14 | 67:47.71 | 3:05.41 | 305096 | 319011
15 | 70:53.37 | 2:30.58 | 319012 | 330319


Range status and errors

Selected range

Filename C:\Users\Alex\Desktop\ALLexxess\Mott The Hoople\2018 Mental Train (6CD Box Set Universal Music)\1970 Mad Shadows\Mott The Hoople - Mad Shadows.wav

Peak level 97.0 %
Extraction speed 8.5 X
Range quality 100.0 %
Test CRC D14C9690
Copy CRC D14C9690
Copy OK

No errors occurred


AccurateRip summary

Track 1 accurately ripped (confidence 4) [7DB64B4E] (AR v2)
Track 2 accurately ripped (confidence 4) [751CAEC7] (AR v2)
Track 3 accurately ripped (confidence 4) [DBF9E22B] (AR v2)
Track 4 accurately ripped (confidence 4) [803A30FD] (AR v2)
Track 5 accurately ripped (confidence 4) [C6AB7AFA] (AR v2)
Track 6 accurately ripped (confidence 4) [D478D26C] (AR v2)
Track 7 accurately ripped (confidence 4) [6B8EFE14] (AR v2)
Track 8 accurately ripped (confidence 4) [5BC7726F] (AR v2)
Track 9 accurately ripped (confidence 4) [FAF49AA9] (AR v2)
Track 10 accurately ripped (confidence 4) [9285075E] (AR v2)
Track 11 accurately ripped (confidence 3) [6AD2D5A1] (AR v2)
Track 12 accurately ripped (confidence 3) [9B4A9375] (AR v2)
Track 13 accurately ripped (confidence 3) [1A0F7F27] (AR v2)
Track 14 accurately ripped (confidence 3) [13D8462B] (AR v2)
Track 15 accurately ripped (confidence 3) [EEA0F16E] (AR v2)

All tracks accurately ripped

End of status report

–– CUETools DB Plugin V2.1.6

[CTDB TOCID: yvhCi_BZMEI_nUbvKopH5hNRqSs-] found
Submit result: yvhCi_BZMEI_nUbvKopH5hNRqSs- has been confirmed
Track | CTDB Status
1 | (20/20) Accurately ripped
2 | (20/20) Accurately ripped
3 | (20/20) Accurately ripped
4 | (20/20) Accurately ripped
5 | (20/20) Accurately ripped
6 | (20/20) Accurately ripped
7 | (20/20) Accurately ripped
8 | (20/20) Accurately ripped
9 | (20/20) Accurately ripped
10 | (20/20) Accurately ripped
11 | (19/20) Accurately ripped
12 | (19/20) Accurately ripped
13 | (19/20) Accurately ripped
14 | (19/20) Accurately ripped
15 | (19/20) Accurately ripped


==== Log checksum 09FF1133B192D3B6256206838A8E73378F407FC238C64377B197A098F03797C2 ====


[CUETools log; Date: 25.04.2019 18:36:15; Version: 2.1.4]
[AccurateRip ID: 002941a3-01d6a272-d611340f] found.
Track [ CRC | V2 ] Status
01 [372737c9|7db64b4e] (0+4/4) Accurately ripped
02 [4dfd8512|751caec7] (0+4/4) Accurately ripped
03 [0d851187|dbf9e22b] (0+4/4) Accurately ripped
04 [1f68596d|803a30fd] (0+4/4) Accurately ripped
05 [f793a8fa|c6ab7afa] (0+4/4) Accurately ripped
06 [016b63df|d478d26c] (0+4/4) Accurately ripped
07 [6e0a139e|6b8efe14] (0+4/4) Accurately ripped
08 [8f303a27|5bc7726f] (0+4/4) Accurately ripped
09 [1f7c4d2f|faf49aa9] (0+4/4) Accurately ripped
10 [db2a7ea7|9285075e] (0+4/4) Accurately ripped
11 [07463569|6ad2d5a1] (0+3/3) Accurately ripped
12 [8227e1b0|9b4a9375] (0+3/3) Accurately ripped
13 [f88fa23f|1a0f7f27] (0+3/3) Accurately ripped
14 [040d4264|13d8462b] (0+3/3) Accurately ripped
15 [945a60b9|eea0f16e] (0+3/3) Accurately ripped

Track Peak [ CRC32 ] [W/O NULL] [ LOG ]
– 97,0 [D14C9690] [C4ED3589] CRC32
01 97,0 [1BA66BFD] [AFD2E6A4]
02 97,0 [4578F4D6] [D05F7DBA]
03 97,0 [B139F143] [9D938644]
04 97,0 [A9CBBBE0] [E90985EA]
05 97,0 [6B6AF5E1] [07765E07]
06 97,0 [38742C92] [E86F68BC]
07 97,0 [6B57E685] [0825CF72]
08 97,0 [C378576D] [7AEC4D54]
09 97,0 [0DD4E48A] [BD9D2E35]
10 97,0 [36EB334D] [B5CE6CDD]
11 97,0 [66BBB1D4] [B468A0AF]
12 97,0 [DCA28070] [7FD27B2E]
13 97,0 [2074C5B4] [34FA702B]
14 97,0 [EA44A32F] [F1671308]
15 97,0 [FEE9F4E0] [9655D430]


Tracklist CD3 - 1970 Wildlife:

01 Whisky Women
02 Angel Of Eighth Avenue
03 Wrong Side Of The River
04 Waterlow
05 Lay Down
06 It Must Be Love
07 Original Mixed-Up Kid
08 Home Is Where I Want To Be

Bonus Tracks:
09 Keep A-Knockin' (Live At The Fairfield Halls)
10 Midnight Lady (Single A-Side WIP 6105)
11 The Debt (Single B-Side WIP 6105)
12 Downtown (Single A-Side WIP 6112)
13 Brain Haulage (Whiskey Woman)
14 Growing Man Blues (Take 10)
15 Long Red (Demo)
16 The Ballad Of Billy Joe
17 Lay Down (Take 8)

Exact Audio Copy V1.3 from 2. September 2016

EAC extraction logfile from 23. April 2019, 12:09

Mott The Hoople / Wildlife

Used drive : PLEXTOR BD-R PX-B950SA Adapter: 1 ID: 1

Read mode : Secure
Utilize accurate stream : Yes
Defeat audio cache : Yes
Make use of C2 pointers : No

Read offset correction : 6
Overread into Lead-In and Lead-Out : No
Fill up missing offset samples with silence : Yes
Delete leading and trailing silent blocks : No
Null samples used in CRC calculations : Yes
Used interface : Native Win32 interface for Win NT & 2000

Used output format : Internal WAV Routines
Sample format : 44.100 Hz; 16 Bit; Stereo


TOC of the extracted CD

Track | Start | Length | Start sector | End sector
––––––––––––––––––––––––––––-
1 | 0:00.00 | 3:40.08 | 0 | 16507
2 | 3:40.08 | 4:32.28 | 16508 | 36935
3 | 8:12.36 | 5:17.70 | 36936 | 60780
4 | 13:30.31 | 3:02.24 | 60781 | 74454
5 | 16:32.55 | 4:12.72 | 74455 | 93426
6 | 20:45.52 | 2:21.57 | 93427 | 104058
7 | 23:07.34 | 3:40.05 | 104059 | 120563
8 | 26:47.39 | 4:11.03 | 120564 | 139391
9 | 30:58.42 | 10:10.01 | 139392 | 185142
10 | 41:08.43 | 4:32.51 | 185143 | 205593
11 | 45:41.19 | 4:22.53 | 205594 | 225296
12 | 50:03.72 | 3:02.16 | 225297 | 238962
13 | 53:06.13 | 3:57.22 | 238963 | 256759
14 | 57:03.35 | 3:42.51 | 256760 | 273460
15 | 60:46.11 | 3:54.26 | 273461 | 291036
16 | 64:40.37 | 3:41.45 | 291037 | 307656
17 | 68:22.07 | 5:08.10 | 307657 | 330766


Range status and errors

Selected range

Filename C:\Users\Alex\Desktop\ALLexxess\Mott The Hoople\2018 Mental Train (6CD Box Set Universal Music)\1970 Wildlife\Mott The Hoople - Wildlife.wav

Peak level 97.0 %
Extraction speed 8.7 X
Range quality 100.0 %
Test CRC CDDC7019
Copy CRC CDDC7019
Copy OK

No errors occurred


AccurateRip summary

Track 1 accurately ripped (confidence 4) [96E127EA] (AR v2)
Track 2 accurately ripped (confidence 4) [5A974A5B] (AR v2)
Track 3 accurately ripped (confidence 4) [92983DDB] (AR v2)
Track 4 accurately ripped (confidence 4) [99CB8E69] (AR v2)
Track 5 accurately ripped (confidence 4) [6957E217] (AR v2)
Track 6 accurately ripped (confidence 4) [38E70576] (AR v2)
Track 7 accurately ripped (confidence 4) [CE3F7522] (AR v2)
Track 8 accurately ripped (confidence 4) [58A02DBC] (AR v2)
Track 9 accurately ripped (confidence 4) [08A2D22E] (AR v2)
Track 10 accurately ripped (confidence 4) [13C31D11] (AR v2)
Track 11 accurately ripped (confidence 4) [B61148C4] (AR v2)
Track 12 accurately ripped (confidence 4) [79F040A5] (AR v2)
Track 13 accurately ripped (confidence 4) [66FE9C27] (AR v2)
Track 14 accurately ripped (confidence 4) [408E9EB1] (AR v2)
Track 15 accurately ripped (confidence 4) [C63F2B6B] (AR v2)
Track 16 accurately ripped (confidence 3) [FE5C9AF0] (AR v2)
Track 17 accurately ripped (confidence 3) [835ACE26] (AR v2)

All tracks accurately ripped

End of status report

–– CUETools DB Plugin V2.1.6

[CTDB TOCID: hYfvzC3azpA04OsUtonVXWLSMyw-] found
Submit result: hYfvzC3azpA04OsUtonVXWLSMyw- has been confirmed
Track | CTDB Status
1 | (20/20) Accurately ripped
2 | (20/20) Accurately ripped
3 | (20/20) Accurately ripped
4 | (20/20) Accurately ripped
5 | (20/20) Accurately ripped
6 | (20/20) Accurately ripped
7 | (20/20) Accurately ripped
8 | (20/20) Accurately ripped
9 | (20/20) Accurately ripped
10 | (20/20) Accurately ripped
11 | (20/20) Accurately ripped
12 | (20/20) Accurately ripped
13 | (20/20) Accurately ripped
14 | (20/20) Accurately ripped
15 | (20/20) Accurately ripped
16 | (20/20) Accurately ripped
17 | (20/20) Accurately ripped


==== Log checksum 1F1BF98EAE4837376A7F508B42E1A2CF452A5B7B2C1E5BB625E251813E8D06A6 ====


[CUETools log; Date: 25.04.2019 19:05:35; Version: 2.1.4]
[AccurateRip ID: 002d2da1-023facb0-f6113a11] found.
Track [ CRC | V2 ] Status
01 [a9a30275|96e127ea] (0+4/4) Accurately ripped
02 [1142dd1a|5a974a5b] (0+4/4) Accurately ripped
03 [c90f2849|92983ddb] (0+4/4) Accurately ripped
04 [7278305b|99cb8e69] (0+4/4) Accurately ripped
05 [18b05b54|6957e217] (0+4/4) Accurately ripped
06 [4363e3f6|38e70576] (0+4/4) Accurately ripped
07 [2e5bf8ed|ce3f7522] (0+4/4) Accurately ripped
08 [973a603f|58a02dbc] (0+4/4) Accurately ripped
09 [da2f7abd|08a2d22e] (0+4/4) Accurately ripped
10 [0ce5caef|13c31d11] (0+4/4) Accurately ripped
11 [f5a6142c|b61148c4] (0+4/4) Accurately ripped
12 [e2c4c8b7|79f040a5] (0+4/4) Accurately ripped
13 [32b150c2|66fe9c27] (0+4/4) Accurately ripped
14 [f60aabdc|408e9eb1] (0+4/4) Accurately ripped
15 [4f3f63bc|c63f2b6b] (0+4/4) Accurately ripped
16 [3f5f52ae|fe5c9af0] (0+3/3) Accurately ripped
17 [fd96816b|835ace26] (0+3/3) Accurately ripped

Track Peak [ CRC32 ] [W/O NULL] [ LOG ]
– 97,0 [CDDC7019] [9F2463D8] CRC32
01 97,0 [C91F74D8] [653B83D5]
02 97,0 [1C89732E] [F42A1B1A]
03 97,0 [288FD129] [D220CBE0]
04 97,0 [6D85292B] [61754CFB]
05 97,0 [01675FA6] [ED464C93]
06 97,0 [3777931E] [C49BC402]
07 97,0 [6612AB44] [990EED35]
08 97,0 [816EB45C] [36DE742F]
09 97,0 [5C84957C] [53A28179]
10 97,0 [B681BF47] [EA64C181]
11 97,0 [7918C911] [188C0752]
12 97,0 [BB0DAF08] [C3CC76E8]
13 97,0 [068CE394] [E9195828]
14 97,0 [4C4B4FF3] [0920D57E]
15 97,0 [B4C5ADAF] [5C757436]
16 97,0 [9E964850] [06A22BC7]
17 97,0 [C7760D8C] [C7EF5E76]


Tracklist CD4 - 1971 Brain Capers:

01 Death May Be Your Santa Claus
02 Your Own Backyard
03 Darkness Darkness
04 The Journey
05 Sweet Angeline
06 Second Love
07 The Moon Upstairs
08 The Wheel Of The Quivering Meat Conception

Bonus Tracks:
09 Mental Train (The Moon Upstairs)
10 How Long (Death May Be…)
11 Darkness, Darkness
12 Your Own Backyard (Complete Take)
13 Where Do You All Come From (Backing Track)
14 One Of The Boys (Take 2)
15 Movin' On
16 Black Scorpio (Mommas Little Jewel) (Recorded 24 January 1972)

Exact Audio Copy V1.3 from 2. September 2016

EAC extraction logfile from 22. April 2019, 18:18

Mott The Hoople / Brain Capers

Used drive : PLEXTOR BD-R PX-B950SA Adapter: 1 ID: 1

Read mode : Secure
Utilize accurate stream : Yes
Defeat audio cache : Yes
Make use of C2 pointers : No

Read offset correction : 6
Overread into Lead-In and Lead-Out : No
Fill up missing offset samples with silence : Yes
Delete leading and trailing silent blocks : No
Null samples used in CRC calculations : Yes
Used interface : Native Win32 interface for Win NT & 2000

Used output format : Internal WAV Routines
Sample format : 44.100 Hz; 16 Bit; Stereo


TOC of the extracted CD

Track | Start | Length | Start sector | End sector
––––––––––––––––––––––––––––-
1 | 0:00.00 | 4:55.45 | 0 | 22169
2 | 4:55.45 | 4:13.29 | 22170 | 41173
3 | 9:08.74 | 4:32.24 | 41174 | 61597
4 | 13:41.23 | 9:15.33 | 61598 | 103255
5 | 22:56.56 | 4:53.14 | 103256 | 125244
6 | 27:49.70 | 3:46.57 | 125245 | 142251
7 | 31:36.52 | 5:01.62 | 142252 | 164888
8 | 36:38.39 | 1:19.35 | 164889 | 170848
9 | 37:57.74 | 5:18.35 | 170849 | 194733
10 | 43:16.34 | 4:12.51 | 194734 | 213684
11 | 47:29.10 | 3:05.28 | 213685 | 227587
12 | 50:34.38 | 4:13.60 | 227588 | 246622
13 | 54:48.23 | 3:17.30 | 246623 | 261427
14 | 58:05.53 | 4:23.46 | 261428 | 281198
15 | 62:29.24 | 2:47.70 | 281199 | 293793
16 | 65:17.19 | 3:41.49 | 293794 | 310417


Range status and errors

Selected range

Filename C:\Users\Alex\Desktop\ALLexxess\Mott The Hoople\2018 Mental Train (6CD Box Set Universal Music)\1971 Brain Capers\Mott The Hoople - Brain Capers.wav

Peak level 97.0 %
Extraction speed 8.5 X
Range quality 100.0 %
Test CRC 2E5DF0CE
Copy CRC 2E5DF0CE
Copy OK

No errors occurred


AccurateRip summary

Track 1 accurately ripped (confidence 4) [9048E9AA] (AR v2)
Track 2 accurately ripped (confidence 4) [906DD79B] (AR v2)
Track 3 accurately ripped (confidence 4) [24AE50BC] (AR v2)
Track 4 accurately ripped (confidence 4) [4D3CD005] (AR v2)
Track 5 accurately ripped (confidence 4) [118ACAC9] (AR v2)
Track 6 accurately ripped (confidence 4) [A5A28D36] (AR v2)
Track 7 accurately ripped (confidence 4) [C75442B4] (AR v2)
Track 8 accurately ripped (confidence 4) [45B0FE4F] (AR v2)
Track 9 accurately ripped (confidence 4) [E094D718] (AR v2)
Track 10 accurately ripped (confidence 4) [547CB45C] (AR v2)
Track 11 accurately ripped (confidence 4) [96339EB9] (AR v2)
Track 12 accurately ripped (confidence 4) [889BA0A2] (AR v2)
Track 13 accurately ripped (confidence 4) [AE0BAB90] (AR v2)
Track 14 accurately ripped (confidence 4) [0486F019] (AR v2)
Track 15 accurately ripped (confidence 4) [6DFA6EE1] (AR v2)
Track 16 accurately ripped (confidence 4) [D784D796] (AR v2)

All tracks accurately ripped

End of status report

–– CUETools DB Plugin V2.1.6

[CTDB TOCID: 1HUrSevsR646DB.6phXuW3fidIg-] found
Submit result: 1HUrSevsR646DB.6phXuW3fidIg- has been confirmed
Track | CTDB Status
1 | (20/20) Accurately ripped
2 | (20/20) Accurately ripped
3 | (20/20) Accurately ripped
4 | (20/20) Accurately ripped
5 | (20/20) Accurately ripped
6 | (20/20) Accurately ripped
7 | (20/20) Accurately ripped
8 | (20/20) Accurately ripped
9 | (20/20) Accurately ripped
10 | (20/20) Accurately ripped
11 | (20/20) Accurately ripped
12 | (20/20) Accurately ripped
13 | (20/20) Accurately ripped
14 | (20/20) Accurately ripped
15 | (20/20) Accurately ripped
16 | (20/20) Accurately ripped


==== Log checksum F339AF0C8A5B159D932939BBEC3A2B4A019C2582A2FEF35A2DD389D2862C9C18 ====


[CUETools log; Date: 25.04.2019 19:08:08; Version: 2.1.4]
[AccurateRip ID: 002ba766-020114fb-fd102a10] found.
Track [ CRC | V2 ] Status
01 [1ee7c819|9048e9aa] (0+4/4) Accurately ripped
02 [7bd8bd64|906dd79b] (0+4/4) Accurately ripped
03 [ebbd0492|24ae50bc] (0+4/4) Accurately ripped
04 [f11b235a|4d3cd005] (0+4/4) Accurately ripped
05 [8e605cd4|118acac9] (0+4/4) Accurately ripped
06 [bef4735b|a5a28d36] (0+4/4) Accurately ripped
07 [1e3398fc|c75442b4] (0+4/4) Accurately ripped
08 [3e5c482c|45b0fe4f] (0+4/4) Accurately ripped
09 [0b3fcf57|e094d718] (0+4/4) Accurately ripped
10 [ee43f85d|547cb45c] (0+4/4) Accurately ripped
11 [c2fb45b2|96339eb9] (0+4/4) Accurately ripped
12 [af1c91e9|889ba0a2] (0+4/4) Accurately ripped
13 [6b25b91f|ae0bab90] (0+4/4) Accurately ripped
14 [6d8af409|0486f019] (0+4/4) Accurately ripped
15 [f4cb6a42|6dfa6ee1] (0+4/4) Accurately ripped
16 [1cbe793d|d784d796] (0+4/4) Accurately ripped

Track Peak [ CRC32 ] [W/O NULL] [ LOG ]
– 97,0 [2E5DF0CE] [9FF29EBC] CRC32
01 97,0 [541DB1C1] [5913BC08]
02 97,0 [6405862F] [F20AA143]
03 97,0 [07B173ED] [83C856EF]
04 97,0 [35AD97DF] [1F1583CB]
05 97,0 [4059A6BE] [F25C39BB]
06 97,0 [95E6EFA4] [EE57BB46]
07 97,0 [B1F35F2A] [FECBB8F4]
08 97,0 [AE73FF28] [628D0475]
09 97,0 [42719307] [B721B8AB]
10 97,0 [F3946EBB] [11CE43FA]
11 97,0 [9E3F099B] [0B978541]
12 97,0 [801790AD] [CDD36069]
13 97,0 [B254BB77] [317D5CE2]
14 97,0 [84B6EDB3] [CF36B8AA]
15 97,0 [338A2992] [0685B2C0]
16 97,0 [333005CC] [7F0B1D68]


Tracklist CD5 - 2018 The Ballads Of Mott The Hoople:

01 Like A Rolling Stone (Fragment)
02 No Wheels To Ride(1st House Fairfield Hall, Croydon)
03 Angel Of 8th Avenue
04 The Journey
05 Blue Broken Tears
06 Black Hills (Full Ralph's Version)
07 Can You Sing The Song That I Sing
08 Till I’m Gone (From '2 Miles From Heaven')
09 The Original Mixed Up Kid (BBC Session, Mike Harding 16th March 1971)
10 Ill Wind Blowing (From '2 Miles From Heaven')
11 I'm A River (Vocal Rehearsal)
12 Ride on The Sun (Sea Diver) (From '2 Miles From Heaven')

Exact Audio Copy V1.3 from 2. September 2016

EAC extraction logfile from 22. April 2019, 10:28

Mott The Hoople / The Ballads Of

Used drive : PLEXTOR BD-R PX-B950SA Adapter: 1 ID: 1

Read mode : Secure
Utilize accurate stream : Yes
Defeat audio cache : Yes
Make use of C2 pointers : No

Read offset correction : 6
Overread into Lead-In and Lead-Out : No
Fill up missing offset samples with silence : Yes
Delete leading and trailing silent blocks : No
Null samples used in CRC calculations : Yes
Used interface : Native Win32 interface for Win NT & 2000

Used output format : Internal WAV Routines
Sample format : 44.100 Hz; 16 Bit; Stereo


TOC of the extracted CD

Track | Start | Length | Start sector | End sector
––––––––––––––––––––––––––––-
1 | 0:00.00 | 1:32.40 | 0 | 6939
2 | 1:32.40 | 7:53.23 | 6940 | 42437
3 | 9:25.63 | 5:23.34 | 42438 | 66696
4 | 14:49.22 | 10:26.22 | 66697 | 113668
5 | 25:15.44 | 3:15.41 | 113669 | 128334
6 | 28:31.10 | 4:09.60 | 128335 | 147069
7 | 32:40.70 | 15:55.65 | 147070 | 218759
8 | 48:36.60 | 3:19.09 | 218760 | 233693
9 | 51:55.69 | 2:54.44 | 233694 | 246787
10 | 54:50.38 | 4:00.61 | 246788 | 264848
11 | 58:51.24 | 10:43.04 | 264849 | 313077
12 | 69:34.28 | 3:44.30 | 313078 | 329907


Range status and errors

Selected range

Filename C:\Users\Alex\Desktop\ALLexxess\Mott The Hoople\2018 Mental Train (6CD Box Set Universal Music)\2018 The Ballads Of Mott The Hoople\Mott The Hoople - The Ballads Of.wav

Peak level 97.0 %
Extraction speed 8.6 X
Range quality 100.0 %
Test CRC D4BCC36F
Copy CRC D4BCC36F
Copy OK

No errors occurred


AccurateRip summary

Track 1 accurately ripped (confidence 4) [561F0384] (AR v2)
Track 2 accurately ripped (confidence 4) [A4FAE46B] (AR v2)
Track 3 accurately ripped (confidence 4) [1F18248B] (AR v2)
Track 4 accurately ripped (confidence 4) [5005E07A] (AR v2)
Track 5 accurately ripped (confidence 4) [3944E7EE] (AR v2)
Track 6 accurately ripped (confidence 4) [F2905829] (AR v2)
Track 7 accurately ripped (confidence 4) [AC36EAA2] (AR v2)
Track 8 accurately ripped (confidence 4) [2A282927] (AR v2)
Track 9 accurately ripped (confidence 4) [1385DB90] (AR v2)
Track 10 accurately ripped (confidence 4) [D6DF0616] (AR v2)
Track 11 accurately ripped (confidence 4) [F085DC80] (AR v2)
Track 12 accurately ripped (confidence 4) [633ED2FE] (AR v2)

All tracks accurately ripped

End of status report

–– CUETools DB Plugin V2.1.6

[CTDB TOCID: 3goBQi_J2yqxDMmve40tpVoq100-] found
Submit result: 3goBQi_J2yqxDMmve40tpVoq100- has been confirmed
Track | CTDB Status
1 | (20/20) Accurately ripped
2 | (20/20) Accurately ripped
3 | (20/20) Accurately ripped
4 | (20/20) Accurately ripped
5 | (20/20) Accurately ripped
6 | (20/20) Accurately ripped
7 | (20/20) Accurately ripped
8 | (20/20) Accurately ripped
9 | (20/20) Accurately ripped
10 | (20/20) Accurately ripped
11 | (20/20) Accurately ripped
12 | (20/20) Accurately ripped


==== Log checksum BEEC9A3D78D91B3602B021457DE16F708625103510F1F160C0FD782F10A7C02A ====


[CUETools log; Date: 25.04.2019 19:14:52; Version: 2.1.4]
[AccurateRip ID: 00203ae2-01320831-af112e0c] found.
Track [ CRC | V2 ] Status
01 [23fc0787|561f0384] (0+4/4) Accurately ripped
02 [446e8c08|a4fae46b] (0+4/4) Accurately ripped
03 [b65aef3c|1f18248b] (0+4/4) Accurately ripped
04 [9b9a1939|5005e07a] (0+4/4) Accurately ripped
05 [7db6cd29|3944e7ee] (0+4/4) Accurately ripped
06 [51bb864d|f2905829] (0+4/4) Accurately ripped
07 [8187936d|ac36eaa2] (0+4/4) Accurately ripped
08 [631a5cf1|2a282927] (0+4/4) Accurately ripped
09 [25d8b004|1385db90] (0+4/4) Accurately ripped
10 [e23470d4|d6df0616] (0+4/4) Accurately ripped
11 [b0ceec4d|f085dc80] (0+4/4) Accurately ripped
12 [578e1fb6|633ed2fe] (0+4/4) Accurately ripped

Track Peak [ CRC32 ] [W/O NULL] [ LOG ]
– 97,0 [D4BCC36F] [0710DADE] CRC32
01 97,0 [4D2F31FE] [F8544052]
02 97,0 [B61FAF0D] [72374FA9]
03 97,0 [CC3CB570] [21DAD02A]
04 97,0 [011A06EE] [3F69A47D]
05 97,0 [679B0A69] [CFE1BC28]
06 97,0 [7CA69265] [EB9AF261]
07 97,0 [C0DD0639] [8E4760FA]
08 97,0 [827B1B39] [A15676D3]
09 97,0 [C1A362C2] [57FB5C54]
10 97,0 [CDFF0BAE] [9EF5E326]
11 79,3 [90993DFA] [BB3095A3]
12 97,0 [12975273] [1596A3CA]


Tracklist CD6 - 2018 It's Live And Live Only:

Fairfield Hall, Croydon, 13th September, 1970
01 Rock And Roll Queen
02 Ohio
03 No Wheels To Ride / Hey Jude
04 Thunderbuck Ram
05 Keep A-Knockin'
06 You Really Got Me
07 The Moon Upstairs
Paris Theatre, London, BBC Radio One,
In Concert, 30 December 1971
08 Whiskey Women
09 Your Own Backyard
10 Darkness, Darkness
11 The Journey
12 Death May Be Your Santa Claus

Exact Audio Copy V1.3 from 2. September 2016

EAC extraction logfile from 20. April 2019, 7:54

Mott The Hoople / It's Live And Live Only

Used drive : PLEXTOR BD-R PX-B950SA Adapter: 1 ID: 1

Read mode : Secure
Utilize accurate stream : Yes
Defeat audio cache : Yes
Make use of C2 pointers : No

Read offset correction : 6
Overread into Lead-In and Lead-Out : No
Fill up missing offset samples with silence : Yes
Delete leading and trailing silent blocks : No
Null samples used in CRC calculations : Yes
Used interface : Native Win32 interface for Win NT & 2000

Used output format : Internal WAV Routines
Sample format : 44.100 Hz; 16 Bit; Stereo


TOC of the extracted CD

Track | Start | Length | Start sector | End sector
––––––––––––––––––––––––––––-
1 | 0:00.00 | 4:32.65 | 0 | 20464
2 | 4:32.65 | 4:32.58 | 20465 | 40922
3 | 9:05.48 | 8:13.22 | 40923 | 77919
4 | 17:18.70 | 5:46.30 | 77920 | 103899
5 | 23:05.25 | 7:59.27 | 103900 | 139851
6 | 31:04.52 | 9:53.07 | 139852 | 184333
7 | 40:57.59 | 6:03.56 | 184334 | 211614
8 | 47:01.40 | 4:40.10 | 211615 | 232624
9 | 51:41.50 | 4:59.42 | 232625 | 255091
10 | 56:41.17 | 7:36.36 | 255092 | 289327
11 | 64:17.53 | 8:53.59 | 289328 | 329361
12 | 73:11.37 | 5:06.48 | 329362 | 352359


Range status and errors

Selected range

Filename C:\Users\Alex\Desktop\ALLexxess\Mott The Hoople\2018 Mental Train (6CD Box Set Universal Music)\2018 It's Live And Live Only\Mott The Hoople - It's Live And Live Only.wav

Peak level 97.0 %
Extraction speed 8.5 X
Range quality 99.9 %
Test CRC 951E0EC7
Copy CRC 951E0EC7
Copy OK

No errors occurred


AccurateRip summary

Track 1 accurately ripped (confidence 4) [6E81909F] (AR v2)
Track 2 accurately ripped (confidence 4) [A407C7B4] (AR v2)
Track 3 accurately ripped (confidence 4) [04EF5ABA] (AR v2)
Track 4 accurately ripped (confidence 4) [851E6292] (AR v2)
Track 5 accurately ripped (confidence 4) [84E3F6E7] (AR v2)
Track 6 accurately ripped (confidence 4) [A626BAA8] (AR v2)
Track 7 accurately ripped (confidence 4) [9BBFEBC7] (AR v2)
Track 8 accurately ripped (confidence 4) [E614C8F3] (AR v2)
Track 9 accurately ripped (confidence 4) [29D52ABB] (AR v2)
Track 10 accurately ripped (confidence 4) [27FFAD83] (AR v2)
Track 11 accurately ripped (confidence 4) [8ACB1B58] (AR v2)
Track 12 accurately ripped (confidence 4) [D8190BD7] (AR v2)

All tracks accurately ripped

End of status report

–– CUETools DB Plugin V2.1.6

[CTDB TOCID: XQ44q_Ry_Ig9oSEPONlTn2oLecU-] found
Submit result: XQ44q_Ry_Ig9oSEPONlTn2oLecU- has been confirmed
Track | CTDB Status
1 | (20/20) Accurately ripped
2 | (20/20) Accurately ripped
3 | (20/20) Accurately ripped
4 | (20/20) Accurately ripped
5 | (20/20) Accurately ripped
6 | (20/20) Accurately ripped
7 | (20/20) Accurately ripped
8 | (20/20) Accurately ripped
9 | (20/20) Accurately ripped
10 | (20/20) Accurately ripped
11 | (20/20) Accurately ripped
12 | (20/20) Accurately ripped


==== Log checksum 6B41CD22485DB6593CF4C41158C73E55816B8331856E315B62EDEDAC1B3EE324 ====


[CUETools log; Date: 25.04.2019 19:11:09; Version: 2.1.4]
[AccurateRip ID: 00222550-01432453-ac125a0c] found.
Track [ CRC | V2 ] Status
01 [d157218d|6e81909f] (0+4/4) Accurately ripped
02 [13d80168|a407c7b4] (0+4/4) Accurately ripped
03 [a04e242f|04ef5aba] (0+4/4) Accurately ripped
04 [28a9b90d|851e6292] (0+4/4) Accurately ripped
05 [aeda577e|84e3f6e7] (0+4/4) Accurately ripped
06 [0c5bf311|a626baa8] (0+4/4) Accurately ripped
07 [2bb7b805|9bbfebc7] (0+4/4) Accurately ripped
08 [97ab545f|e614c8f3] (0+4/4) Accurately ripped
09 [27590f6b|29d52abb] (0+4/4) Accurately ripped
10 [56b33f69|27ffad83] (0+4/4) Accurately ripped
11 [56610508|8acb1b58] (0+4/4) Accurately ripped
12 [7aee0b20|d8190bd7] (0+4/4) Accurately ripped

Track Peak [ CRC32 ] [W/O NULL] [ LOG ]
– 97,0 [951E0EC7] [8449D637] CRC32
01 97,0 [E682D797] [1820B400]
02 97,0 [FA4D3CF1] [5AF98606]
03 97,0 [E2313C9B] [C499311D]
04 97,0 [F99D50AE] [F49E1590]
05 97,0 [CD49A2C8] [89C49581]
06 97,0 [E4C451D4] [F624E8A7]
07 97,0 [34E286BC] [DB03FE13]
08 97,0 [46EAAF0F] [9EAAA2E1]
09 97,0 [45F330C6] [023EAC32]
10 97,0 [9C92ED67] [BE1E0D19]
11 97,0 [0B0082AA] [B03ADC8E]
12 97,0 [3D4D4C60] [AB9FFD3C]


Mott The Hoople - Mental Train: The Island Years 1969-1971 (2018) [6CD Box Set]

All thanks go to ALLexxess

Mott The Hoople in my Blog

Download Mott The Hoople - Mental Train: The Island Years 1969-1971 (2018):