Subcategories

Nine Inch Nails - Broken (1992) [EP]

Posted By: Designol
Nine Inch Nails - Broken (1992) [EP]

Nine Inch Nails - Broken EP (1992) [halo five]
EAC | FLAC | Tracks (Cue&Log) ~ 225 Mb | Mp3 (CBR320) ~ 86 Mb | Scans ~ 121 Mb
Label: Island Records, TVT Records | # IMCD 8004, 514 147-2 | Time: 00:37:44
Industrial, Alternative Rock, Industrial Metal

Broken is the first extended play (EP) by American industrial rock band Nine Inch Nails, released on September 22, 1992 by Nothing, TVT, and Interscope Records. Produced by frontman Trent Reznor and Flood, it consists entirely of new material and replaces the synth-pop style of the band's 1989 debut album Pretty Hate Machine with a considerably heavier sound that would act as a precursor to their second album The Downward Spiral (1994).

The music videos that accompanied five of the eight tracks were widely censored from television airplay due to their explicit content. Nevertheless, the song "Wish" won the Grammy Award for Best Metal Performance at the 35th Grammy Awards, and the Woodstock '94 performance of "Happiness in Slavery" won the same award at the 38th Grammy Awards.

During the time that Pretty Hate Machine was becoming an underground sensation, Trent Reznor became embroiled in legal difficulties with his label that prevented the release of any new Nine Inch Nails material. But the three-year wait actually helped – most of NIN's fans were relatively recent converts, and they eagerly snapped up 1992's Broken, which afforded the already angst-ridden Reznor the opportunity to vent his ample frustration over the imbroglio. Where Pretty Hate Machine had a few moments of reflection and sardonic humor, Broken is a concentrated blast of caustic, naked rage. Given how draining it is, a full-length album in its style would unquestionably have been wearisome, even self-parodic. So, Broken is the rare EP that's conceptually focused and complete unto itself. Production-wise, it's also a step up from Pretty Hate Machine, and a showcase for Reznor's flowering studio acumen. While Pretty Hate Machine was primarily electronic, Broken is loaded with heavy, jagged guitars, processed through a veritable meat grinder of effects into a massive wall of distortion. Each song one-ups the viciousness of its predecessor; even the two relatively subdued instrumental interludes are full of abrasive textures. There are two hidden bonus cuts at the end of the CD (early pressings had them on a separate disc); they're neither as produced nor as intense, and thus separated conceptually as well as physically. The cover of Adam Ant's "(You're So) Physical" was something of a revelation – not just demonstrating Reznor's fondness for new wave, but serving as a touchstone for his self-conscious, glammed-up sense of style. That – and his skills as a producer and arranger – would reach their fullest realization on The Downward Spiral, but Broken's tight focus and frothing intensity make it a major work in its own right.

Review by Steve Huey, Allmusic.com

Nine Inch Nails - Broken (1992) [EP]



Tracklist:

01. Pinion (1:03)
02. Wish (3:47)
03. Last (4:45)
04. Help Me I Am In Hell (1:56)
05. Happiness In Slavery (5:21)
06. Gave Up (4:08)
07-97. Silence (6:07) [hidden]*
98. Physical (5:30) [hidden]*
99. Suck (5:07) [hidden]*

* - There are 99 tracks on the CD. Tracks 7 to 97 are each 4 seconds of silence. Tracks 98 and 99 are referred to as tracks 7 and 8 in the credits on the release. The tracklist on the release only mentions tracks 1 to 6.


Exact Audio Copy V1.0 beta 1 from 15. November 2010

EAC extraction logfile from 24. January 2012, 15:31

Nine Inch Nails / Broken

Used drive : ATAPI iHAS124 Y Adapter: 4 ID: 0

Read mode : Secure
Utilize accurate stream : Yes
Defeat audio cache : Yes
Make use of C2 pointers : No

Read offset correction : 48
Overread into Lead-In and Lead-Out : No
Fill up missing offset samples with silence : Yes
Delete leading and trailing silent blocks : No
Null samples used in CRC calculations : Yes
Used interface : Native Win32 interface for Win NT & 2000
Gap handling : Appended to previous track

Used output format : Internal WAV Routines
Sample format : 44.100 Hz; 16 Bit; Stereo


TOC of the extracted CD

Track | Start | Length | Start sector | End sector
––––––––––––––––––––––––––––-
1 | 0:00.32 | 1:02.55 | 32 | 4736
2 | 1:03.12 | 3:46.55 | 4737 | 21741
3 | 4:49.67 | 4:44.43 | 21742 | 43084
4 | 9:34.35 | 1:56.15 | 43085 | 51799
5 | 11:30.50 | 5:21.15 | 51800 | 75889
6 | 16:51.65 | 4:08.10 | 75890 | 94499
7 | 21:00.00 | 0:04.02 | 94500 | 94801
8 | 21:04.02 | 0:04.03 | 94802 | 95104
9 | 21:08.05 | 0:04.02 | 95105 | 95406
10 | 21:12.07 | 0:04.03 | 95407 | 95709
11 | 21:16.10 | 0:04.02 | 95710 | 96011
12 | 21:20.12 | 0:04.03 | 96012 | 96314
13 | 21:24.15 | 0:04.02 | 96315 | 96616
14 | 21:28.17 | 0:04.03 | 96617 | 96919
15 | 21:32.20 | 0:04.02 | 96920 | 97221
16 | 21:36.22 | 0:04.03 | 97222 | 97524
17 | 21:40.25 | 0:04.02 | 97525 | 97826
18 | 21:44.27 | 0:04.03 | 97827 | 98129
19 | 21:48.30 | 0:04.02 | 98130 | 98431
20 | 21:52.32 | 0:04.03 | 98432 | 98734
21 | 21:56.35 | 0:04.02 | 98735 | 99036
22 | 22:00.37 | 0:04.03 | 99037 | 99339
23 | 22:04.40 | 0:04.02 | 99340 | 99641
24 | 22:08.42 | 0:04.03 | 99642 | 99944
25 | 22:12.45 | 0:04.02 | 99945 | 100246
26 | 22:16.47 | 0:04.03 | 100247 | 100549
27 | 22:20.50 | 0:04.02 | 100550 | 100851
28 | 22:24.52 | 0:04.03 | 100852 | 101154
29 | 22:28.55 | 0:04.02 | 101155 | 101456
30 | 22:32.57 | 0:04.03 | 101457 | 101759
31 | 22:36.60 | 0:04.02 | 101760 | 102061
32 | 22:40.62 | 0:04.03 | 102062 | 102364
33 | 22:44.65 | 0:04.02 | 102365 | 102666
34 | 22:48.67 | 0:04.03 | 102667 | 102969
35 | 22:52.70 | 0:04.02 | 102970 | 103271
36 | 22:56.72 | 0:04.03 | 103272 | 103574
37 | 23:01.00 | 0:04.02 | 103575 | 103876
38 | 23:05.02 | 0:04.03 | 103877 | 104179
39 | 23:09.05 | 0:04.02 | 104180 | 104481
40 | 23:13.07 | 0:04.03 | 104482 | 104784
41 | 23:17.10 | 0:04.02 | 104785 | 105086
42 | 23:21.12 | 0:04.03 | 105087 | 105389
43 | 23:25.15 | 0:04.02 | 105390 | 105691
44 | 23:29.17 | 0:04.03 | 105692 | 105994
45 | 23:33.20 | 0:04.02 | 105995 | 106296
46 | 23:37.22 | 0:04.03 | 106297 | 106599
47 | 23:41.25 | 0:04.02 | 106600 | 106901
48 | 23:45.27 | 0:04.03 | 106902 | 107204
49 | 23:49.30 | 0:04.02 | 107205 | 107506
50 | 23:53.32 | 0:04.03 | 107507 | 107809
51 | 23:57.35 | 0:04.02 | 107810 | 108111
52 | 24:01.37 | 0:04.03 | 108112 | 108414
53 | 24:05.40 | 0:04.02 | 108415 | 108716
54 | 24:09.42 | 0:04.03 | 108717 | 109019
55 | 24:13.45 | 0:04.02 | 109020 | 109321
56 | 24:17.47 | 0:04.03 | 109322 | 109624
57 | 24:21.50 | 0:04.02 | 109625 | 109926
58 | 24:25.52 | 0:04.03 | 109927 | 110229
59 | 24:29.55 | 0:04.02 | 110230 | 110531
60 | 24:33.57 | 0:04.03 | 110532 | 110834
61 | 24:37.60 | 0:04.02 | 110835 | 111136
62 | 24:41.62 | 0:04.03 | 111137 | 111439
63 | 24:45.65 | 0:04.02 | 111440 | 111741
64 | 24:49.67 | 0:04.03 | 111742 | 112044
65 | 24:53.70 | 0:04.02 | 112045 | 112346
66 | 24:57.72 | 0:04.03 | 112347 | 112649
67 | 25:02.00 | 0:04.02 | 112650 | 112951
68 | 25:06.02 | 0:04.03 | 112952 | 113254
69 | 25:10.05 | 0:04.02 | 113255 | 113556
70 | 25:14.07 | 0:04.03 | 113557 | 113859
71 | 25:18.10 | 0:04.02 | 113860 | 114161
72 | 25:22.12 | 0:04.03 | 114162 | 114464
73 | 25:26.15 | 0:04.02 | 114465 | 114766
74 | 25:30.17 | 0:04.03 | 114767 | 115069
75 | 25:34.20 | 0:04.02 | 115070 | 115371
76 | 25:38.22 | 0:04.03 | 115372 | 115674
77 | 25:42.25 | 0:04.02 | 115675 | 115976
78 | 25:46.27 | 0:04.03 | 115977 | 116279
79 | 25:50.30 | 0:04.02 | 116280 | 116581
80 | 25:54.32 | 0:04.03 | 116582 | 116884
81 | 25:58.35 | 0:04.02 | 116885 | 117186
82 | 26:02.37 | 0:04.03 | 117187 | 117489
83 | 26:06.40 | 0:04.02 | 117490 | 117791
84 | 26:10.42 | 0:04.03 | 117792 | 118094
85 | 26:14.45 | 0:04.02 | 118095 | 118396
86 | 26:18.47 | 0:04.03 | 118397 | 118699
87 | 26:22.50 | 0:04.02 | 118700 | 119001
88 | 26:26.52 | 0:04.03 | 119002 | 119304
89 | 26:30.55 | 0:04.02 | 119305 | 119606
90 | 26:34.57 | 0:04.03 | 119607 | 119909
91 | 26:38.60 | 0:04.02 | 119910 | 120211
92 | 26:42.62 | 0:04.03 | 120212 | 120514
93 | 26:46.65 | 0:04.02 | 120515 | 120816
94 | 26:50.67 | 0:04.03 | 120817 | 121119
95 | 26:54.70 | 0:04.02 | 121120 | 121421
96 | 26:58.72 | 0:04.03 | 121422 | 121724
97 | 27:03.00 | 0:04.02 | 121725 | 122026
98 | 27:07.02 | 5:29.70 | 122027 | 146771
99 | 32:36.72 | 5:07.35 | 146772 | 169831


Track 1

Filename F:\something\Temp\01 - Pinion.wav

Pre-gap length 0:00:02.32

Peak level 21.3 %
Extraction speed 1.5 X
Track quality 100.0 %
Test CRC CE5E995C
Copy CRC CE5E995C
Accurately ripped (confidence 5) [F23D6100]
Copy OK

Track 2

Filename F:\something\Temp\02 - Wish.wav

Peak level 94.6 %
Extraction speed 2.3 X
Track quality 100.0 %
Test CRC CEC42A85
Copy CRC CEC42A85
Accurately ripped (confidence 5) [B689CA16]
Copy OK

Track 3

Filename F:\something\Temp\03 - Last.wav

Peak level 94.6 %
Extraction speed 2.4 X
Track quality 99.9 %
Test CRC CF9A8C4D
Copy CRC CF9A8C4D
Accurately ripped (confidence 5) [5EBF0454]
Copy OK

Track 4

Filename F:\something\Temp\04 - Help Me I Am In Hell.wav

Peak level 60.8 %
Extraction speed 1.9 X
Track quality 99.9 %
Test CRC 9A745894
Copy CRC 9A745894
Accurately ripped (confidence 5) [03D3CCBB]
Copy OK

Track 5

Filename F:\something\Temp\05 - Happiness In Slavery.wav

Peak level 94.6 %
Extraction speed 3.1 X
Track quality 100.0 %
Test CRC F7EF63E1
Copy CRC F7EF63E1
Accurately ripped (confidence 5) [1F4E2165]
Copy OK

Track 6

Filename F:\something\Temp\06 - Gave Up.wav

Peak level 94.6 %
Extraction speed 3.2 X
Track quality 100.0 %
Test CRC 232B1BFA
Copy CRC 232B1BFA
Accurately ripped (confidence 5) [63E862AE]
Copy OK

Track 7

Filename F:\something\Temp\07 - Silence.wav

Peak level 12.2 %
Extraction speed 0.3 X
Track quality 100.0 %
Test CRC 44DAE647
Copy CRC 44DAE647
Track not present in AccurateRip database
Copy OK

Track 8

Filename F:\something\Temp\08 - Silence.wav

Peak level 0.0 %
Extraction speed 0.3 X
Track quality 100.0 %
Test CRC 6E375D99
Copy CRC 6E375D99
Track not present in AccurateRip database
Copy OK

Track 9

Filename F:\something\Temp\09 - Silence.wav

Peak level 0.0 %
Extraction speed 0.3 X
Track quality 100.0 %
Test CRC D95AFAF1
Copy CRC D95AFAF1
Track not present in AccurateRip database
Copy OK

Track 10

Filename F:\something\Temp\10 - Silence.wav

Peak level 0.0 %
Extraction speed 0.3 X
Track quality 100.0 %
Test CRC 6E375D99
Copy CRC 6E375D99
Track not present in AccurateRip database
Copy OK

Track 11

Filename F:\something\Temp\11 - Silence.wav

Peak level 0.0 %
Extraction speed 0.3 X
Track quality 100.0 %
Test CRC D95AFAF1
Copy CRC D95AFAF1
Track not present in AccurateRip database
Copy OK

Track 12

Filename F:\something\Temp\12 - Silence.wav

Peak level 0.0 %
Extraction speed 0.3 X
Track quality 100.0 %
Test CRC 6E375D99
Copy CRC 6E375D99
Track not present in AccurateRip database
Copy OK

Track 13

Filename F:\something\Temp\13 - Silence.wav

Peak level 0.0 %
Extraction speed 0.3 X
Track quality 100.0 %
Test CRC D95AFAF1
Copy CRC D95AFAF1
Track not present in AccurateRip database
Copy OK

Track 14

Filename F:\something\Temp\14 - Silence.wav

Peak level 0.0 %
Extraction speed 0.3 X
Track quality 100.0 %
Test CRC 6E375D99
Copy CRC 6E375D99
Track not present in AccurateRip database
Copy OK

Track 15

Filename F:\something\Temp\15 - Silence.wav

Peak level 0.0 %
Extraction speed 0.3 X
Track quality 100.0 %
Test CRC D95AFAF1
Copy CRC D95AFAF1
Track not present in AccurateRip database
Copy OK

Track 16

Filename F:\something\Temp\16 - Silence.wav

Peak level 0.0 %
Extraction speed 0.3 X
Track quality 100.0 %
Test CRC 6E375D99
Copy CRC 6E375D99
Track not present in AccurateRip database
Copy OK

Track 17

Filename F:\something\Temp\17 - Silence.wav

Peak level 0.0 %
Extraction speed 0.3 X
Track quality 100.0 %
Test CRC D95AFAF1
Copy CRC D95AFAF1
Track not present in AccurateRip database
Copy OK

Track 18

Filename F:\something\Temp\18 - Silence.wav

Peak level 0.0 %
Extraction speed 0.3 X
Track quality 100.0 %
Test CRC 6E375D99
Copy CRC 6E375D99
Track not present in AccurateRip database
Copy OK

Track 19

Filename F:\something\Temp\19 - Silence.wav

Peak level 0.0 %
Extraction speed 0.3 X
Track quality 100.0 %
Test CRC D95AFAF1
Copy CRC D95AFAF1
Track not present in AccurateRip database
Copy OK

Track 20

Filename F:\something\Temp\20 - Silence.wav

Peak level 0.0 %
Extraction speed 0.3 X
Track quality 100.0 %
Test CRC 6E375D99
Copy CRC 6E375D99
Track not present in AccurateRip database
Copy OK

Track 21

Filename F:\something\Temp\21 - Silence.wav

Peak level 0.0 %
Extraction speed 0.3 X
Track quality 100.0 %
Test CRC D95AFAF1
Copy CRC D95AFAF1
Track not present in AccurateRip database
Copy OK

Track 22

Filename F:\something\Temp\22 - Silence.wav

Peak level 0.0 %
Extraction speed 0.3 X
Track quality 100.0 %
Test CRC 6E375D99
Copy CRC 6E375D99
Track not present in AccurateRip database
Copy OK

Track 23

Filename F:\something\Temp\23 - Silence.wav

Peak level 0.0 %
Extraction speed 0.3 X
Track quality 100.0 %
Test CRC D95AFAF1
Copy CRC D95AFAF1
Track not present in AccurateRip database
Copy OK

Track 24

Filename F:\something\Temp\24 - Silence.wav

Peak level 0.0 %
Extraction speed 0.3 X
Track quality 100.0 %
Test CRC 6E375D99
Copy CRC 6E375D99
Track not present in AccurateRip database
Copy OK

Track 25

Filename F:\something\Temp\25 - Silence.wav

Peak level 0.0 %
Extraction speed 0.3 X
Track quality 100.0 %
Test CRC D95AFAF1
Copy CRC D95AFAF1
Track not present in AccurateRip database
Copy OK

Track 26

Filename F:\something\Temp\26 - Silence.wav

Peak level 0.0 %
Extraction speed 0.3 X
Track quality 100.0 %
Test CRC 6E375D99
Copy CRC 6E375D99
Track not present in AccurateRip database
Copy OK

Track 27

Filename F:\something\Temp\27 - Silence.wav

Peak level 0.0 %
Extraction speed 0.3 X
Track quality 100.0 %
Test CRC D95AFAF1
Copy CRC D95AFAF1
Track not present in AccurateRip database
Copy OK

Track 28

Filename F:\something\Temp\28 - Silence.wav

Peak level 0.0 %
Extraction speed 0.3 X
Track quality 100.0 %
Test CRC 6E375D99
Copy CRC 6E375D99
Track not present in AccurateRip database
Copy OK

Track 29

Filename F:\something\Temp\29 - Silence.wav

Peak level 0.0 %
Extraction speed 0.3 X
Track quality 100.0 %
Test CRC D95AFAF1
Copy CRC D95AFAF1
Track not present in AccurateRip database
Copy OK

Track 30

Filename F:\something\Temp\30 - Silence.wav

Peak level 0.0 %
Extraction speed 0.3 X
Track quality 100.0 %
Test CRC 6E375D99
Copy CRC 6E375D99
Track not present in AccurateRip database
Copy OK

Track 31

Filename F:\something\Temp\31 - Silence.wav

Peak level 0.0 %
Extraction speed 0.3 X
Track quality 100.0 %
Test CRC D95AFAF1
Copy CRC D95AFAF1
Track not present in AccurateRip database
Copy OK

Track 32

Filename F:\something\Temp\32 - Silence.wav

Peak level 0.0 %
Extraction speed 0.3 X
Track quality 100.0 %
Test CRC 6E375D99
Copy CRC 6E375D99
Track not present in AccurateRip database
Copy OK

Track 33

Filename F:\something\Temp\33 - Silence.wav

Peak level 0.0 %
Extraction speed 0.3 X
Track quality 100.0 %
Test CRC D95AFAF1
Copy CRC D95AFAF1
Track not present in AccurateRip database
Copy OK

Track 34

Filename F:\something\Temp\34 - Silence.wav

Peak level 0.0 %
Extraction speed 0.3 X
Track quality 100.0 %
Test CRC 6E375D99
Copy CRC 6E375D99
Track not present in AccurateRip database
Copy OK

Track 35

Filename F:\something\Temp\35 - Silence.wav

Peak level 0.0 %
Extraction speed 0.3 X
Track quality 100.0 %
Test CRC D95AFAF1
Copy CRC D95AFAF1
Track not present in AccurateRip database
Copy OK

Track 36

Filename F:\something\Temp\36 - Silence.wav

Peak level 0.0 %
Extraction speed 0.3 X
Track quality 100.0 %
Test CRC 6E375D99
Copy CRC 6E375D99
Track not present in AccurateRip database
Copy OK

Track 37

Filename F:\something\Temp\37 - Silence.wav

Peak level 0.0 %
Extraction speed 0.3 X
Track quality 100.0 %
Test CRC D95AFAF1
Copy CRC D95AFAF1
Track not present in AccurateRip database
Copy OK

Track 38

Filename F:\something\Temp\38 - Silence.wav

Peak level 0.0 %
Extraction speed 0.3 X
Track quality 100.0 %
Test CRC 6E375D99
Copy CRC 6E375D99
Track not present in AccurateRip database
Copy OK

Track 39

Filename F:\something\Temp\39 - Silence.wav

Peak level 0.0 %
Extraction speed 0.3 X
Track quality 100.0 %
Test CRC D95AFAF1
Copy CRC D95AFAF1
Track not present in AccurateRip database
Copy OK

Track 40

Filename F:\something\Temp\40 - Silence.wav

Peak level 0.0 %
Extraction speed 0.3 X
Track quality 100.0 %
Test CRC 6E375D99
Copy CRC 6E375D99
Track not present in AccurateRip database
Copy OK

Track 41

Filename F:\something\Temp\41 - Silence.wav

Peak level 0.0 %
Extraction speed 0.3 X
Track quality 100.0 %
Test CRC D95AFAF1
Copy CRC D95AFAF1
Track not present in AccurateRip database
Copy OK

Track 42

Filename F:\something\Temp\42 - Silence.wav

Peak level 0.0 %
Extraction speed 0.3 X
Track quality 100.0 %
Test CRC 6E375D99
Copy CRC 6E375D99
Track not present in AccurateRip database
Copy OK

Track 43

Filename F:\something\Temp\43 - Silence.wav

Peak level 0.0 %
Extraction speed 0.3 X
Track quality 100.0 %
Test CRC D95AFAF1
Copy CRC D95AFAF1
Track not present in AccurateRip database
Copy OK

Track 44

Filename F:\something\Temp\44 - Silence.wav

Peak level 0.0 %
Extraction speed 0.3 X
Track quality 100.0 %
Test CRC 6E375D99
Copy CRC 6E375D99
Track not present in AccurateRip database
Copy OK

Track 45

Filename F:\something\Temp\45 - Silence.wav

Peak level 0.0 %
Extraction speed 0.3 X
Track quality 100.0 %
Test CRC D95AFAF1
Copy CRC D95AFAF1
Track not present in AccurateRip database
Copy OK

Track 46

Filename F:\something\Temp\46 - Silence.wav

Peak level 0.0 %
Extraction speed 0.3 X
Track quality 100.0 %
Test CRC 6E375D99
Copy CRC 6E375D99
Track not present in AccurateRip database
Copy OK

Track 47

Filename F:\something\Temp\47 - Silence.wav

Peak level 0.0 %
Extraction speed 0.3 X
Track quality 100.0 %
Test CRC D95AFAF1
Copy CRC D95AFAF1
Track not present in AccurateRip database
Copy OK

Track 48

Filename F:\something\Temp\48 - Silence.wav

Peak level 0.0 %
Extraction speed 0.3 X
Track quality 100.0 %
Test CRC 6E375D99
Copy CRC 6E375D99
Track not present in AccurateRip database
Copy OK

Track 49

Filename F:\something\Temp\49 - Silence.wav

Peak level 0.0 %
Extraction speed 0.3 X
Track quality 100.0 %
Test CRC D95AFAF1
Copy CRC D95AFAF1
Track not present in AccurateRip database
Copy OK

Track 50

Filename F:\something\Temp\50 - Silence.wav

Peak level 0.0 %
Extraction speed 0.3 X
Track quality 100.0 %
Test CRC 6E375D99
Copy CRC 6E375D99
Track not present in AccurateRip database
Copy OK

Track 51

Filename F:\something\Temp\51 - Silence.wav

Peak level 0.0 %
Extraction speed 0.3 X
Track quality 100.0 %
Test CRC D95AFAF1
Copy CRC D95AFAF1
Track not present in AccurateRip database
Copy OK

Track 52

Filename F:\something\Temp\52 - Silence.wav

Peak level 0.0 %
Extraction speed 0.3 X
Track quality 100.0 %
Test CRC 6E375D99
Copy CRC 6E375D99
Track not present in AccurateRip database
Copy OK

Track 53

Filename F:\something\Temp\53 - Silence.wav

Peak level 0.0 %
Extraction speed 0.3 X
Track quality 100.0 %
Test CRC D95AFAF1
Copy CRC D95AFAF1
Track not present in AccurateRip database
Copy OK

Track 54

Filename F:\something\Temp\54 - Silence.wav

Peak level 0.0 %
Extraction speed 0.3 X
Track quality 100.0 %
Test CRC 6E375D99
Copy CRC 6E375D99
Track not present in AccurateRip database
Copy OK

Track 55

Filename F:\something\Temp\55 - Silence.wav

Peak level 0.0 %
Extraction speed 0.3 X
Track quality 100.0 %
Test CRC D95AFAF1
Copy CRC D95AFAF1
Track not present in AccurateRip database
Copy OK

Track 56

Filename F:\something\Temp\56 - Silence.wav

Peak level 0.0 %
Extraction speed 0.3 X
Track quality 100.0 %
Test CRC 6E375D99
Copy CRC 6E375D99
Track not present in AccurateRip database
Copy OK

Track 57

Filename F:\something\Temp\57 - Silence.wav

Peak level 0.0 %
Extraction speed 0.3 X
Track quality 100.0 %
Test CRC D95AFAF1
Copy CRC D95AFAF1
Track not present in AccurateRip database
Copy OK

Track 58

Filename F:\something\Temp\58 - Silence.wav

Peak level 0.0 %
Extraction speed 0.3 X
Track quality 100.0 %
Test CRC 6E375D99
Copy CRC 6E375D99
Track not present in AccurateRip database
Copy OK

Track 59

Filename F:\something\Temp\59 - Silence.wav

Peak level 0.0 %
Extraction speed 0.3 X
Track quality 100.0 %
Test CRC D95AFAF1
Copy CRC D95AFAF1
Track not present in AccurateRip database
Copy OK

Track 60

Filename F:\something\Temp\60 - Silence.wav

Peak level 0.0 %
Extraction speed 0.3 X
Track quality 100.0 %
Test CRC 6E375D99
Copy CRC 6E375D99
Track not present in AccurateRip database
Copy OK

Track 61

Filename F:\something\Temp\61 - Silence.wav

Peak level 0.0 %
Extraction speed 0.3 X
Track quality 100.0 %
Test CRC D95AFAF1
Copy CRC D95AFAF1
Track not present in AccurateRip database
Copy OK

Track 62

Filename F:\something\Temp\62 - Silence.wav

Peak level 0.0 %
Extraction speed 0.3 X
Track quality 100.0 %
Test CRC 6E375D99
Copy CRC 6E375D99
Track not present in AccurateRip database
Copy OK

Track 63

Filename F:\something\Temp\63 - Silence.wav

Peak level 0.0 %
Extraction speed 0.3 X
Track quality 100.0 %
Test CRC D95AFAF1
Copy CRC D95AFAF1
Track not present in AccurateRip database
Copy OK

Track 64

Filename F:\something\Temp\64 - Silence.wav

Peak level 0.0 %
Extraction speed 0.3 X
Track quality 100.0 %
Test CRC 6E375D99
Copy CRC 6E375D99
Track not present in AccurateRip database
Copy OK

Track 65

Filename F:\something\Temp\65 - Silence.wav

Peak level 0.0 %
Extraction speed 0.3 X
Track quality 100.0 %
Test CRC D95AFAF1
Copy CRC D95AFAF1
Track not present in AccurateRip database
Copy OK

Track 66

Filename F:\something\Temp\66 - Silence.wav

Peak level 0.0 %
Extraction speed 0.3 X
Track quality 100.0 %
Test CRC 6E375D99
Copy CRC 6E375D99
Track not present in AccurateRip database
Copy OK

Track 67

Filename F:\something\Temp\67 - Silence.wav

Peak level 0.0 %
Extraction speed 0.3 X
Track quality 100.0 %
Test CRC D95AFAF1
Copy CRC D95AFAF1
Track not present in AccurateRip database
Copy OK

Track 68

Filename F:\something\Temp\68 - Silence.wav

Peak level 0.0 %
Extraction speed 0.3 X
Track quality 100.0 %
Test CRC 6E375D99
Copy CRC 6E375D99
Track not present in AccurateRip database
Copy OK

Track 69

Filename F:\something\Temp\69 - Silence.wav

Peak level 0.0 %
Extraction speed 0.3 X
Track quality 100.0 %
Test CRC D95AFAF1
Copy CRC D95AFAF1
Track not present in AccurateRip database
Copy OK

Track 70

Filename F:\something\Temp\70 - Silence.wav

Peak level 0.0 %
Extraction speed 0.3 X
Track quality 100.0 %
Test CRC 6E375D99
Copy CRC 6E375D99
Track not present in AccurateRip database
Copy OK

Track 71

Filename F:\something\Temp\71 - Silence.wav

Peak level 0.0 %
Extraction speed 0.3 X
Track quality 100.0 %
Test CRC D95AFAF1
Copy CRC D95AFAF1
Track not present in AccurateRip database
Copy OK

Track 72

Filename F:\something\Temp\72 - Silence.wav

Peak level 0.0 %
Extraction speed 0.3 X
Track quality 100.0 %
Test CRC 6E375D99
Copy CRC 6E375D99
Track not present in AccurateRip database
Copy OK

Track 73

Filename F:\something\Temp\73 - Silence.wav

Peak level 0.0 %
Extraction speed 0.3 X
Track quality 100.0 %
Test CRC D95AFAF1
Copy CRC D95AFAF1
Track not present in AccurateRip database
Copy OK

Track 74

Filename F:\something\Temp\74 - Silence.wav

Peak level 0.0 %
Extraction speed 0.3 X
Track quality 100.0 %
Test CRC 6E375D99
Copy CRC 6E375D99
Track not present in AccurateRip database
Copy OK

Track 75

Filename F:\something\Temp\75 - Silence.wav

Peak level 0.0 %
Extraction speed 0.3 X
Track quality 100.0 %
Test CRC D95AFAF1
Copy CRC D95AFAF1
Track not present in AccurateRip database
Copy OK

Track 76

Filename F:\something\Temp\76 - Silence.wav

Peak level 0.0 %
Extraction speed 0.3 X
Track quality 100.0 %
Test CRC 6E375D99
Copy CRC 6E375D99
Track not present in AccurateRip database
Copy OK

Track 77

Filename F:\something\Temp\77 - Silence.wav

Peak level 0.0 %
Extraction speed 0.3 X
Track quality 100.0 %
Test CRC D95AFAF1
Copy CRC D95AFAF1
Track not present in AccurateRip database
Copy OK

Track 78

Filename F:\something\Temp\78 - Silence.wav

Peak level 0.0 %
Extraction speed 0.3 X
Track quality 100.0 %
Test CRC 6E375D99
Copy CRC 6E375D99
Track not present in AccurateRip database
Copy OK

Track 79

Filename F:\something\Temp\79 - Silence.wav

Peak level 0.0 %
Extraction speed 0.3 X
Track quality 100.0 %
Test CRC D95AFAF1
Copy CRC D95AFAF1
Track not present in AccurateRip database
Copy OK

Track 80

Filename F:\something\Temp\80 - Silence.wav

Peak level 0.0 %
Extraction speed 0.3 X
Track quality 100.0 %
Test CRC 6E375D99
Copy CRC 6E375D99
Track not present in AccurateRip database
Copy OK

Track 81

Filename F:\something\Temp\81 - Silence.wav

Peak level 0.0 %
Extraction speed 0.3 X
Track quality 100.0 %
Test CRC D95AFAF1
Copy CRC D95AFAF1
Track not present in AccurateRip database
Copy OK

Track 82

Filename F:\something\Temp\82 - Silence.wav

Peak level 0.0 %
Extraction speed 0.3 X
Track quality 100.0 %
Test CRC 6E375D99
Copy CRC 6E375D99
Track not present in AccurateRip database
Copy OK

Track 83

Filename F:\something\Temp\83 - Silence.wav

Peak level 0.0 %
Extraction speed 0.3 X
Track quality 100.0 %
Test CRC D95AFAF1
Copy CRC D95AFAF1
Track not present in AccurateRip database
Copy OK

Track 84

Filename F:\something\Temp\84 - Silence.wav

Peak level 0.0 %
Extraction speed 0.3 X
Track quality 100.0 %
Test CRC 6E375D99
Copy CRC 6E375D99
Track not present in AccurateRip database
Copy OK

Track 85

Filename F:\something\Temp\85 - Silence.wav

Peak level 0.0 %
Extraction speed 0.3 X
Track quality 100.0 %
Test CRC D95AFAF1
Copy CRC D95AFAF1
Track not present in AccurateRip database
Copy OK

Track 86

Filename F:\something\Temp\86 - Silence.wav

Peak level 0.0 %
Extraction speed 0.3 X
Track quality 100.0 %
Test CRC 6E375D99
Copy CRC 6E375D99
Track not present in AccurateRip database
Copy OK

Track 87

Filename F:\something\Temp\87 - Silence.wav

Peak level 0.0 %
Extraction speed 0.3 X
Track quality 100.0 %
Test CRC D95AFAF1
Copy CRC D95AFAF1
Track not present in AccurateRip database
Copy OK

Track 88

Filename F:\something\Temp\88 - Silence.wav

Peak level 0.0 %
Extraction speed 0.3 X
Track quality 100.0 %
Test CRC 6E375D99
Copy CRC 6E375D99
Track not present in AccurateRip database
Copy OK

Track 89

Filename F:\something\Temp\89 - Silence.wav

Peak level 0.0 %
Extraction speed 0.3 X
Track quality 100.0 %
Test CRC D95AFAF1
Copy CRC D95AFAF1
Track not present in AccurateRip database
Copy OK

Track 90

Filename F:\something\Temp\90 - Silence.wav

Peak level 0.0 %
Extraction speed 0.3 X
Track quality 100.0 %
Test CRC 6E375D99
Copy CRC 6E375D99
Track not present in AccurateRip database
Copy OK

Track 91

Filename F:\something\Temp\91 - Silence.wav

Peak level 0.0 %
Extraction speed 0.3 X
Track quality 100.0 %
Test CRC D95AFAF1
Copy CRC D95AFAF1
Track not present in AccurateRip database
Copy OK

Track 92

Filename F:\something\Temp\92 - Silence.wav

Peak level 0.0 %
Extraction speed 0.3 X
Track quality 100.0 %
Test CRC 6E375D99
Copy CRC 6E375D99
Track not present in AccurateRip database
Copy OK

Track 93

Filename F:\something\Temp\93 - Silence.wav

Peak level 0.0 %
Extraction speed 0.3 X
Track quality 100.0 %
Test CRC D95AFAF1
Copy CRC D95AFAF1
Track not present in AccurateRip database
Copy OK

Track 94

Filename F:\something\Temp\94 - Silence.wav

Peak level 0.0 %
Extraction speed 0.3 X
Track quality 100.0 %
Test CRC 6E375D99
Copy CRC 6E375D99
Track not present in AccurateRip database
Copy OK

Track 95

Filename F:\something\Temp\95 - Silence.wav

Peak level 0.0 %
Extraction speed 0.3 X
Track quality 100.0 %
Test CRC D95AFAF1
Copy CRC D95AFAF1
Track not present in AccurateRip database
Copy OK

Track 96

Filename F:\something\Temp\96 - Silence.wav

Peak level 0.0 %
Extraction speed 0.3 X
Track quality 100.0 %
Test CRC 6E375D99
Copy CRC 6E375D99
Track not present in AccurateRip database
Copy OK

Track 97

Filename F:\something\Temp\97 - Silence.wav

Peak level 0.0 %
Extraction speed 0.3 X
Track quality 100.0 %
Test CRC D95AFAF1
Copy CRC D95AFAF1
Track not present in AccurateRip database
Copy OK

Track 98

Filename F:\something\Temp\98 - Physical.wav

Peak level 94.6 %
Extraction speed 3.8 X
Track quality 100.0 %
Test CRC C5F69884
Copy CRC C5F69884
Accurately ripped (confidence 5) [5CE81879]
Copy OK

Track 99

Filename F:\something\Temp\99 - Suck.wav

Peak level 94.6 %
Extraction speed 3.6 X
Track quality 99.9 %
Test CRC E9EDD2ED
Copy CRC E9EDD2ED
Accurately ripped (confidence 5) [84E99AD8]
Copy OK


8 track(s) accurately ripped
91 track(s) not present in the AccurateRip database

Some tracks could not be verified as accurate

No errors occurred

End of status report

==== Log checksum CDD320287B081336662A063C6B2A0C3CC23C30D0E26D3AFDA0C771321444FBC7 ====

[CUETools log; Date: 03.11.2018 18:33:20; Version: 2.1.4]
Pregap length 00:00:32.
[CTDB TOCID: twUk3bB1rNxh6fG5QLhBhjkh1S4-] found.
Track | CTDB Status
1 | (42/42) Accurately ripped
2 | (42/42) Accurately ripped
3 | (42/42) Accurately ripped
4 | (42/42) Accurately ripped
5 | (42/42) Accurately ripped
6 | (42/42) Accurately ripped
7 | (42/42) Accurately ripped
8 | (42/42) Accurately ripped
9 | (42/42) Accurately ripped
10 | (42/42) Accurately ripped
11 | (42/42) Accurately ripped
12 | (42/42) Accurately ripped
13 | (42/42) Accurately ripped
14 | (42/42) Accurately ripped
15 | (42/42) Accurately ripped
16 | (42/42) Accurately ripped
17 | (42/42) Accurately ripped
18 | (42/42) Accurately ripped
19 | (42/42) Accurately ripped
20 | (42/42) Accurately ripped
21 | (42/42) Accurately ripped
22 | (42/42) Accurately ripped
23 | (42/42) Accurately ripped
24 | (42/42) Accurately ripped
25 | (42/42) Accurately ripped
26 | (42/42) Accurately ripped
27 | (42/42) Accurately ripped
28 | (42/42) Accurately ripped
29 | (42/42) Accurately ripped
30 | (42/42) Accurately ripped
31 | (42/42) Accurately ripped
32 | (42/42) Accurately ripped
33 | (42/42) Accurately ripped
34 | (42/42) Accurately ripped
35 | (42/42) Accurately ripped
36 | (42/42) Accurately ripped
37 | (42/42) Accurately ripped
38 | (42/42) Accurately ripped
39 | (42/42) Accurately ripped
40 | (42/42) Accurately ripped
41 | (42/42) Accurately ripped
42 | (42/42) Accurately ripped
43 | (42/42) Accurately ripped
44 | (42/42) Accurately ripped
45 | (42/42) Accurately ripped
46 | (42/42) Accurately ripped
47 | (42/42) Accurately ripped
48 | (42/42) Accurately ripped
49 | (42/42) Accurately ripped
50 | (42/42) Accurately ripped
51 | (42/42) Accurately ripped
52 | (42/42) Accurately ripped
53 | (42/42) Accurately ripped
54 | (42/42) Accurately ripped
55 | (42/42) Accurately ripped
56 | (42/42) Accurately ripped
57 | (42/42) Accurately ripped
58 | (42/42) Accurately ripped
59 | (42/42) Accurately ripped
60 | (42/42) Accurately ripped
61 | (42/42) Accurately ripped
62 | (42/42) Accurately ripped
63 | (42/42) Accurately ripped
64 | (42/42) Accurately ripped
65 | (42/42) Accurately ripped
66 | (42/42) Accurately ripped
67 | (42/42) Accurately ripped
68 | (42/42) Accurately ripped
69 | (42/42) Accurately ripped
70 | (42/42) Accurately ripped
71 | (42/42) Accurately ripped
72 | (42/42) Accurately ripped
73 | (42/42) Accurately ripped
74 | (42/42) Accurately ripped
75 | (42/42) Accurately ripped
76 | (42/42) Accurately ripped
77 | (42/42) Accurately ripped
78 | (42/42) Accurately ripped
79 | (42/42) Accurately ripped
80 | (42/42) Accurately ripped
81 | (42/42) Accurately ripped
82 | (42/42) Accurately ripped
83 | (42/42) Accurately ripped
84 | (42/42) Accurately ripped
85 | (42/42) Accurately ripped
86 | (42/42) Accurately ripped
87 | (42/42) Accurately ripped
88 | (42/42) Accurately ripped
89 | (42/42) Accurately ripped
90 | (42/42) Accurately ripped
91 | (42/42) Accurately ripped
92 | (42/42) Accurately ripped
93 | (42/42) Accurately ripped
94 | (42/42) Accurately ripped
95 | (42/42) Accurately ripped
96 | (42/42) Accurately ripped
97 | (42/42) Accurately ripped
98 | (42/42) Accurately ripped
99 | (42/42) Accurately ripped
[AccurateRip ID: 009fd294-224607b9-6008d863] found.
Track [ CRC | V2 ] Status
01 [f23d6100|ff8bea4d] (058+052/110) Accurately ripped
02 [b689ca16|c58e5ad7] (058+052/110) Accurately ripped
03 [5ebf0454|ca1b07e9] (058+052/110) Accurately ripped
04 [03d3ccbb|d2fc2add] (058+052/110) Accurately ripped
05 [1f4e2165|b4f66b8b] (058+052/110) Accurately ripped
06 [63e862ae|e4dc278d] (058+051/109) Accurately ripped
07 [ff097ad3|01d0029c] (005+005/010) Accurately ripped
08 [00000000|00000000] (000+000/000) Silent track
09 [00000000|00000000] (000+000/000) Silent track
10 [00000000|00000000] (000+000/000) Silent track
11 [00000000|00000000] (000+000/000) Silent track
12 [00000000|00000000] (000+000/000) Silent track
13 [00000000|00000000] (000+000/000) Silent track
14 [00000000|00000000] (000+000/000) Silent track
15 [00000000|00000000] (000+000/000) Silent track
16 [00000000|00000000] (000+000/000) Silent track
17 [00000000|00000000] (000+000/000) Silent track
18 [00000000|00000000] (000+000/000) Silent track
19 [00000000|00000000] (000+000/000) Silent track
20 [00000000|00000000] (000+000/000) Silent track
21 [00000000|00000000] (000+000/000) Silent track
22 [00000000|00000000] (000+000/000) Silent track
23 [00000000|00000000] (000+000/000) Silent track
24 [00000000|00000000] (000+000/000) Silent track
25 [00000000|00000000] (000+000/000) Silent track
26 [00000000|00000000] (000+000/000) Silent track
27 [00000000|00000000] (000+000/000) Silent track
28 [00000000|00000000] (000+000/000) Silent track
29 [00000000|00000000] (000+000/000) Silent track
30 [00000000|00000000] (000+000/000) Silent track
31 [00000000|00000000] (000+000/000) Silent track
32 [00000000|00000000] (000+000/000) Silent track
33 [00000000|00000000] (000+000/000) Silent track
34 [00000000|00000000] (000+000/000) Silent track
35 [00000000|00000000] (000+000/000) Silent track
36 [00000000|00000000] (000+000/000) Silent track
37 [00000000|00000000] (000+000/000) Silent track
38 [00000000|00000000] (000+000/000) Silent track
39 [00000000|00000000] (000+000/000) Silent track
40 [00000000|00000000] (000+000/000) Silent track
41 [00000000|00000000] (000+000/000) Silent track
42 [00000000|00000000] (000+000/000) Silent track
43 [00000000|00000000] (000+000/000) Silent track
44 [00000000|00000000] (000+000/000) Silent track
45 [00000000|00000000] (000+000/000) Silent track
46 [00000000|00000000] (000+000/000) Silent track
47 [00000000|00000000] (000+000/000) Silent track
48 [00000000|00000000] (000+000/000) Silent track
49 [00000000|00000000] (000+000/000) Silent track
50 [00000000|00000000] (000+000/000) Silent track
51 [00000000|00000000] (000+000/000) Silent track
52 [00000000|00000000] (000+000/000) Silent track
53 [00000000|00000000] (000+000/000) Silent track
54 [00000000|00000000] (000+000/000) Silent track
55 [00000000|00000000] (000+000/000) Silent track
56 [00000000|00000000] (000+000/000) Silent track
57 [00000000|00000000] (000+000/000) Silent track
58 [00000000|00000000] (000+000/000) Silent track
59 [00000000|00000000] (000+000/000) Silent track
60 [00000000|00000000] (000+000/000) Silent track
61 [00000000|00000000] (000+000/000) Silent track
62 [00000000|00000000] (000+000/000) Silent track
63 [00000000|00000000] (000+000/000) Silent track
64 [00000000|00000000] (000+000/000) Silent track
65 [00000000|00000000] (000+000/000) Silent track
66 [00000000|00000000] (000+000/000) Silent track
67 [00000000|00000000] (000+000/000) Silent track
68 [00000000|00000000] (000+000/000) Silent track
69 [00000000|00000000] (000+000/000) Silent track
70 [00000000|00000000] (000+000/000) Silent track
71 [00000000|00000000] (000+000/000) Silent track
72 [00000000|00000000] (000+000/000) Silent track
73 [00000000|00000000] (000+000/000) Silent track
74 [00000000|00000000] (000+000/000) Silent track
75 [00000000|00000000] (000+000/000) Silent track
76 [00000000|00000000] (000+000/000) Silent track
77 [00000000|00000000] (000+000/000) Silent track
78 [00000000|00000000] (000+000/000) Silent track
79 [00000000|00000000] (000+000/000) Silent track
80 [00000000|00000000] (000+000/000) Silent track
81 [00000000|00000000] (000+000/000) Silent track
82 [00000000|00000000] (000+000/000) Silent track
83 [00000000|00000000] (000+000/000) Silent track
84 [00000000|00000000] (000+000/000) Silent track
85 [00000000|00000000] (000+000/000) Silent track
86 [00000000|00000000] (000+000/000) Silent track
87 [00000000|00000000] (000+000/000) Silent track
88 [00000000|00000000] (000+000/000) Silent track
89 [00000000|00000000] (000+000/000) Silent track
90 [00000000|00000000] (000+000/000) Silent track
91 [00000000|00000000] (000+000/000) Silent track
92 [00000000|00000000] (000+000/000) Silent track
93 [00000000|00000000] (000+000/000) Silent track
94 [00000000|00000000] (000+000/000) Silent track
95 [00000000|00000000] (000+000/000) Silent track
96 [00000000|00000000] (000+000/000) Silent track
97 [00000000|00000000] (000+000/000) Silent track
98 [5ce81879|9c7d2d9b] (058+052/110) Accurately ripped
99 [84e99ad8|e77228ec] (056+052/108) Accurately ripped

Track Peak [ CRC32 ] [W/O NULL] [ LOG ]
– 94,6 [BA8AE95C] [F5BF248B]
01 21,3 [CE5E995C] [309D2A51] CRC32
02 94,6 [CEC42A85] [82BC4029] CRC32
03 94,6 [CF9A8C4D] [F62FE40B] CRC32
04 60,8 [9A745894] [05BF6716] CRC32
05 94,6 [F7EF63E1] [54A68B89] CRC32
06 94,6 [232B1BFA] [B4E48EE0] CRC32
07 12,2 [44DAE647] [8F4AE281] CRC32
08 0,0 [6E375D99] [00000000] CRC32
09 0,0 [D95AFAF1] [00000000] CRC32
10 0,0 [6E375D99] [00000000] CRC32
11 0,0 [D95AFAF1] [00000000] CRC32
12 0,0 [6E375D99] [00000000] CRC32
13 0,0 [D95AFAF1] [00000000] CRC32
14 0,0 [6E375D99] [00000000] CRC32
15 0,0 [D95AFAF1] [00000000] CRC32
16 0,0 [6E375D99] [00000000] CRC32
17 0,0 [D95AFAF1] [00000000] CRC32
18 0,0 [6E375D99] [00000000] CRC32
19 0,0 [D95AFAF1] [00000000] CRC32
20 0,0 [6E375D99] [00000000] CRC32
21 0,0 [D95AFAF1] [00000000] CRC32
22 0,0 [6E375D99] [00000000] CRC32
23 0,0 [D95AFAF1] [00000000] CRC32
24 0,0 [6E375D99] [00000000] CRC32
25 0,0 [D95AFAF1] [00000000] CRC32
26 0,0 [6E375D99] [00000000] CRC32
27 0,0 [D95AFAF1] [00000000] CRC32
28 0,0 [6E375D99] [00000000] CRC32
29 0,0 [D95AFAF1] [00000000] CRC32
30 0,0 [6E375D99] [00000000] CRC32
31 0,0 [D95AFAF1] [00000000] CRC32
32 0,0 [6E375D99] [00000000] CRC32
33 0,0 [D95AFAF1] [00000000] CRC32
34 0,0 [6E375D99] [00000000] CRC32
35 0,0 [D95AFAF1] [00000000] CRC32
36 0,0 [6E375D99] [00000000] CRC32
37 0,0 [D95AFAF1] [00000000] CRC32
38 0,0 [6E375D99] [00000000] CRC32
39 0,0 [D95AFAF1] [00000000] CRC32
40 0,0 [6E375D99] [00000000] CRC32
41 0,0 [D95AFAF1] [00000000] CRC32
42 0,0 [6E375D99] [00000000] CRC32
43 0,0 [D95AFAF1] [00000000] CRC32
44 0,0 [6E375D99] [00000000] CRC32
45 0,0 [D95AFAF1] [00000000] CRC32
46 0,0 [6E375D99] [00000000] CRC32
47 0,0 [D95AFAF1] [00000000] CRC32
48 0,0 [6E375D99] [00000000] CRC32
49 0,0 [D95AFAF1] [00000000] CRC32
50 0,0 [6E375D99] [00000000] CRC32
51 0,0 [D95AFAF1] [00000000] CRC32
52 0,0 [6E375D99] [00000000] CRC32
53 0,0 [D95AFAF1] [00000000] CRC32
54 0,0 [6E375D99] [00000000] CRC32
55 0,0 [D95AFAF1] [00000000] CRC32
56 0,0 [6E375D99] [00000000] CRC32
57 0,0 [D95AFAF1] [00000000] CRC32
58 0,0 [6E375D99] [00000000] CRC32
59 0,0 [D95AFAF1] [00000000] CRC32
60 0,0 [6E375D99] [00000000] CRC32
61 0,0 [D95AFAF1] [00000000] CRC32
62 0,0 [6E375D99] [00000000] CRC32
63 0,0 [D95AFAF1] [00000000] CRC32
64 0,0 [6E375D99] [00000000] CRC32
65 0,0 [D95AFAF1] [00000000] CRC32
66 0,0 [6E375D99] [00000000] CRC32
67 0,0 [D95AFAF1] [00000000] CRC32
68 0,0 [6E375D99] [00000000] CRC32
69 0,0 [D95AFAF1] [00000000] CRC32
70 0,0 [6E375D99] [00000000] CRC32
71 0,0 [D95AFAF1] [00000000] CRC32
72 0,0 [6E375D99] [00000000] CRC32
73 0,0 [D95AFAF1] [00000000] CRC32
74 0,0 [6E375D99] [00000000] CRC32
75 0,0 [D95AFAF1] [00000000] CRC32
76 0,0 [6E375D99] [00000000] CRC32
77 0,0 [D95AFAF1] [00000000] CRC32
78 0,0 [6E375D99] [00000000] CRC32
79 0,0 [D95AFAF1] [00000000] CRC32
80 0,0 [6E375D99] [00000000] CRC32
81 0,0 [D95AFAF1] [00000000] CRC32
82 0,0 [6E375D99] [00000000] CRC32
83 0,0 [D95AFAF1] [00000000] CRC32
84 0,0 [6E375D99] [00000000] CRC32
85 0,0 [D95AFAF1] [00000000] CRC32
86 0,0 [6E375D99] [00000000] CRC32
87 0,0 [D95AFAF1] [00000000] CRC32
88 0,0 [6E375D99] [00000000] CRC32
89 0,0 [D95AFAF1] [00000000] CRC32
90 0,0 [6E375D99] [00000000] CRC32
91 0,0 [D95AFAF1] [00000000] CRC32
92 0,0 [6E375D99] [00000000] CRC32
93 0,0 [D95AFAF1] [00000000] CRC32
94 0,0 [6E375D99] [00000000] CRC32
95 0,0 [D95AFAF1] [00000000] CRC32
96 0,0 [6E375D99] [00000000] CRC32
97 0,0 [D95AFAF1] [00000000] CRC32
98 94,6 [C5F69884] [78522A60] CRC32
99 94,6 [E9EDD2ED] [3DA53A84] CRC32

foobar2000 1.2 / Dynamic Range Meter 1.1.1
log date: 2018-11-03 18:30:15

––––––––––––––––––––––––––––––––––––––––
Analyzed: Nine Inch Nails / Broken
––––––––––––––––––––––––––––––––––––––––

DR Peak RMS Duration Track
––––––––––––––––––––––––––––––––––––––––
DR9 -13.43 dB -30.14 dB 1:03 01-Pinion
DR8 -0.48 dB -10.61 dB 3:47 02-Wish
DR8 -0.48 dB -9.52 dB 4:45 03-Last
DR11 -4.31 dB -20.10 dB 1:56 04-Help Me I Am In Hell
DR8 -0.48 dB -10.08 dB 5:21 05-Happiness In Slavery
DR8 -0.48 dB -11.06 dB 4:08 06-Gave Up
DR9 -0.48 dB -10.88 dB 5:30 98-Physical
DR6 -0.48 dB -11.98 dB 5:07 99-Suck
––––––––––––––––––––––––––––––––––––––––

Number of tracks: 8
Official DR value: DR8

Samplerate: 44100 Hz
Channels: 2
Bits per sample: 16
Bitrate: 939 kbps
Codec: FLAC
================================================================================

Nine Inch Nails - Broken (1992) [EP]

Nine Inch Nails - Broken (1992) [EP]

All thanks to original releaser - Juicy_J

More interesting music in My Blog