Subcategories

New Order - Complete Music (2016) 2CDs [Re-Up]

Posted By: Designol
New Order - Complete Music (2016) 2CDs [Re-Up]

New Order - Complete Music (2016) 2CDs
EAC | FLAC | Tracks (Cue&Log) ~ 629 Mb | Mp3 (CBR320) ~ 229 Mb | Scans included
Alternative Dance-Rock, Electro | Label: Mute | # LCDSTUMM390 | Time: 01:26:44

Extended version of 2015's critically acclaimed "Music Complete" by New Order. This two disc set features the first CD release of the extended versions as included within the limited edition vinyl box set (including two versions exclusive to this package).

For Music Complete, New Order's ninth album and first in a decade, the band signed to new label Mute and welcomed keyboardist Gillian Gilbert back for her first recordings with them since 2001. Unfortunately, original bassist Peter Hook, who quit in 2007, didn't return and his bass duties were taken over by Tom Chapman, who played with Bernard Sumner in Bad Lieutenant. The return of Gilbert is a clue that the band is looking to the past for inspiration here and forsaking the guitar-driven rock orientation of its last couple albums for something more balanced, if not tipped in favor of more electronic and dancefloor-oriented songs. To that end, they brought in Chemical Brother Tom Rowlands as well as Richard X and Stuart Price to produce tracks. Not the most daring or forward-looking choices for collaborators, but their efforts result in some of the album's highlights. Rowlands invests "Singularity" with some Chemical Brothers-style punch, while "Unlearn This Hatred" has a passionate, almost industrial drive. The Richard X-mixed "Plastic" is the most new wave-sounding moment on the record, full of sparkling surfaces and fueled by some retro sequencers. Elsewhere, the bandmembers take it upon themselves to craft songs that have more joyful bounce than one would expect from them. "Tutti Frutti" is a tricky bit of electro-disco with a rubbery electronic bassline, some vintage keyboard wash from Gilbert, and a vocal cameo by La Roux's Elly Jackson. She's also on "People on the High Line," which is probably the funkiest track they've ever recorded, with finger-popping bass, house-y piano, and a beat that pulsates like a hot N.Y.C. summer night. (The other guest appearances on the album are by the Killers' Brandon Flowers, who adds some over the top crooning to "Superheated," and Iggy Pop, who mumbles semi-coherently through the interminable, momentum-sapping "Stray Dog.") The melancholic guitar-driven songs are a little less interesting, with only "Restless" coming close to the feel of the group's classic tracks. Too many of them come off like New Order by the numbers, with seriously banal (even for him) lyrics from Sumner and a string section that only serves to add more weight to the already too-soggy sound. It's hard to say which is most disappointing – the songs or the sound – but it's clear that Hook's bass would definitely have made a huge difference. Though Chapman tries his best to conjure up Hook's famous style without sounding like he's making copies, his efforts really can't compare to the melodic grace and sheer power of Hook's playing. New Order without Hook is like Joy Division without Ian Curtis, only instead of New Order forming in the wake, it's Bad Lieutenant. Even making an allowance for Hook's glaring absence, Music Complete is still a watered-down and uninspired album by a band that lost the plot long ago and can now only capture an occasional glimmer of what made it so great in the first place.

Review by Tim Sendra, Allmusic.com

New Order - Complete Music (2016) 2CDs [Re-Up]



Tracklist:

CD1:

01. Restless (Extended mix) (09:29)
02. Singularity (Extended mix) (07:33)
03. Plastic (Extended mix) (09:06)
04. Tutti Frutti (Extended mix) (08:05)
05. People on the High Line (Extended mix) (07:51)
06. Stray Dog (Extended mix) (06:32)

CD2:

01. Academic (Extended mix) (08:58)
02. Nothing but a Fool (Extended mix two) (09:09)
03. Unlearn This Hatred (Extended mix) (05:25)
04. The Game (Extended mix) (07:24)
05. Superheated (Extended mix two) (07:08)


Exact Audio Copy V1.0 beta 6 from 9. April 2015

EAC extraction logfile from 31. August 2016, 23:20

New Order / Complete Music (CD1)

Used drive : PIONEER DVD-RW DVR-221L Adapter: 1 ID: 2

Read mode : Secure
Utilize accurate stream : Yes
Defeat audio cache : Yes
Make use of C2 pointers : No

Read offset correction : 6
Overread into Lead-In and Lead-Out : No
Fill up missing offset samples with silence : Yes
Delete leading and trailing silent blocks : No
Null samples used in CRC calculations : Yes
Used interface : Native Win32 interface for Win NT & 2000
Gap handling : Appended to previous track

Used output format : User Defined Encoder
Selected bitrate : 1024 kBit/s
Quality : High
Add ID3 tag : Yes
Command line compressor : C:\Program Files (x86)\Exact Audio Copy\FLAC\FLAC.EXE
Additional command line options : -6 -V -T "COMMENT=Ripped by RRC (NEW-TEAM)" -T "ARTIST=%artist%" -T "TITLE=%title%" -T "ALBUM=%albumtitle%" -T "DATE=%year%" -T "TRACKNUMBER=%tracknr%" -T "GENRE=%genre%" -T "COMMENT=%comment%" -T "BAND=%albuminterpret%" -T "ALBUMARTIST=%albuminterpret%" -T "COMPOSER=%composer%" %haslyrics%–tag-from-file=LYRICS="%lyricsfile%"%haslyrics% -T "DISCNUMBER=%cdnumber%" -T "TOTALDISCS=%totalcds%" -T "TOTALTRACKS=%numtracks%" %hascover%–picture="%coverfile%"%hascover% %source% -o %dest%


TOC of the extracted CD

Track | Start | Length | Start sector | End sector
––––––––––––––––––––––––––––-
1 | 0:00.00 | 9:29.62 | 0 | 42736
2 | 9:29.62 | 7:33.36 | 42737 | 76747
3 | 17:03.23 | 9:06.35 | 76748 | 117732
4 | 26:09.58 | 8:05.08 | 117733 | 154115
5 | 34:14.66 | 7:51.39 | 154116 | 189479
6 | 42:06.30 | 6:32.11 | 189480 | 218890


Track 1

Filename G:\RRC's Rip\01-Restless (Extended mix).wav

Pre-gap length 0:00:02.00

Peak level 97.2 %
Extraction speed 3.2 X
Track quality 100.0 %
Test CRC 56335DB6
Copy CRC 56335DB6
Accurately ripped (confidence 17) [5851FB8E] (AR v2)
Copy OK

Track 2

Filename G:\RRC's Rip\02-Singularity (Extended mix).wav

Peak level 96.5 %
Extraction speed 3.2 X
Track quality 99.9 %
Test CRC C6AC495F
Copy CRC C6AC495F
Accurately ripped (confidence 17) [8BF6C992] (AR v2)
Copy OK

Track 3

Filename G:\RRC's Rip\03-Plastic (Extended mix).wav

Peak level 97.6 %
Extraction speed 3.7 X
Track quality 99.9 %
Test CRC 099754F1
Copy CRC 099754F1
Accurately ripped (confidence 17) [C3FBA8DA] (AR v2)
Copy OK

Track 4

Filename G:\RRC's Rip\04-Tutti Frutti (Extended mix).wav

Peak level 98.9 %
Extraction speed 4.7 X
Track quality 100.0 %
Test CRC 816A1174
Copy CRC 816A1174
Accurately ripped (confidence 17) [D9CD74A6] (AR v2)
Copy OK

Track 5

Filename G:\RRC's Rip\05-People on the High Line (Extended mix).wav

Peak level 98.6 %
Extraction speed 5.1 X
Track quality 100.0 %
Test CRC 1261C017
Copy CRC 1261C017
Accurately ripped (confidence 17) [F38CC171] (AR v2)
Copy OK

Track 6

Filename G:\RRC's Rip\06-Stray Dog (Extended mix).wav

Pre-gap length 0:00:00.48

Peak level 95.1 %
Extraction speed 5.3 X
Track quality 100.0 %
Test CRC 0BE5B213
Copy CRC 0BE5B213
Accurately ripped (confidence 16) [9821592C] (AR v2)
Copy OK


All tracks accurately ripped

No errors occurred

End of status report

–– CUETools DB Plugin V2.1.6

[CTDB TOCID: nFWnFxd4PiI7BwtPMUg8v2hQWxY-] found
Submit result: already submitted
Track | CTDB Status
1 | (59/59) Accurately ripped
2 | (59/59) Accurately ripped
3 | (59/59) Accurately ripped
4 | (59/59) Accurately ripped
5 | (59/59) Accurately ripped
6 | (58/59) Accurately ripped


==== Log checksum 5DF2B5E73B64DA04551AC6C2F38F9DF5190A2779CF03E6E14CD77E5E840B1124 ====

foobar2000 1.2 / Dynamic Range Meter 1.1.1
log date: 2016-09-04 14:59:47

––––––––––––––––––––––––––––––––––––––––
Analyzed: New Order / Complete Music (CD1)
––––––––––––––––––––––––––––––––––––––––

DR Peak RMS Duration Track
––––––––––––––––––––––––––––––––––––––––
DR8 -0.25 dB -9.77 dB 9:30 01-Restless (Extended mix)
DR7 -0.30 dB -9.99 dB 7:33 02-Singularity (Extended mix)
DR8 -0.21 dB -9.80 dB 9:06 03-Plastic (Extended mix)
DR7 -0.10 dB -8.46 dB 8:05 04-Tutti Frutti (Extended mix)
DR8 -0.12 dB -9.08 dB 7:52 05-People on the High Line (Extended mix)
DR7 -0.43 dB -9.18 dB 6:32 06-Stray Dog (Extended mix)
––––––––––––––––––––––––––––––––––––––––

Number of tracks: 6
Official DR value: DR7

Samplerate: 44100 Hz
Channels: 2
Bits per sample: 16
Bitrate: 917 kbps
Codec: FLAC
================================================================================


Exact Audio Copy V1.0 beta 6 from 9. April 2015

EAC extraction logfile from 31. August 2016, 22:52

New Order / Complete Music (CD2)

Used drive : PIONEER DVD-RW DVR-221L Adapter: 1 ID: 2

Read mode : Secure
Utilize accurate stream : Yes
Defeat audio cache : Yes
Make use of C2 pointers : No

Read offset correction : 6
Overread into Lead-In and Lead-Out : No
Fill up missing offset samples with silence : Yes
Delete leading and trailing silent blocks : No
Null samples used in CRC calculations : Yes
Used interface : Native Win32 interface for Win NT & 2000
Gap handling : Appended to previous track

Used output format : User Defined Encoder
Selected bitrate : 1024 kBit/s
Quality : High
Add ID3 tag : Yes
Command line compressor : C:\Program Files (x86)\Exact Audio Copy\FLAC\FLAC.EXE
Additional command line options : -6 -V -T "COMMENT=Ripped by RRC (NEW-TEAM)" -T "ARTIST=%artist%" -T "TITLE=%title%" -T "ALBUM=%albumtitle%" -T "DATE=%year%" -T "TRACKNUMBER=%tracknr%" -T "GENRE=%genre%" -T "COMMENT=%comment%" -T "BAND=%albuminterpret%" -T "ALBUMARTIST=%albuminterpret%" -T "COMPOSER=%composer%" %haslyrics%–tag-from-file=LYRICS="%lyricsfile%"%haslyrics% -T "DISCNUMBER=%cdnumber%" -T "TOTALDISCS=%totalcds%" -T "TOTALTRACKS=%numtracks%" %hascover%–picture="%coverfile%"%hascover% %source% -o %dest%


TOC of the extracted CD

Track | Start | Length | Start sector | End sector
––––––––––––––––––––––––––––-
1 | 0:00.00 | 8:58.20 | 0 | 40369
2 | 8:58.20 | 9:09.41 | 40370 | 81585
3 | 18:07.61 | 5:25.48 | 81586 | 106008
4 | 23:33.34 | 7:24.10 | 106009 | 139318
5 | 30:57.44 | 7:08.34 | 139319 | 171452


Track 1

Filename G:\RRC's Rip\01-Academic (Extended mix).wav

Pre-gap length 0:00:02.00

Peak level 96.4 %
Extraction speed 3.1 X
Track quality 100.0 %
Test CRC 00EF5312
Copy CRC 00EF5312
Accurately ripped (confidence 17) [CE32768E] (AR v2)
Copy OK

Track 2

Filename G:\RRC's Rip\02-Nothing but a Fool (Extended mix two).wav

Peak level 98.0 %
Extraction speed 3.8 X
Track quality 100.0 %
Test CRC 47981C6C
Copy CRC 47981C6C
Accurately ripped (confidence 17) [4B8537DF] (AR v2)
Copy OK

Track 3

Filename G:\RRC's Rip\03-Unlearn This Hatred (Extended mix).wav

Peak level 95.9 %
Extraction speed 4.0 X
Track quality 100.0 %
Test CRC 373EEEBB
Copy CRC 373EEEBB
Accurately ripped (confidence 17) [ABE81F42] (AR v2)
Copy OK

Track 4

Filename G:\RRC's Rip\04-The Game (Extended mix).wav

Peak level 95.5 %
Extraction speed 4.5 X
Track quality 100.0 %
Test CRC 350FA230
Copy CRC 350FA230
Accurately ripped (confidence 17) [14AE3D32] (AR v2)
Copy OK

Track 5

Filename G:\RRC's Rip\05-Superheated (Extended mix two).wav

Peak level 98.8 %
Extraction speed 4.9 X
Track quality 100.0 %
Test CRC 840657A9
Copy CRC 840657A9
Accurately ripped (confidence 16) [6CCF9AE6] (AR v2)
Copy OK


All tracks accurately ripped

No errors occurred

End of status report

–– CUETools DB Plugin V2.1.6

[CTDB TOCID: .Nwq1LhFV._xQJCRSb0HitL0wsI-] found
Submit result: already submitted
Track | CTDB Status
1 | (62/62) Accurately ripped
2 | (62/62) Accurately ripped
3 | (62/62) Accurately ripped
4 | (62/62) Accurately ripped
5 | (61/62) Accurately ripped


==== Log checksum 728B3AC706D8285AA014891E4F6AF57B5E0C4A3AC4667E573E34318EE9F3CA23 ====

foobar2000 1.2 / Dynamic Range Meter 1.1.1
log date: 2016-09-04 15:00:05

––––––––––––––––––––––––––––––––––––––––
Analyzed: New Order / Complete Music (CD2)
––––––––––––––––––––––––––––––––––––––––

DR Peak RMS Duration Track
––––––––––––––––––––––––––––––––––––––––
DR6 -0.31 dB -8.39 dB 8:58 01-Academic (Extended mix)
DR7 -0.17 dB -10.33 dB 9:10 02-Nothing but a Fool (Extended mix two)
DR6 -0.36 dB -9.36 dB 5:26 03-Unlearn This Hatred (Extended mix)
DR6 -0.39 dB -9.30 dB 7:24 04-The Game (Extended mix)
DR8 -0.10 dB -9.48 dB 7:08 05-Superheated (Extended mix two)
––––––––––––––––––––––––––––––––––––––––

Number of tracks: 5
Official DR value: DR7

Samplerate: 44100 Hz
Channels: 2
Bits per sample: 16
Bitrate: 964 kbps
Codec: FLAC
================================================================================

New Order - Complete Music (2016) 2CDs [Re-Up]

New Order - Complete Music (2016) 2CDs [Re-Up]

All thanks to original releaser - RRCLtd

More interesting music in My Blog