Tags
Language
Tags

Nick Lowe & His Cowboy Outfit - The Rose Of England (1985) [1988, Reissue]

Posted By: BlondStyle
Nick Lowe & His Cowboy Outfit - The Rose Of England (1985) [1988, Reissue]

Nick Lowe & His Cowboy Outfit - The Rose Of England (1985) [1988, Reissue]
Pop/Rock, Country-Rock, Rock 'N' Roll | EAC Rip | FLAC, Tracks+CUE+LOG+Scans (JPEG) | 40:11 | 274,75 Mb
Label: Demon Records Ltd. (UK) | Cat.# FIEND CD 73 | Released: 1988 (1985)

"The Rose of England" is an album by British singer-songwriter Nick Lowe, released in 1985. It is the second overall and last album by Lowe's band the Cowboy Outfit, credited as 'Nick Lowe and His Cowboy Outfit'. It contains three cover versions; "7 Nights to Rock" (originally by Moon Mullican), "I Knew the Bride" (originally by Dave Edmunds) and "Bo Bo Skediddle" (originally by Wayne Walker).
~Wikipedia

Nick Lowe & His Cowboy Outfit - The Rose Of England (1985) [1988, Reissue]

Following through on the roots-rock leanings of Cowboy Outfit, Nick Lowe delivered the delightful The Rose of England. While some of the material is still rather lightweight - "Lucky Dog" and "Bo Bo Skediddle" are defiant and thoroughly entertaining throwaways - much of the record is clever and charming, delivered with laidback confidence from the Cowboy Outfit. "Darlin' Angel Eyes" and "The Rose of England" are minor classics in the Lowe canon, while his cover of John Hiatt's "She Don't Love Nobody" and the revival of the rockabilly standard "7 Nights to Rock" keep the album moving. Still, it's his stark take on Elvis Costello's lovely "Indoor Fireworks" that gives the album an anchor, and it's a performance so affecting that it makes the neutered reworking of "I Knew the Bride" completely forgivable.
~Review by Stephen Thomas Erlewine

Nick Lowe & His Cowboy Outfit - The Rose Of England (1985) [1988, Reissue]

Nick Lowe & His Cowboy Outfit - The Rose Of England (1985) [1988, Reissue]


Release of the album: 1985, August [LP F-Beat Records, Cat.# ZL 70765, UK]
Release of this CD: 1988 [CD Demon Records Ltd. (UK), Cat.# FIEND CD 73 / UPC: 5014757070730]
© 1988 Demon Records Ltd. ℗ 1985 Riviera Global Records Productions Ltd.
Mastered by Nimbus.
Manufactured in England

Credits:

Bass [Fat-string, Six String] – Nick Lowe (tracks: 1 to 6, 8 to 12)
Design [Sleeve Design At Waldo's] – Phil Smee
Drums, Vocals – Bobby Irwin (tracks: 1 to 6, 8 to 12)
Engineer [Boathouse] – Tony Phillips
Engineer [Eden] – Irene Kelly
Guitar – Martin Belmont (tracks: 1 to 6, 8 to 12)
Mastered By – ARUN
Photography – Nick Knight
Piano, Organ, Backing Vocals [Backup And Duet] – Paul Carrack (tracks: 1 to 6, 8 to 12)
Producer – Colin Fairley (tracks: 1 to 6, 8 to 12), Nick Lowe (tracks: 1 to 6, 8 to 12), Huey Lewis (tracks: 7)
Vocals – Nick Lowe


Tracklist:

01. Darlin' Angel Eyes (02:45)
(Nick Lowe)
02. She Don't Love Nobody (03:24)
(John Hiatt)
03. 7 Nights To Rock (02:45)
(Henry Glover / Louis Innis)
04. Long Walk Back (03:54)
(Paul Carrack / Nick Lowe)
05. The Rose of England (03:26)
(Nick Lowe)
06. Lucky Dog (03:09)
(Nick Lowe)
07. I Knew the Bride (When She Used To Rock & Roll) (04:27)
(Nick Lowe)
08. Indoor Fireworks (03:29)
(Elvis Costello)
09. (Hope To God) I'm Right (02:41)
(Nick Lowe)
10. I Can Be The One You Love (04:01)
(Nick Lowe)
11. Everyone (03:06)
(Van Morrison)
12. Bo Bo Ska Diddle Daddle (03:05)
(Webb Pierce / Wayne Walker)

Recorded late 1984 - early 1985, Eden Studios, Acton and Boathouse Studios, Twickenham

Exact Audio Copy V0.99 prebeta 5 from 4. May 2009

EAC extraction logfile from 3. January 2010, 14:33

Nick Lowe And His Cowboy Outfit / The Rose Of England

Used drive : TSSTcorpDVD-ROM SH-D162C Adapter: 1 ID: 1

Read mode : Secure
Utilize accurate stream : Yes
Defeat audio cache : Yes
Make use of C2 pointers : No

Read offset correction : 6
Overread into Lead-In and Lead-Out : No
Fill up missing offset samples with silence : Yes
Delete leading and trailing silent blocks : No
Null samples used in CRC calculations : Yes
Used interface : Native Win32 interface for Win NT & 2000
Gap handling : Appended to previous track

Used output format : User Defined Encoder
Selected bitrate : 1024 kBit/s
Quality : High
Add ID3 tag : No
Command line compressor : C:\Program Files\Exact Audio Copy\FLAC\FLAC.EXE
Additional command line options : -8 -V -T "ARTIST=%a" -T "TITLE=%t" -T "ALBUM=%g" -T "DATE=%y" -T "TRACKNUMBER=%n" -T "GENRE=%m" -T "COMMENT=%e" %s -o %d


TOC of the extracted CD

Track | Start | Length | Start sector | End sector
––––––––––––––––––––––––––––-
1 | 0:00.00 | 2:45.00 | 0 | 12374
2 | 2:45.00 | 3:23.47 | 12375 | 27646
3 | 6:08.47 | 2:44.70 | 27647 | 40016
4 | 8:53.42 | 3:54.20 | 40017 | 57586
5 | 12:47.62 | 3:26.33 | 57587 | 73069
6 | 16:14.20 | 3:08.72 | 73070 | 87241
7 | 19:23.17 | 4:26.48 | 87242 | 107239
8 | 23:49.65 | 3:28.72 | 107240 | 122911
9 | 27:18.62 | 2:41.03 | 122912 | 134989
10 | 29:59.65 | 4:00.42 | 134990 | 153031
11 | 34:00.32 | 3:05.40 | 153032 | 166946
12 | 37:05.72 | 3:05.12 | 166947 | 180833


Track 1

Filename K:\Capture\CDex Compress\Nick Lowe And His Cowboy Outfit - [01] Darlin' Angel Eyes.wav

Pre-gap length 0:00:02.00

Peak level 86.9 %
Track quality 100.0 %
Test CRC 3EAB6CE3
Copy CRC 3EAB6CE3
Track not present in AccurateRip database
Copy OK

Track 2

Filename K:\Capture\CDex Compress\Nick Lowe And His Cowboy Outfit - [02] She Don't Love Nobody.wav

Peak level 100.0 %
Track quality 100.0 %
Test CRC 6820F92E
Copy CRC 6820F92E
Track not present in AccurateRip database
Copy OK

Track 3

Filename K:\Capture\CDex Compress\Nick Lowe And His Cowboy Outfit - [03] 7 Nights To Rock.wav

Peak level 100.0 %
Track quality 100.0 %
Test CRC 7EC4DE01
Copy CRC 7EC4DE01
Track not present in AccurateRip database
Copy OK

Track 4

Filename K:\Capture\CDex Compress\Nick Lowe And His Cowboy Outfit - [04] Long Walk Back.wav

Peak level 97.1 %
Track quality 100.0 %
Test CRC AEA3512B
Copy CRC AEA3512B
Track not present in AccurateRip database
Copy OK

Track 5

Filename K:\Capture\CDex Compress\Nick Lowe And His Cowboy Outfit - [05] The Rose Of England.wav

Peak level 92.3 %
Track quality 100.0 %
Test CRC 34AC206A
Copy CRC 34AC206A
Track not present in AccurateRip database
Copy OK

Track 6

Filename K:\Capture\CDex Compress\Nick Lowe And His Cowboy Outfit - [06] Lucky Dog.wav

Peak level 97.9 %
Track quality 100.0 %
Test CRC 563D8200
Copy CRC 563D8200
Track not present in AccurateRip database
Copy OK

Track 7

Filename K:\Capture\CDex Compress\Nick Lowe And His Cowboy Outfit - [07] I Knew The Bride (When She Used To Rock'n'Roll).wav

Peak level 100.0 %
Track quality 99.9 %
Test CRC 00130D74
Copy CRC 00130D74
Track not present in AccurateRip database
Copy OK

Track 8

Filename K:\Capture\CDex Compress\Nick Lowe And His Cowboy Outfit - [08] Indoor Fireworks.wav

Peak level 93.7 %
Track quality 100.0 %
Test CRC 8CF2E0C6
Copy CRC 8CF2E0C6
Track not present in AccurateRip database
Copy OK

Track 9

Filename K:\Capture\CDex Compress\Nick Lowe And His Cowboy Outfit - [09] (Hope To God) I'm Right.wav

Peak level 96.9 %
Track quality 99.9 %
Test CRC 1B86A8A6
Copy CRC 1B86A8A6
Track not present in AccurateRip database
Copy OK

Track 10

Filename K:\Capture\CDex Compress\Nick Lowe And His Cowboy Outfit - [10] I Can Be The One You Love.wav

Peak level 95.4 %
Track quality 100.0 %
Test CRC 7887956B
Copy CRC 7887956B
Track not present in AccurateRip database
Copy OK

Track 11

Filename K:\Capture\CDex Compress\Nick Lowe And His Cowboy Outfit - [11] Everyone.wav

Peak level 100.0 %
Track quality 100.0 %
Test CRC A4294D8A
Copy CRC A4294D8A
Track not present in AccurateRip database
Copy OK

Track 12

Filename K:\Capture\CDex Compress\Nick Lowe And His Cowboy Outfit - [12] Bo Bo Skediddle.wav

Peak level 100.0 %
Track quality 100.0 %
Test CRC 3B071FA6
Copy CRC 3B071FA6
Track not present in AccurateRip database
Copy OK


None of the tracks are present in the AccurateRip database

No errors occurred

End of status report

––––––––––––––––––––––––––––––––––––––––
Analyzed: Nick Lowe And His Cowboy Outfit / The Rose Of England
––––––––––––––––––––––––––––––––––––––––

DR Peak RMS Duration Track
––––––––––––––––––––––––––––––––––––––––
DR13 -1.21 dB -15.07 dB 2:45 01-Darlin' Angel Eyes
DR14 0.00 dB -15.38 dB 3:24 02-She Don't Love Nobody
DR13 0.00 dB -14.37 dB 2:45 03-7 Nights To Rock
DR14 -0.25 dB -15.59 dB 3:54 04-Long Walk Back
DR13 -0.70 dB -16.03 dB 3:26 05-The Rose Of England
DR13 -0.18 dB -14.55 dB 3:09 06-Lucky Dog
DR14 0.00 dB -15.68 dB 4:27 07-I Knew The Bride (When She Used To Rock'n'Roll)
DR13 -0.56 dB -17.56 dB 3:29 08-Indoor Fireworks
DR12 -0.27 dB -14.29 dB 2:41 09-(Hope To God) I'm Right
DR14 -0.41 dB -17.83 dB 4:01 10-I Can Be The One You Love
DR13 0.00 dB -15.31 dB 3:06 11-Everyone
DR14 0.00 dB -16.62 dB 3:05 12-Bo Bo Skediddle
––––––––––––––––––––––––––––––––––––––––

Number of tracks: 12
Official DR value: DR13

Samplerate: 44100 Hz
Channels: 2
Bits per sample: 16
Bitrate: 849 kbps
Codec: FLAC
================================================================================

Thanks to powerpopmp3

See also:
Nick Lowe - Nick The Knife (1982) [1990, Reissue]
Nick Lowe - The Abominable Showman (1983) [1990, Reissue]
Nick Lowe - Party Of One (1990)

♫~Welcome To My Blog~♫

password: BlondStyle