Tags
Language
Tags

Noel Gallagher's High Flying Birds - Noel Gallagher's High Flying Birds (2011) Limited Japanese Tour Edition, CD + DVD, 2012

Posted By: Designol
Noel Gallagher's High Flying Birds - Noel Gallagher's High Flying Birds (2011) Limited Japanese Tour Edition, CD + DVD, 2012

Noel Gallagher's High Flying Birds - Noel Gallagher's High Flying Birds (2011)
Limited Japanese Tour Edition, CD + DVD, 2012

EAC | FLAC | Tracks (Cue&Log) ~ 450 Mb | Mp3 (CBR320) ~ 153 Mb | Time: 01:06:27
DVD5 | NTSC | 16:9 (720x480) VBR | LPCM, 2ch, 1536 kbps | 00:49:50 | ~ 3.4 Gb
Label: Sony Music Japan International Inc. | # SICP 3488~9 | Scans ~ 117 Mb
Alternative/Indie Rock, BritPop, British Trad Rock

Noel Gallagher's High Flying Birds is the self-titled debut studio album by the English rock band Noel Gallagher's High Flying Birds. Released on 17 October 2011, it is the first studio album released by eponymous frontman Noel Gallagher since his departure from Oasis in August 2009 and the group's eventual dissolution. 2012 Japanese Limited Tour Edition 2-disc [CD/DVD] set comprising the 14-track album featuring the singles The Death Of You And Me, AKA… What A Life!, If I Had A Gun…,Dream On, Everybody's On The Run and the bonus recordings A Simple Game Of Genius, The Good Rebel, Let The Lord Shine A Light On Me & Shoot A Hole Into The Sun; plus Bonus Region 2 NTSC DVD including his performance at the 2012 NME Awards, Ride The Tiger and Dream On. Both discs are housed within a sealed slimline double jewel case with picture / lyric booklets and the obi-strip!

Oasis always thrived on tension between the Brothers Gallagher – not the interpersonal squabbles but their conflict between instinct and discipline. Liam personified the former while Noel flew the flag for the latter and their distinct, differing definitions of rock & roll continued to churn out exciting rock & roll until the end, when Liam’s cavalier attitude toward work proved the final straw for the elder Gallagher. Unsurprisingly, the first solo projects from the two reflected this dichotomy: Liam’s Beady Eye is all big-legged swagger; Noel’s High Flying Birds is tasteful, mannered craftsmanship. Noel often griped how Liam would prevent Oasis from doing anything unexpected, thereby raising expectations of left turns on High Flying Birds, but the little brass flourishes peppered throughout the record don’t stop the album from playing like a succession of variations on “Don’t Look Back in Anger” and “The Importance of Being Idle.” Craftsman that he is, Gallagher does come up with several keepers – the Oasis carryovers “Stop the Clocks” and “(I Wanna Live in a Dream in My) Record Machine,” “If I Had a Gun…,” “Everybody’s on the Run” – but his success ratio is no greater than it was on the last two Oasis albums, where his best tunes were buttressed by good ones from his brother and Andy Bell. Take the highlights from Beady Eye’s Different Gear, Still Speeding and add them to the highlights from High Flying Birds, and you’ll wind up with a balanced, better record than either individual LPs – and in a direct competition the elder Gallagher comes up just a little short, as he’s missing anything resembling rock & roll, skimping on quick tempos and loud guitars.

Review by Stephen Thomas Erlewine, Allmusic.com

Noel Gallagher at Allmusic
Noel Gallagher Website
Noel Gallagher at Wiki

Tracklist:

01. Everybody's On The Run (5:31)
02. Dream On (4:29)
03. If I Had A Gun… (4:09)
04. The Death Of You And Me (3:29)
05. (I Wanna Live In A Dream In My) Record Machine (4:23)
06. AKA… What A Life! (4:24)
07. Soldier Boys And Jesus Freaks (3:22)
08. AKA… Broken Arrow (3:35)
09. (Stranded On) The Wrong Beach (4:03)
10. Stop The Clocks (5:06)
11. A Simple Game Of Genius (7:19)
12. The Good Rebel (4:24)
13. Let The Lord Shine A Light On Me (4:13)
14. Shoot A Hole Into The Sun (7:58)


Exact Audio Copy V1.0 beta 3 from 29. August 2011

EAC extraction logfile from 28. May 2012, 15:16

Noel Gallagher's High Flying Birds / Noel Gallagher's High Flying Birds (Limited Japanese Tour Edition)

Used drive : MATSHITABD-MLT UJ240AFW Adapter: 0 ID: 2

Read mode : Secure
Utilize accurate stream : Yes
Defeat audio cache : Yes
Make use of C2 pointers : No

Read offset correction : 103
Overread into Lead-In and Lead-Out : No
Fill up missing offset samples with silence : Yes
Delete leading and trailing silent blocks : No
Null samples used in CRC calculations : Yes
Used interface : Native Win32 interface for Win NT & 2000
Gap handling : Appended to previous track

Used output format : User Defined Encoder
Selected bitrate : 768 kBit/s
Quality : High
Add ID3 tag : No
Command line compressor : C:\Program Files (x86)\Exact Audio Copy\Flac\flac.exe
Additional command line options : -V -8 -T "Genre=%genre%" -T "Artist=%artist%" -T "Title=%title%" -T "Album=%albumtitle%" -T "Date=%year%" -T "Tracknumber=%tracknr%" -T "Comment=%comment%" %source%


TOC of the extracted CD

Track | Start | Length | Start sector | End sector
––––––––––––––––––––––––––––-
1 | 0:00.00 | 5:31.32 | 0 | 24856
2 | 5:31.32 | 4:29.22 | 24857 | 45053
3 | 10:00.54 | 4:09.08 | 45054 | 63736
4 | 14:09.62 | 3:29.20 | 63737 | 79431
5 | 17:39.07 | 4:23.20 | 79432 | 99176
6 | 22:02.27 | 4:24.35 | 99177 | 119011
7 | 26:26.62 | 3:22.27 | 119012 | 134188
8 | 29:49.14 | 3:35.20 | 134189 | 150333
9 | 33:24.34 | 4:02.48 | 150334 | 168531
10 | 37:27.07 | 5:05.54 | 168532 | 191460
11 | 42:32.61 | 7:18.54 | 191461 | 224364
12 | 49:51.40 | 4:24.27 | 224365 | 244191
13 | 54:15.67 | 4:13.33 | 244192 | 263199
14 | 58:29.25 | 7:57.66 | 263200 | 299040


Track 1

Filename F:\FLACS\Noel Gallagher's High Flying Birds (Limited Japanese Tour Edition) (2012) [FLAC]\01 - Everybody's On The Run.wav

Pre-gap length 0:00:02.00

Peak level 100.0 %
Extraction speed 2.7 X
Track quality 100.0 %
Test CRC A0984396
Copy CRC A0984396
Track not present in AccurateRip database
Copy OK

Track 2

Filename F:\FLACS\Noel Gallagher's High Flying Birds (Limited Japanese Tour Edition) (2012) [FLAC]\02 - Dream On.wav

Peak level 100.0 %
Extraction speed 3.0 X
Track quality 100.0 %
Test CRC 2A701060
Copy CRC 2A701060
Track not present in AccurateRip database
Copy OK

Track 3

Filename F:\FLACS\Noel Gallagher's High Flying Birds (Limited Japanese Tour Edition) (2012) [FLAC]\03 - If I Had A Gun….wav

Peak level 100.0 %
Extraction speed 3.2 X
Track quality 100.0 %
Test CRC 83C3966E
Copy CRC 83C3966E
Track not present in AccurateRip database
Copy OK

Track 4

Filename F:\FLACS\Noel Gallagher's High Flying Birds (Limited Japanese Tour Edition) (2012) [FLAC]\04 - The Death Of You And Me.wav

Peak level 100.0 %
Extraction speed 3.3 X
Track quality 100.0 %
Test CRC 67D567D5
Copy CRC 67D567D5
Track not present in AccurateRip database
Copy OK

Track 5

Filename F:\FLACS\Noel Gallagher's High Flying Birds (Limited Japanese Tour Edition) (2012) [FLAC]\05 - (I Wanna Live In A Dream In My) Record Machine.wav

Peak level 100.0 %
Extraction speed 3.2 X
Track quality 99.9 %
Test CRC 7EA23687
Copy CRC 7EA23687
Track not present in AccurateRip database
Copy OK

Track 6

Filename F:\FLACS\Noel Gallagher's High Flying Birds (Limited Japanese Tour Edition) (2012) [FLAC]\06 - AKA… What A Life!.wav

Peak level 100.0 %
Extraction speed 3.8 X
Track quality 100.0 %
Test CRC 11F9B437
Copy CRC 11F9B437
Track not present in AccurateRip database
Copy OK

Track 7

Filename F:\FLACS\Noel Gallagher's High Flying Birds (Limited Japanese Tour Edition) (2012) [FLAC]\07 - Soldier Boys And Jesus Freaks.wav

Peak level 100.0 %
Extraction speed 3.8 X
Track quality 100.0 %
Test CRC 187E53A0
Copy CRC 187E53A0
Track not present in AccurateRip database
Copy OK

Track 8

Filename F:\FLACS\Noel Gallagher's High Flying Birds (Limited Japanese Tour Edition) (2012) [FLAC]\08 - AKA… Broken Arrow.wav

Peak level 100.0 %
Extraction speed 4.0 X
Track quality 100.0 %
Test CRC 85542274
Copy CRC 85542274
Track not present in AccurateRip database
Copy OK

Track 9

Filename F:\FLACS\Noel Gallagher's High Flying Birds (Limited Japanese Tour Edition) (2012) [FLAC]\09 - (Stranded On) The Wrong Beach.wav

Peak level 100.0 %
Extraction speed 4.2 X
Track quality 100.0 %
Test CRC 29897524
Copy CRC 29897524
Track not present in AccurateRip database
Copy OK

Track 10

Filename F:\FLACS\Noel Gallagher's High Flying Birds (Limited Japanese Tour Edition) (2012) [FLAC]\10 - Stop The Clocks.wav

Peak level 100.0 %
Extraction speed 4.5 X
Track quality 100.0 %
Test CRC ADFF1154
Copy CRC ADFF1154
Track not present in AccurateRip database
Copy OK

Track 11

Filename F:\FLACS\Noel Gallagher's High Flying Birds (Limited Japanese Tour Edition) (2012) [FLAC]\11 - A Simple Game Of Genius.wav

Peak level 100.0 %
Extraction speed 4.9 X
Track quality 100.0 %
Test CRC E2C0B386
Copy CRC E2C0B386
Track not present in AccurateRip database
Copy OK

Track 12

Filename F:\FLACS\Noel Gallagher's High Flying Birds (Limited Japanese Tour Edition) (2012) [FLAC]\12 - The Good Rebel.wav

Peak level 100.0 %
Extraction speed 4.9 X
Track quality 100.0 %
Test CRC B4BDB40E
Copy CRC B4BDB40E
Track not present in AccurateRip database
Copy OK

Track 13

Filename F:\FLACS\Noel Gallagher's High Flying Birds (Limited Japanese Tour Edition) (2012) [FLAC]\13 - Let The Lord Shine A Light On Me.wav

Peak level 100.0 %
Extraction speed 5.0 X
Track quality 100.0 %
Test CRC 64F1002A
Copy CRC 64F1002A
Track not present in AccurateRip database
Copy OK

Track 14

Filename F:\FLACS\Noel Gallagher's High Flying Birds (Limited Japanese Tour Edition) (2012) [FLAC]\14 - Shoot A Hole Into The Sun.wav

Pre-gap length 0:00:01.24

Peak level 93.2 %
Extraction speed 5.5 X
Track quality 100.0 %
Test CRC 8478D1F7
Copy CRC 8478D1F7
Track not present in AccurateRip database
Copy OK


None of the tracks are present in the AccurateRip database

No errors occurred

End of status report

==== Log checksum 8BD312CDC6EA789FE31F81D36625933FF8BEBD897A8095857DE625AE938AC354 ====

foobar2000 1.2 / Dynamic Range Meter 1.1.1
log date: 2020-02-26 22:03:11

––––––––––––––––––––––––––––––––––––––––
Analyzed: Noel Gallagher's High Flying Birds / Noel Gallagher's High Flying Birds (Limited Japanese Tour Edition)
––––––––––––––––––––––––––––––––––––––––

DR Peak RMS Duration Track
––––––––––––––––––––––––––––––––––––––––
DR5 0.00 dB -6.56 dB 5:31 01-Everybody's On The Run
DR4 0.00 dB -5.07 dB 4:29 02-Dream On
DR4 0.00 dB -5.51 dB 4:09 03-If I Had A Gun…
DR6 0.00 dB -7.75 dB 3:29 04-The Death Of You And Me
DR6 0.00 dB -8.53 dB 4:23 05-(I Wanna Live In A Dream In My) Record Machine
DR5 0.00 dB -6.14 dB 4:24 06-AKA… What A Life!
DR5 0.00 dB -6.62 dB 3:22 07-Soldier Boys And Jesus Freaks
DR5 0.00 dB -5.92 dB 3:35 08-AKA… Broken Arrow
DR5 0.00 dB -6.20 dB 4:03 09-(Stranded On) The Wrong Beach
DR5 0.00 dB -8.03 dB 5:06 10-Stop The Clocks
DR6 0.00 dB -8.66 dB 7:19 11-A Simple Game Of Genius
DR5 0.00 dB -6.07 dB 4:24 12-The Good Rebel
DR6 0.00 dB -8.95 dB 4:13 13-Let The Lord Shine A Light On Me
DR5 -0.61 dB -8.42 dB 7:58 14-Shoot A Hole Into The Sun
––––––––––––––––––––––––––––––––––––––––

Number of tracks: 14
Official DR value: DR5

Samplerate: 44100 Hz
Channels: 2
Bits per sample: 16
Bitrate: 906 kbps
Codec: FLAC
================================================================================




Noel Gallagher's High Flying Birds - Noel Gallagher's High Flying Birds (2011) Limited Japanese Tour Edition, CD + DVD, 2012

Noel Gallagher's High Flying Birds - Noel Gallagher's High Flying Birds (2011) Limited Japanese Tour Edition, CD + DVD, 2012

Noel Gallagher's High Flying Birds - Noel Gallagher's High Flying Birds (2011) Limited Japanese Tour Edition, CD + DVD, 2012

Noel Gallagher's High Flying Birds - Noel Gallagher's High Flying Birds (2011) Limited Japanese Tour Edition, CD + DVD, 2012

Noel Gallagher's High Flying Birds - Noel Gallagher's High Flying Birds (2011) Limited Japanese Tour Edition, CD + DVD, 2012

Noel Gallagher's High Flying Birds - Noel Gallagher's High Flying Birds (2011) Limited Japanese Tour Edition, CD + DVD, 2012

Noel Gallagher's High Flying Birds - Noel Gallagher's High Flying Birds (2011) Limited Japanese Tour Edition, CD + DVD, 2012

Noel Gallagher's High Flying Birds - Noel Gallagher's High Flying Birds (2011) Limited Japanese Tour Edition, CD + DVD, 2012


DVD Content:

Live at the NME Awards 2012

1. Everybody’s On The Run
2. Dream On
3. If I Had A Gun
4. AKA… What A Life!
5. Half The World Away
6. Don’t Look Back In Anger

Music videos
7. Ride the Tiger
8. Dream On


Title: Noel Gallagher's High Flyng Birds (Bonus DVD5 NTSC)
Size: 3.41 Gb ( 3 572 462,00 KBytes ) - DVD-5
Enabled regions: 1, 2, 3, 4, 5, 6, 7, 8

VTS_01 :
Play Length: 00:49:50
Video: NTSC 16:9 (720x480) VBR, Auto Letterboxed
Audio:
English (LinearPCM, 2 ch)
Subtitles:
Japanese

* Menus Information *

VIDEO_TS Menu
Video:
NTSC 4:3 (720x480) VBR
Auto Pan&Scan, Auto Letterboxed
Japanese Language Unit :
Title Menu

VTS_01 Menu
Video:
NTSC 16:9 (720x480) VBR
Auto Letterboxed
Audio:
Not specified (LinearPCM, 2 ch)
Japanese Language Unit :
Root Menu

Noel Gallagher's High Flying Birds - Noel Gallagher's High Flying Birds (2011) Limited Japanese Tour Edition, CD + DVD, 2012

Noel Gallagher's High Flying Birds - Noel Gallagher's High Flying Birds (2011) Limited Japanese Tour Edition, CD + DVD, 2012


All thanks to original releaser - AlexSchl

More interesting music in My Blog