Tags
Language
Tags

Otis Taylor - Albums Collection 1997-2017 (14CD) [Re-Up]

Posted By: Designol
Otis Taylor - Albums Collection 1997-2017 (14CD) [Re-Up]

Otis Taylor - Albums Collection 1997-2017 (14CD)
EAC/XLD | FLAC | Image (Cue&Log) ~ 5 Gb | Mp3 (CBR320) ~ 2.2 Gb | Time: 11:34:18 | Scans Included
Contemporary Blues, Modern Acoustic Blues, Electric Country Blues, Blues-Rock, Americana

A collection of 14 studio albums by American blues musician. He is a multi-instrumentalist whose talents include the guitar, banjo, mandolin, harmonica, and vocals.

Bluesman Otis Taylor never skirted tough subject matter in a career that took him from the Folklore Center in Denver to a brief stay in London, England, to retirement from music in 1977, to being a successful antiques broker and, since 1995, back again to the blues. Taylor's 2001 CD White African (Northern Blues Music), featuring Kenny Passarelli (bass, keyboards) and Eddie Turner (lead guitar), became his most direct and personal statement about the experiences of African-Americans. He addressed the lynching of his great-grandfather and the murder of his uncle. Brutality became his concern in songs about a black man executed in the '30s for a murder he did not commit, and about a father who could not afford doctor's bills and and had to sit powerless watching his son die. Faith met Taylor's irony in his vision of Jesus as a mortal man who looked for ways to avoid his crucifixion and in his take on romantic infidelity among common men.

Taylor's first album, Blue-Eyed Monster, and 1997's When Negroes Walked the Earth also cast an uneasy spell on the blues world. Some of Taylor's music would feel comfortable on the back roads of the Delta in the '20s and '30s. It came as no surprise when he interpreted Charley Patton's "Stone Pony" on a Shanachie Records compilation, Screamin' and Hollerin' the Blues: New Acoustic Recordings of Pre-War Blues Classics, which also featured popular blues performers such as Alvin Youngblood Hart, John Hammond, Duke Robillard, and Corey Harris. At other times, Taylor's music was so uncompromisingly contemporary in its outlook on social injustices that he seemed more akin to South African poet and activist Stephen Biko.

Taylor was born in Chicago in 1948. After his uncle was murdered, his family moved to Denver for apparent safe haven. Taylor took an interest in blues and folk music at Denver's Folklore Center. After hearing Etta James sing "All I Wanna Do Is Make Love to You," Taylor knew he liked the blues. He then went to the Folklore Center, where he heard the banjo, country blues, and Mississippi John Hurt. He also liked Junior Wells and Muddy Waters and got into folk-blues and Appalachian music. He learned to play guitar, banjo, and harmonica. Only several decades later did he begin to understand the ties of the blues and its instrumentation to the savannah of western Africa.

By his mid-teens, he formed his first groups – the Butterscotch Fire Department Blues Band and later, the Otis Taylor Blues Band. He briefly stayed in England in 1969 to pursue a record deal with Blue Horizon, but negotiations failed and he returned to the U.S. In the '70s, he took up mandolin. He decided to leave music behind in 1976 and started a successful career as an antiques broker. After much prodding from Passarelli, Taylor returned to music in 1995. He first played a benefit concert. Then he started to play again both solo and with his band in America and Europe. In the summer of 2000, he received a composition fellowship from the Sundance Institute in Park City, Utah, and hobnobbed with film celebrities at the Sundance Film Festival.

His When Negroes Walked the Earth was released on Shoelace Records that same year. Taylor began participating in "Writing the Blues" in the Blues in the Schools program, sponsored by the National Blues Foundation, and he started writing and performing new songs in 2001. White African and Respect the Dead were released by Northern Blues in 2001 and 2002, respectively, followed by Taylor's first release on Telarc Blues, Truth Is Not Fiction, in 2003. A second album on Telarc, Double V, came out in 2004, followed by Below the Fold in 2005 and Definition of a Circle two years later. The revelatory Recapturing the Banjo appeared in 2008, again from Telarc. The dark and jazzy Pentatonic Wars and Love Songs followed in 2009. Taylor wasted no time and followed it up with 2010's Clovis People, Vol. 3 (volumes one and two do not exist). The musicians he assembled for the date are a testament to his ever-widening and eclectically expansive musical vision: daughter Cassie Taylor plays bass, and famed electric guitarist Gary Moore plays lead guitar; pedal steel guitarist Chuck Campbell and jazz cornet player Ron Miles are also featured on the recording. In 2010, after complaining of back pain, Taylor saw a doctor, who concluded he had a softball-sized cyst on his liver and spine. After scheduling surgery, he immediately entered a studio to cut new tracks "just in case." Thankfully, Taylor survived, and completed work on Contraband, which was issued by Telarc in early 2012. For 2013's My World Is Gone, the songwriter enlisted a larger band that included jazz trumpeter Ron Miles and Mato Nanji, lead guitarist from the band Indigenous.

Biography by Robert Hicks, Allmusic.com

Otis Taylor - Albums Collection 1997-2017 (14CD) [Re-Up]





Otis Taylor - Albums Collection 1997-2017 (14CD) [Re-Up]

Otis Taylor - When Negroes Walked the Earth (1997)
EAC | FLAC | Image (Cue&Log) ~ 263 Mb | Mp3 (CBR320) ~ 120 Mb
Scans Included | Label: Shoelace Records | # OT333 | Time: 00:39:34

Otis Taylor earned acclaim in 2001 when his White African release got picked up for national distribution, but this previous disc could just as easily have been the one to bring him into the spotlight: It was every bit as deep, ambitious, and listenable as White African. Listening to the independently issued When Negroes Walked the Earth reveals that Taylor was already one of the most fully developed voices in contemporary blues – an artist in the true sense of the word, intent on crafting his ideas into sharply realized songs and then into a full-fledged album. Everything seems purposeful; the skeletal arrangements lend emotional resonance to chilling songs like "500 Roses" and "12 String Mile," and the remarkable variety in Taylor's droning, single-chord structures rivals even that of John Lee Hooker. And lest anyone wonder whether a drumless trio can keep a groove, hearing album highlight "Cold at Midnight," driven to the brink of oblivion by bassist Kenny Passarelli's heartbeat pulse, should put all fears to rest. Taylor would return to many of the same lyrical themes later in his career – references to violence, death, and the paradoxes of African-American history are frequent – but When Negroes Walked the Earth covered these topics just as powerfully as his subsequent, more widely distributed work.

Review by Kenneth Bays, Allmusic.com

Tracklist:

01. Bowlegged Charlie [0:02:38.09]
02. Country Boy, Girl [0:02:40.30]
03. 500 Roses [0:05:45.71]
04. Cuckoo [0:02:43.63]
05. 12 String Mile [0:03:58.17]
06. They Don't Want Me [0:02:21.15]
07. Cold at Midnight [0:05:37.73]
08. Tight Wire Blues [0:02:26.45]
09. Naggin' Woman Blues [0:02:28.01]
10. 9th Cavalry Blues [0:03:43.36]
11. Tight Wire Blues [0:02:17.23]
12. Pretty Polly, traditional [0:02:53.02]


Exact Audio Copy V0.99 prebeta 5 from 4. May 2009

Отчёт EAC об извлечении, выполненном 6. марта 2011, 10:18

Otis Taylor / When Negroes Walked the Earth

Дисковод: TEAC CD-W552G Adapter: 1 ID: 1

Режим чтения : Достоверность
Использование точного потока : Да
Отключение кэша аудио : Да
Использование указателей C2 : Нет

Коррекция смещения при чтении : 6
Способность читать области Lead-in и Lead-out : Нет
Заполнение пропущенных сэмплов тишиной : Да
Удаление блоков с тишиной в начале и конце : Нет
При вычислениях CRC использовались нулевые сэмплы : Да
Интерфейс : Установленный внешний ASPI-интерфейс

Выходной формат : Внутренние WAV-операции
Формат сэмплов : 44.100 Гц; 16 бит; стерео


TOC извлечённого CD

Трек | Старт | Длительность | Начальный сектор | Конечный сектор
––––––––––––––––––––––––––––––––––-
1 | 0:00.00 | 2:38.09 | 0 | 11858
2 | 2:38.09 | 2:40.30 | 11859 | 23888
3 | 5:18.39 | 5:45.71 | 23889 | 49834
4 | 11:04.35 | 2:43.63 | 49835 | 62122
5 | 13:48.23 | 3:58.17 | 62123 | 79989
6 | 17:46.40 | 2:21.15 | 79990 | 90579
7 | 20:07.55 | 5:37.73 | 90580 | 115927
8 | 25:45.53 | 2:26.45 | 115928 | 126922
9 | 28:12.23 | 2:28.01 | 126923 | 138023
10 | 30:40.24 | 3:43.36 | 138024 | 154784
11 | 34:23.60 | 2:17.23 | 154785 | 165082
12 | 36:41.08 | 2:53.02 | 165083 | 178059


Характеристики диапазона извлечения и сообщения об ошибках

Выбранный диапазон

Имя файла D:\MusicCD\Torrent\Otis Taylor - When Negroes Walked the Earth\Otis Taylor - When Negroes Walked the Earth.wav

Пиковый уровень 99.7 %
Качество диапазона 100.0 %
CRC теста 1EDB8591
CRC копии 1EDB8591
Копирование… OK

Ошибок не произошло


AccurateRip: сводка

Трек 1 точность не определена (достоверность 1) [7259FCD4], AccurateRip вернул [F6492CED]
Трек 2 точность не определена (достоверность 1) [F6927FD0], AccurateRip вернул [4A608622]
Трек 3 точность не определена (достоверность 1) [8FBC1C72], AccurateRip вернул [AFCA8391]
Трек 4 точность не определена (достоверность 1) [FF1911BA], AccurateRip вернул [588DD3BC]
Трек 5 точность не определена (достоверность 1) [CFBA9A22], AccurateRip вернул [790DA4DB]
Трек 6 точность не определена (достоверность 1) [D54B7918], AccurateRip вернул [FE663752]
Трек 7 точность не определена (достоверность 1) [BC1DE36C], AccurateRip вернул [B3DE4FF0]
Трек 8 точность не определена (достоверность 1) [7CB221B6], AccurateRip вернул [4E80FC6D]
Трек 9 точность не определена (достоверность 1) [B4256D52], AccurateRip вернул [0C7A1727]
Трек 10 точность не определена (достоверность 1) [BA14AD94], AccurateRip вернул [1F3729D7]
Трек 11 точность не определена (достоверность 1) [BBBBF495], AccurateRip вернул [9365BBA0]
Трек 12 точность не определена (достоверность 1) [753532D6], AccurateRip вернул [5633E4EB]

Ни один трек не прошёл проверки на точность
В вашей базе может быть иной вариант штамповки диска

Конец отчёта




Otis Taylor - Albums Collection 1997-2017 (14CD) [Re-Up]

Otis Taylor - White African (2001)
EAC | FLAC | Image (Cue&Log) ~ 305 Mb | Mp3 (CBR320) ~ 124 Mb
Scans Included | Label: NorthernBlues Music | # NBM0002 | Time: 00:40:14

Otis Taylor has a knack for interesting titles; Blue-Eyed Monster and When Negros Walked the Earth are among the CDs that the Denver bluesman recorded before White African. Taylor also has a knack for very dark and sobering themes – this 2001 release, in fact, is full of them. On White African, Taylor's subject matter ranges from lynching in the Deep South ("Saint Martha Blues") to homelessness ("Hungry People") to being unable to afford health care for a sick, dying child ("3 Days and 3 Nights"). And Taylor doesn't try to sugarcoat his often disturbing lyrics with happy melodies. Greatly influenced by John Lee Hooker, the very soulful Taylor often favors moody, dusky, haunting grooves. So White African is as dark musically as it is lyrically. Over the years, dark humor has played a major role in the blues – like country and hip-hop artists, bluesmen are known for finding a variety of humorous, clever ways to tell you how cruel and punishing life can be. But White African isn't dark humored; it's simply dark. This CD is also incredibly compelling, and it is enthusiastically recommended to those who don't expect lighthearted escapism from all of their music.

Review by Alex Henderson, Allmusic.com

Tracklist:

01. My Soul's In Louisiana [0:03:35.22]
02. Resurrection Blues [0:05:59.08]
03. Momma Don't You Do It [0:02:24.22]
04. 3 Days And 3 Nights [0:04:21.31]
05. Round And Round [0:01:47.62]
06. Stick On You [0:03:30.49]
07. Rain So Hard [0:03:52.28]
08. Lost My Horse [0:03:10.51]
09. Saint Martha Blues [0:04:15.57]
10. Ain't No Cowgirl [0:02:14.60]
11. Hungry People [0:05:01.66]


Exact Audio Copy V0.99 prebeta 5 from 4. May 2009

Отчёт EAC об извлечении, выполненном 24. ноября 2010, 9:55

Otis Taylor / White African

Дисковод: TEAC CD-W552G Adapter: 1 ID: 1

Режим чтения : Достоверность
Использование точного потока : Да
Отключение кэша аудио : Да
Использование указателей C2 : Нет

Коррекция смещения при чтении : 6
Способность читать области Lead-in и Lead-out : Нет
Заполнение пропущенных сэмплов тишиной : Да
Удаление блоков с тишиной в начале и конце : Нет
При вычислениях CRC использовались нулевые сэмплы : Да
Интерфейс : Установленный внешний ASPI-интерфейс

Выходной формат : Внутренние WAV-операции
Формат сэмплов : 44.100 Гц; 16 бит; стерео


TOC извлечённого CD

Трек | Старт | Длительность | Начальный сектор | Конечный сектор
––––––––––––––––––––––––––––––––––-
1 | 0:00.00 | 3:35.22 | 0 | 16146
2 | 3:35.22 | 5:59.08 | 16147 | 43079
3 | 9:34.30 | 2:24.22 | 43080 | 53901
4 | 11:58.52 | 4:21.31 | 53902 | 73507
5 | 16:20.08 | 1:47.62 | 73508 | 81594
6 | 18:07.70 | 3:30.49 | 81595 | 97393
7 | 21:38.44 | 3:52.28 | 97394 | 114821
8 | 25:30.72 | 3:10.51 | 114822 | 129122
9 | 28:41.48 | 4:15.57 | 129123 | 148304
10 | 32:57.30 | 2:14.60 | 148305 | 158414
11 | 35:12.15 | 5:01.66 | 158415 | 181055


Характеристики диапазона извлечения и сообщения об ошибках

Выбранный диапазон

Имя файла D:\MusicCD\Torrent\Otis Taylor - White African\Otis Taylor - White African.wav

Пиковый уровень 99.0 %
Качество диапазона 99.9 %
CRC теста 2CAA4F2D
CRC копии 2CAA4F2D
Копирование… OK

Ошибок не произошло


AccurateRip: сводка

Трек 1 точное извлечение (доверие 18) [C1D7277B]
Трек 2 точное извлечение (доверие 18) [EE193198]
Трек 3 точное извлечение (доверие 18) [E358844F]
Трек 4 точное извлечение (доверие 18) [A1553804]
Трек 5 точное извлечение (доверие 18) [DB8A0123]
Трек 6 точное извлечение (доверие 18) [213BD558]
Трек 7 точное извлечение (доверие 18) [E7FC0C55]
Трек 8 точное извлечение (доверие 18) [B5188428]
Трек 9 точное извлечение (доверие 18) [93161A4E]
Трек 10 точное извлечение (доверие 18) [3732F6B8]
Трек 11 точное извлечение (доверие 17) [6BB217D2]

Все треки извлечены точно

Конец отчёта




Otis Taylor - Albums Collection 1997-2017 (14CD) [Re-Up]

Otis Taylor - Respect The Dead (2002)
EAC | FLAC | Image (Cue&Log) ~ 324 Mb | Mp3 (CBR320) ~ 132 Mb
Scans Included | Label: NorthernBlues Music | # NBM0009 | Time: 00:41:55

Otis Taylor might well be the best and most inspired of contemporary bluesmen. His White African album was a masterpiece – which makes the task of following it doubly difficult. With Respect the Dead, however, he does a superb job – the man is still very much on a roll. Kicking off with the stark, banjo-led "Ten Million Slaves," the intensity level never dips. It doesn't matter whether he's basing a song around a single chord, as he does on "Hands on Your Stomach," or simply using voice and harmonica on "Baby So," there's a remarkable urgency about his singing and lyrics, never more so than with "Black Witch," a tale of the American South that goes right back to Africa – but the album returns and takes its tone to Mexico and racing for "Three Stripes on a Cadillac." The support, from Kenny Passarelli, Cassie Taylor, and atmospheric lead guitarist Eddie Turner, always serves to push the tension of the songs even higher. Taylor doesn't work within standard blues structures, and his lyrics stray far from the standard blues lines to encompass history and mythology. Where others seem content with the established limits, Taylor is pushing them further and further – and in doing so, he's making some of the most exciting music around.

Review by Chris Nickson, Allmusic.com

Tracklist:

01. Ten Million Slaves [0:03:18.06]
02. Hands On Your Stomach [0:04:07.96]
03. Changing Rules [0:03:15.37]
04. 32nd Time [0:04:02.33]
05. Baby So [0:02:41.98]
06. Shaker Woman [0:03:58.48]
07. Black Witch [0:05:02.02]
08. Seven Hours Of Light [0:03:35.93]
09. I Like You, But I Don't Love You [0:03:05.40]
10. Jump Jelly Belly [0:02:09.10]
11. Three Stripes On A Cadillac [0:03:16.69]
12. Just Live Your Life [0:03:21.70]


Exact Audio Copy V1.0 beta 3 from 29. August 2011

Отчёт EAC об извлечении, выполненном 7. января 2012, 11:29

Otis Taylor / Respect The Dead

Дисковод: SONY CD-RW CRX230ED Adapter: 0 ID: 1

Режим чтения : Достоверность
Использование точного потока : Да
Отключение кэша аудио : Да
Использование указателей C2 : Нет

Коррекция смещения при чтении : 6
Способность читать области Lead-in и Lead-out : Нет
Заполнение пропущенных сэмплов тишиной : Да
Удаление блоков с тишиной в начале и конце : Нет
При вычислениях CRC использовались нулевые сэмплы : Да
Интерфейс : Установленный внешний ASPI-интерфейс

Выходной формат : Внутренние WAV-операции
Формат сэмплов : 44.100 Гц; 16 бит; стерео


TOC извлечённого CD

Трек | Старт | Длительность | Начальный сектор | Конечный сектор
––––––––––––––––––––––––––––––––––-
1 | 0:00.00 | 3:18.05 | 0 | 14854
2 | 3:18.05 | 4:07.72 | 14855 | 33451
3 | 7:26.02 | 3:15.28 | 33452 | 48104
4 | 10:41.30 | 4:02.25 | 48105 | 66279
5 | 14:43.55 | 2:41.74 | 66280 | 78428
6 | 17:25.54 | 3:58.36 | 78429 | 96314
7 | 21:24.15 | 5:02.02 | 96315 | 118966
8 | 26:26.17 | 3:35.70 | 118967 | 135161
9 | 30:02.12 | 3:05.30 | 135162 | 149066
10 | 33:07.42 | 2:09.08 | 149067 | 158749
11 | 35:16.50 | 3:16.52 | 158750 | 173501
12 | 38:33.27 | 3:21.53 | 173502 | 188629


Характеристики диапазона извлечения и сообщения об ошибках

Выбранный диапазон

Имя файла E:\MusicCD\Torrent\Otis Taylor - Respect The Dead\Otis Taylor - Respect The Dead.wav

Пиковый уровень 99.4 %
Скорость извлечения 7.2 X
Качество диапазона 100.0 %
CRC теста BF644A87
CRC копии BF644A87
Копирование… OK

Ошибок не произошло


AccurateRip: сводка

Трек 1 : извлечено точно (доверие 21) [04F66180] (AR v1)
Трек 2 : извлечено точно (доверие 21) [4C3224C6] (AR v1)
Трек 3 : извлечено точно (доверие 21) [2199614E] (AR v1)
Трек 4 : извлечено точно (доверие 21) [B9E183E9] (AR v1)
Трек 5 : извлечено точно (доверие 21) [DADEAE55] (AR v1)
Трек 6 : извлечено точно (доверие 21) [F26ABD6F] (AR v1)
Трек 7 : извлечено точно (доверие 21) [5C4D4378] (AR v1)
Трек 8 : извлечено точно (доверие 21) [80D54687] (AR v1)
Трек 9 : извлечено точно (доверие 21) [A6C1B048] (AR v1)
Трек 10 : извлечено точно (доверие 21) [A63116B9] (AR v1)
Трек 11 : извлечено точно (доверие 21) [4B0F3BE2] (AR v1)
Трек 12 : извлечено точно (доверие 21) [3DD02813] (AR v1)

Все треки извлечены точно

Конец отчёта

==== Контрольная сумма отчёта 470B7FBD9ABE84CD87A6F0B8B1A8712E40700F78C9FBC12BED0F39D373F30A11 ====




Otis Taylor - Albums Collection 1997-2017 (14CD) [Re-Up]

Otis Taylor - Truth Is Not Fiction (2003)
EAC | FLAC | Image (Cue&Log) ~ 401 Mb | Mp3 (CBR320) ~ 157 Mb
Scans Included | Label: Telarc | # CD-83587 | Time: 00:50:16

Otis Taylor can make people nervous. His take on the blues is defiant, angry, aggressive, and confrontational, owing as much to Peter Tosh as Charley Patton. Although he carries the dust of 1920s country blues in his mostly acoustic songs, his railings against social injustices are thoroughly contemporary. Taylor is an often pedantic songwriter, but he pulls it off by sheer bravado and conviction, and like a driver who blows through a stop sign, he's sure about where he's going. Truth Is Not Fiction follows the template of his previous three albums, with no drums (the rhythm comes from the sheer propulsion of Taylor's guitar, banjo, and mandolin playing) and a sort of Appalachian griot approach to things. One of the highlights is the strange Russian blues (complete with cello) of "House of the Crosses," a perfect example of Taylor's mix of rustic themes with cosmopolitan purposes. The full speed ahead rhythm banjo on "Babies Don't Lie" drills into your head like a freight train, and the ante is upped with double-barrelled banjos in both channels on "Shakie's Gone," making Taylor sound at times like Richie Havens on steroids. The album closer, a gut-bucket cover of the Big Joe Williams classic "Baby, Please Don't Go," seems oddly stuck in low gear, but overall Truth Is Not Fiction works well. Given his agenda, Taylor isn't for everyone, but he brings a fresh approach and a welcome shot in the ass to contemporary blues.

Review by Steve Leggett, Allmusic.com

Tracklist:

01. Rosa, Rosa [0:03:32.25]
02. Kitchen Towel [0:04:26.60]
03. Comb Your Brown Hair [0:03:32.77]
04. Babies Don't Lie [0:03:56.01]
05. Be My Frankenstein [0:04:46.74]
06. House Of The Crosses [0:04:05.16]
07. Past Times [0:04:13.38]
08. Shakie's Gone [0:03:38.25]
09. Be My Witness [0:04:27.30]
10. Nasty Letter [0:05:08.21]
11. Walk On Water [0:05:45.92]
12. Baby, Please Don't Go [0:02:43.37]


Exact Audio Copy V1.0 beta 3 from 29. August 2011

Отчёт EAC об извлечении, выполненном 7. января 2012, 11:55

Otis Taylor / Truth Is Not Fiction

Дисковод: SONY CD-RW CRX230ED Adapter: 0 ID: 1

Режим чтения : Достоверность
Использование точного потока : Да
Отключение кэша аудио : Да
Использование указателей C2 : Нет

Коррекция смещения при чтении : 6
Способность читать области Lead-in и Lead-out : Нет
Заполнение пропущенных сэмплов тишиной : Да
Удаление блоков с тишиной в начале и конце : Нет
При вычислениях CRC использовались нулевые сэмплы : Да
Интерфейс : Установленный внешний ASPI-интерфейс

Выходной формат : Внутренние WAV-операции
Формат сэмплов : 44.100 Гц; 16 бит; стерео


TOC извлечённого CD

Трек | Старт | Длительность | Начальный сектор | Конечный сектор
––––––––––––––––––––––––––––––––––-
1 | 0:00.00 | 3:32.19 | 0 | 15918
2 | 3:32.19 | 4:26.45 | 15919 | 35913
3 | 7:58.64 | 3:32.58 | 35914 | 51871
4 | 11:31.47 | 3:56.01 | 51872 | 69572
5 | 15:27.48 | 4:46.56 | 69573 | 91078
6 | 20:14.29 | 4:05.12 | 91079 | 109465
7 | 24:19.41 | 4:13.29 | 109466 | 128469
8 | 28:32.70 | 3:38.19 | 128470 | 144838
9 | 32:11.14 | 4:27.23 | 144839 | 164886
10 | 36:38.37 | 5:08.16 | 164887 | 188002
11 | 41:46.53 | 5:45.69 | 188003 | 213946
12 | 47:32.47 | 2:43.28 | 213947 | 226199


Характеристики диапазона извлечения и сообщения об ошибках

Выбранный диапазон

Имя файла E:\MusicCD\Torrent\Otis Taylor - Truth Is Not Fiction\Otis Taylor - Truth Is Not Fiction.wav

Пиковый уровень 99.3 %
Скорость извлечения 8.3 X
Качество диапазона 100.0 %
CRC теста 94807C8B
CRC копии 94807C8B
Копирование… OK

Ошибок не произошло


AccurateRip: сводка

Трек 1 : извлечено точно (доверие 14) [C48D9F4B] (AR v1)
Трек 2 : извлечено точно (доверие 14) [E3DA5E62] (AR v1)
Трек 3 : извлечено точно (доверие 14) [315A7436] (AR v1)
Трек 4 : извлечено точно (доверие 14) [12B744C3] (AR v1)
Трек 5 : извлечено точно (доверие 14) [E6E396AA] (AR v1)
Трек 6 : извлечено точно (доверие 14) [821C1A53] (AR v1)
Трек 7 : извлечено точно (доверие 14) [68EFE63A] (AR v1)
Трек 8 : извлечено точно (доверие 14) [C3C8364E] (AR v1)
Трек 9 : извлечено точно (доверие 14) [AA59238F] (AR v1)
Трек 10 : извлечено точно (доверие 14) [22E9A687] (AR v1)
Трек 11 : извлечено точно (доверие 14) [9C076762] (AR v1)
Трек 12 : извлечено точно (доверие 14) [C6F74898] (AR v1)

Все треки извлечены точно

Конец отчёта

==== Контрольная сумма отчёта 2D0267788865A4ABA59E70FEC8D1131FDB5F57398F2640CAE16FEDDFC1BEF692 ====




Otis Taylor - Albums Collection 1997-2017 (14CD) [Re-Up]

Otis Taylor - Double V (2004)
EAC | FLAC | Image (Cue&Log) ~ 282 Mb | Mp3 (CBR320) ~ 137 Mb
Scans Included | Label: Telarc | # CD-83601 | Time: 00:43:05

Otis Taylor's unconventional approach to the blues has made him one of the freshest and most innovative musicians to hit the genre in decades. A multi-instrumentalist, his driving, modal arrangements and defiant, politicized subject matter make most other contemporary blues artists seem like watered-down popsters. Imagine grafting John Lee Hooker and Peter Tosh together into a righteous, fire-breathing hybrid, and you get the picture. But Taylor is more than just a loud challenge to the blues status quo. He is also a striking and intelligent songwriter who knows how to draw on history, when to re-imagine it, and when to dole it out straight, and he drives his points home with the force of a laser-guided jackhammer. On Double V, his second album on Telarc, Taylor has also added a kinder and gentler approach to his arsenal, coming up with songs like the opening track, "Please Come Home Before the Rain," and the closer, "Buy Myself Some Freedom," that make their points with easy, beautiful melodies. The upbeat and breezy "Please Come Home Before the Rain" is nothing short of a modern classic, a love song of sorts, sung by Taylor in a gentle, bemused voice as he tells the story of a sailor reading a letter from his wife. The stark "Plastic Spoon" is a haunting depiction of what happens when poverty and old age converge, as the protagonists in the song are forced to eat dog food with a plastic spoon in order to have enough money for prescription drugs. This is an unlikely subject for a song, certainly, but it works, and it illustrates why Taylor is such a vital and interesting artist. The autobiographical "Mama's Selling Heroin" is another unforgettable track. It isn't subtle, it doesn't wrap things up in a bow, and it is absolutely chilling. Taylor's choice of instrumentation on these songs is as innovative as his subject matter, with an assortment of churning, driving banjos, mandolins and acoustic guitars, little or no percussion, and well-placed cellos, all of which (when you add in his frequent hums, moans, and spoken interjections) combine to make him sound like some postmodern Appalachian griot who wandered into a new age convention and shook the place down. Taylor's 17-year-old daughter, Cassie Taylor, plays bass and adds harmony vocals throughout Double V, and she takes center stage on the album's final track, singing the beautiful and wistful "Buy Myself Some Freedom" with élan, framed by perfectly placed and nuanced trumpet lines from Ron Miles. There is nothing on Double V that hasn't been foreshadowed on Otis Taylor's previous albums, and there are plenty of his patented, piledriving modal blues pieces, but he has also figured out that there are times when nothing can rattle your head like a spoonful of sweetness.

Review by Steve Leggett, Allmusic.com

Tracklist:

01. Please Come Home Before It Rains [0:04:31.62]
02. Took Their Land [0:02:39.74]
03. Plastic Spoon [0:04:47.36]
04. Mama's Selling Heroin [0:03:53.15]
05. 505 Train [0:05:02.72]
06. Mandan Woman [0:04:49.20]
07. Sounds Of Attica [0:03:25.74]
08. It's Done Happened Again [0:02:05.13]
09. He Never Raced On Sunday [0:04:00.60]
10. Hurry Home [0:01:08.18]
11. Reindeer Meat [0:02:40.68]
12. Buy Myself Some Freedom [0:03:59.29]


Exact Audio Copy V0.99 prebeta 5 from 4. May 2009

Отчёт EAC об извлечении, выполненном 1. января 2011, 16:09

Otis Taylor / Double V

Дисковод: TEAC CD-W552G Adapter: 1 ID: 1

Режим чтения : Достоверность
Использование точного потока : Да
Отключение кэша аудио : Да
Использование указателей C2 : Нет

Коррекция смещения при чтении : 6
Способность читать области Lead-in и Lead-out : Нет
Заполнение пропущенных сэмплов тишиной : Да
Удаление блоков с тишиной в начале и конце : Нет
При вычислениях CRC использовались нулевые сэмплы : Да
Интерфейс : Установленный внешний ASPI-интерфейс

Выходной формат : Внутренние WAV-операции
Формат сэмплов : 44.100 Гц; 16 бит; стерео


TOC извлечённого CD

Трек | Старт | Длительность | Начальный сектор | Конечный сектор
––––––––––––––––––––––––––––––––––-
1 | 0:00.00 | 4:31.62 | 0 | 20386
2 | 4:31.62 | 2:39.74 | 20387 | 32385
3 | 7:11.61 | 4:47.36 | 32386 | 53946
4 | 11:59.22 | 3:53.15 | 53947 | 71436
5 | 15:52.37 | 5:02.72 | 71437 | 94158
6 | 20:55.34 | 4:49.20 | 94159 | 115853
7 | 25:44.54 | 3:25.74 | 115854 | 131302
8 | 29:10.53 | 2:05.13 | 131303 | 140690
9 | 31:15.66 | 4:00.60 | 140691 | 158750
10 | 35:16.51 | 1:08.18 | 158751 | 163868
11 | 36:24.69 | 2:40.68 | 163869 | 175936
12 | 39:05.62 | 3:59.29 | 175937 | 193890


Характеристики диапазона извлечения и сообщения об ошибках

Выбранный диапазон

Имя файла D:\MusicCD\Torrent\Otis Taylor - Double V\Otis Taylor - Double V.wav

Пиковый уровень 100.0 %
Качество диапазона 100.0 %
CRC теста 9B2AC33B
CRC копии 9B2AC33B
Копирование… OK

Ошибок не произошло


AccurateRip: сводка

Трек 1 точное извлечение (доверие 10) [68375BB2]
Трек 2 точное извлечение (доверие 11) [9A7F6815]
Трек 3 точное извлечение (доверие 10) [98225E1D]
Трек 4 точное извлечение (доверие 11) [8500066C]
Трек 5 точное извлечение (доверие 11) [6CB211F7]
Трек 6 точное извлечение (доверие 11) [11A07B9A]
Трек 7 точное извлечение (доверие 10) [ADF193FD]
Трек 8 точное извлечение (доверие 10) [C8F60BE7]
Трек 9 точное извлечение (доверие 10) [02B1C978]
Трек 10 точное извлечение (доверие 11) [CBC3A3F7]
Трек 11 точное извлечение (доверие 11) [69A0A62B]
Трек 12 точное извлечение (доверие 11) [D025B4E2]

Все треки извлечены точно

Конец отчёта




Otis Taylor - Albums Collection 1997-2017 (14CD) [Re-Up]

Otis Taylor - Below The Fold (2005)
EAC | FLAC | Image (Cue&Log) ~ 315 Mb | Mp3 (CBR320) ~ 142 Mb
Scans Included | Label: Telarc | # CD-83627 | Time: 00:43:20

Otis Taylor doesn't suffer fools lightly, and his insistent, hard-driving modal songs, full of defiant reclamations of history and tender vignettes of people struggling to survive in hostile cultural territory, are like nothing else on the contemporary blues scene. Imagine John Lee Hooker if he had grown up in the Appalachians and cut his teeth playing with a steam-driven mountain string band, then add in the fierce political commitment of a Peter Tosh, and you begin to get the picture. On Below the Fold, his third release for Telarc Records, Taylor stays well within the seam of his previous work, which is by no means a bad thing, and for the first time he actually adds drums (played by Greg Anton) to a few tracks, which is a bit like shoveling Sterno into the boiler, and cuts like the opening "Feel Like Lightning" literally explode down the track like a string band playing "Reuben's Train" on steroids. He calms things down a bit for the lovely "Boy Plays Mandolin," which features some beautifully spooky trumpet lines from Ron Miles. Arguably the most striking track here, however, is a song co-written with his teenage daughter Cassie Taylor (who plays bass on the album), "Working for the Pullman Company." Cassie came up with the melody and chorus when she was only five years old, and she handles the lead and harmony vocals on the song with impressive and wistful poise. Below the Fold fits easily into Taylor's emerging canon, and it has the same urgent, ragged beauty of his previous albums. He is unlikely to change the way he does things in the future, which is just fine, since his Appalachian griot approach is perfect for his musical and political agenda, and perfect for shaking up the complacency of the contemporary blues scene.

Review by Steve Leggett, Allmusic.com

Tracklist:

01. Feel like lightning [0:04:52.84]
02. Boy plays mandolin [0:04:00.48]
03. Hookers in the street [0:04:43.44]
04. Mama's got a friend [0:02:53.01]
05. Working for the Pullman Company [0:04:16.97]
06. Your children sleep good tonight [0:05:29.64]
07. Didn't know much about education [0:04:45.38]
08. Went to Hermes [0:03:45.68]
09. Government lied [0:05:11.18]
10. Right side of heaven [0:03:21.86]


Exact Audio Copy V1.0 beta 3 from 29. August 2011

Отчёт EAC об извлечении, выполненном 7. января 2012, 12:17

Otis Taylor / Below The Fold

Дисковод: SONY CD-RW CRX230ED Adapter: 0 ID: 1

Режим чтения : Достоверность
Использование точного потока : Да
Отключение кэша аудио : Да
Использование указателей C2 : Нет

Коррекция смещения при чтении : 6
Способность читать области Lead-in и Lead-out : Нет
Заполнение пропущенных сэмплов тишиной : Да
Удаление блоков с тишиной в начале и конце : Нет
При вычислениях CRC использовались нулевые сэмплы : Да
Интерфейс : Установленный внешний ASPI-интерфейс

Выходной формат : Внутренние WAV-операции
Формат сэмплов : 44.100 Гц; 16 бит; стерео


TOC извлечённого CD

Трек | Старт | Длительность | Начальный сектор | Конечный сектор
––––––––––––––––––––––––––––––––––-
1 | 0:00.00 | 4:52.63 | 0 | 21962
2 | 4:52.63 | 4:00.36 | 21963 | 39998
3 | 8:53.24 | 4:43.33 | 39999 | 61256
4 | 13:36.57 | 2:53.01 | 61257 | 74232
5 | 16:29.58 | 4:16.73 | 74233 | 93505
6 | 20:46.56 | 5:29.48 | 93506 | 118228
7 | 26:16.29 | 4:45.29 | 118229 | 139632
8 | 31:01.58 | 3:45.51 | 139633 | 156558
9 | 34:47.34 | 5:11.14 | 156559 | 179897
10 | 39:58.48 | 3:21.65 | 179898 | 195037


Характеристики диапазона извлечения и сообщения об ошибках

Выбранный диапазон

Имя файла E:\MusicCD\Torrent\Otis Taylor - Below The Fold\Otis Taylor - Below The Fold.wav

Пиковый уровень 100.0 %
Скорость извлечения 8.0 X
Качество диапазона 100.0 %
CRC теста 9A294782
CRC копии 9A294782
Копирование… OK

Ошибок не произошло


AccurateRip: сводка

Трек 1 : извлечено точно (доверие 2) [DA1B1ACE] (AR v2)
Трек 2 : извлечено точно (доверие 2) [6A48465E] (AR v2)
Трек 3 : извлечено точно (доверие 2) [57E6440E] (AR v2)
Трек 4 : извлечено точно (доверие 2) [24B6B9B8] (AR v2)
Трек 5 : извлечено точно (доверие 2) [97250EC0] (AR v2)
Трек 6 : извлечено точно (доверие 2) [DCD2BF50] (AR v2)
Трек 7 : извлечено точно (доверие 2) [61E9A45D] (AR v2)
Трек 8 : извлечено точно (доверие 2) [B49C6FFF] (AR v2)
Трек 9 : извлечено точно (доверие 2) [F474156D] (AR v2)
Трек 10 : извлечено точно (доверие 2) [0C3EEDDB] (AR v2)

Все треки извлечены точно

Конец отчёта

==== Контрольная сумма отчёта 419E858C00748C77DB6445BBEBE2C8F0339245A54DBADE75D900B4FDD4044A3B ====




Otis Taylor - Albums Collection 1997-2017 (14CD) [Re-Up]

Otis Taylor - Defintion of a Circle (2006)
EAC | FLAC | Image (Cue&Log) ~ 384 Mb | Mp3 (CBR320) ~ 158 Mb
Scans Included | Label: Telarc | # CD-83659 | Time: 00:54:02

In many cases, modern-day blues artists merely ape the blues masters of yesteryear – following the blueprint to a T. So it is truly a breath of fresh air when Otis Taylor releases a new album, such as 2007's Definition of a Circle. Sure, there are elements of modern-day blues-rock detected (namely, the inclusion of guest guitarist Gary Moore on certain tunes), but Taylor is not stuck to the instruments that are usually associated with blues-rock. Case in point, such tunes as "Black's Mandolin Boogie," "Maharaja Daughter," and "Mexican Cowboy," which utilize such instruments as banjo, mandolin, electric cello, cornet, lap steel, etc. That said, there are several tunes that would certainly fit comfortably in the "modern-day blues-rock" category, including "Love and Hesitation" and "Something in Your Back Pocket" (which showcase Moore's electric guitar talents), as well as tunes such as "Little Betty" and "They Wore Blue," which fit somewhere between the two aforementioned approaches. Otis Taylor is one of the few modern-day bluesmen that manages to avoid stylistic clichés, as heard throughout Definition of a Circle.

Review by Greg Prato, Allmusic.com

Tracklist:

01. Little Betty [0:04:13.49]
02. Black's Mandolin Boogie [0:04:01.16]
03. Looking Over Your Fence [0:04:06.58]
04. They Wore Blue [0:07:11.49]
05. Few Feet Away [0:04:15.44]
06. Something In Your Back Pocket [0:04:57.40]
07. My Name is General Jackson [0:04:22.22]
08. Love and Hesitation [0:04:04.28]
09. Maharaja Daughter [0:04:04.68]
10. Long Long Life [0:03:47.38]
11. Mexican Cowboy [0:03:53.12]
12. Lifetime Of Freedom [0:05:05.12]


Exact Audio Copy V1.0 beta 3 from 29. August 2011

Отчёт EAC об извлечении, выполненном 7. января 2012, 12:42

Otis Taylor / Defintion of a Circle

Дисковод: SONY CD-RW CRX230ED Adapter: 0 ID: 1

Режим чтения : Достоверность
Использование точного потока : Да
Отключение кэша аудио : Да
Использование указателей C2 : Нет

Коррекция смещения при чтении : 6
Способность читать области Lead-in и Lead-out : Нет
Заполнение пропущенных сэмплов тишиной : Да
Удаление блоков с тишиной в начале и конце : Нет
При вычислениях CRC использовались нулевые сэмплы : Да
Интерфейс : Установленный внешний ASPI-интерфейс

Выходной формат : Внутренние WAV-операции
Формат сэмплов : 44.100 Гц; 16 бит; стерео


TOC извлечённого CD

Трек | Старт | Длительность | Начальный сектор | Конечный сектор
––––––––––––––––––––––––––––––––––-
1 | 0:00.00 | 4:13.37 | 0 | 19011
2 | 4:13.37 | 4:01.12 | 19012 | 37098
3 | 8:14.49 | 4:06.44 | 37099 | 55592
4 | 12:21.18 | 7:11.37 | 55593 | 87954
5 | 19:32.55 | 4:15.33 | 87955 | 107112
6 | 23:48.13 | 4:57.30 | 107113 | 129417
7 | 28:45.43 | 4:22.17 | 129418 | 149084
8 | 33:07.60 | 4:04.21 | 149085 | 167405
9 | 37:12.06 | 4:04.51 | 167406 | 185756
10 | 41:16.57 | 3:47.29 | 185757 | 202810
11 | 45:04.11 | 3:53.09 | 202811 | 220294
12 | 48:57.20 | 5:05.09 | 220295 | 243178


Характеристики диапазона извлечения и сообщения об ошибках

Выбранный диапазон

Имя файла E:\MusicCD\Torrent\Otis Taylor - Defintion of a Circle\Otis Taylor - Defintion of a Circle.wav

Пиковый уровень 100.0 %
Скорость извлечения 8.4 X
Качество диапазона 100.0 %
CRC теста 783C08A8
CRC копии 783C08A8
Копирование… OK

Ошибок не произошло


AccurateRip: сводка

Трек 1 : извлечено точно (доверие 19) [32ADF37B] (AR v1)
Трек 2 : извлечено точно (доверие 19) [89B0FD96] (AR v1)
Трек 3 : извлечено точно (доверие 19) [194DB440] (AR v1)
Трек 4 : извлечено точно (доверие 19) [A4EF3CA1] (AR v1)
Трек 5 : извлечено точно (доверие 19) [B590227D] (AR v1)
Трек 6 : извлечено точно (доверие 19) [9CB6CD9C] (AR v1)
Трек 7 : извлечено точно (доверие 19) [A00F1F3F] (AR v1)
Трек 8 : извлечено точно (доверие 19) [09CBD1D1] (AR v1)
Трек 9 : извлечено точно (доверие 19) [2F14F771] (AR v1)
Трек 10 : извлечено точно (доверие 19) [0799BC7C] (AR v1)
Трек 11 : извлечено точно (доверие 19) [D26ABF76] (AR v1)
Трек 12 : извлечено точно (доверие 19) [873B81E3] (AR v1)

Все треки извлечены точно

Конец отчёта

==== Контрольная сумма отчёта CEACB32FBF49D43C5EB38448C7A264580C4C75FC0E0026582DF8561AC028A6CD ====




Otis Taylor - Albums Collection 1997-2017 (14CD) [Re-Up]

Otis Taylor - Recapturing The Banjo (2008)
EAC | FLAC | Image (Cue&Log) ~ 392 Mb | Mp3 (CBR320) ~ 175 Mb
Scans Included | Label: Telarc | # CD-83667 | Time: 00:52:46

Thanks to films like Deliverance and the rise of bluegrass since the mid-'50s, the banjo has come to be associated with white Appalachia in most people's minds, but the instrument actually has its origins in West Africa, arriving in the New World via the slave trade, and consequently became a dominant factor in early African-American song styles. A simple instrument with tremendous modal possibilities, the banjo, particularly in its five-string version, also has a much wider range of tones, approaches, and styles in its repertoire than most people only familiar with the slash-and-burn speed style of modern bluegrass are likely to realize. In this regard, the title of Otis Taylor's ninth album, Recapturing the Banjo, is quite literally a mission statement. Taylor has always featured the banjo on his various recording projects, but here he brings the instrument front and center and enlists the help of several other contemporary black musicians, including Alvin Youngblood Hart, Guy Davis, Corey Harris, Don Vappie, and Keb' Mo', to present the banjo in a clearer historical light. This is no archival museum album, however, and while it does encompass and illustrate several banjo styles, from the clawhammer work of Davis on the traditional "Little Liza Jane" to the delicate picking style of Keb' Mo' on his own "The Way It Goes" and the jug band approach of Harris and Vappie on Gus Cannon's "Walk Right In," Recapturing the Banjo remains very much an Otis Taylor release, full of the kind of driving, modal trance tunes that he has always done so strikingly well. The opener, "Ran So Hard the Sun Went Down," a Taylor original, is a case in point. With a massed banjo army of Hart, Harris, Vappie, and Taylor himself, and amended by Taylor's daughter Cassie Taylor on bass and backup vocals, the song races in modal fashion with a steam-engine drive not unlike some of the North Mississippi trance blues of R.L. Burnside and company. It's all pretty exhilarating. This isn't an album full of purist intentions, either, and there's plenty of lap steel and electric guitar included in Taylor's powerful take on the old chestnut "Hey Joe," for instance, which features a guitar lead that even pays homage to Jimi Hendrix's famous version. Another highlight is Hart's stripped-down (just Hart on banjo and Taylor on percussion) reading of another traditional song, "Deep Blue Sea," that takes the banjo well out of the parlor. Taylor has yet to make a disappointing album, and Recapturing the Banjo is yet another striking example of how he combines the past and the present in a powerful contemporary cultural statement that informs and instructs even as it keeps the feet moving. So don't expect "Orange Blossom Special." This is the banjo in its original habitat given a 21st century twist while still paying tribute to its African past, and that's quite an impressive hat trick indeed.

Review by Steve Leggett, Allmusic.com

Tracklist:

01. Ran So Hard The Sun Went Down [0:03:52.58]
02. Prophet's Mission [0:03:34.14]
03. Absinthe [0:04:22.13]
04. Live Your Life [0:03:38.70]
05. Walk Right In [0:04:01.66]
06. Bow-Legged Charlie [0:04:25.52]
07. Hey Joe [0:04:33.78]
08. Little Liza Jane [0:02:44.90]
09. Five Hundred Roses [0:04:14.13]
10. Les Ognons [0:03:26.85]
11. Deep Blue Sea [0:02:21.24]
12. Simple Mind [0:04:23.53]
13. Ten Million Slaves [0:04:10.45]
14. The Way It Goes [0:02:56.57]


Exact Audio Copy V1.0 beta 3 from 29. August 2011

Отчёт EAC об извлечении, выполненном 7. января 2012, 13:22

Otis Taylor / Recapturing The Banjo

Дисковод: SONY CD-RW CRX230ED Adapter: 0 ID: 1

Режим чтения : Достоверность
Использование точного потока : Да
Отключение кэша аудио : Да
Использование указателей C2 : Нет

Коррекция смещения при чтении : 6
Способность читать области Lead-in и Lead-out : Нет
Заполнение пропущенных сэмплов тишиной : Да
Удаление блоков с тишиной в начале и конце : Нет
При вычислениях CRC использовались нулевые сэмплы : Да
Интерфейс : Установленный внешний ASPI-интерфейс

Выходной формат : Внутренние WAV-операции
Формат сэмплов : 44.100 Гц; 16 бит; стерео


TOC извлечённого CD

Трек | Старт | Длительность | Начальный сектор | Конечный сектор
––––––––––––––––––––––––––––––––––-
1 | 0:00.00 | 3:52.44 | 0 | 17443
2 | 3:52.44 | 3:34.11 | 17444 | 33504
3 | 7:26.55 | 4:22.10 | 33505 | 53164
4 | 11:48.65 | 3:38.53 | 53165 | 69567
5 | 15:27.43 | 4:01.50 | 69568 | 87692
6 | 19:29.18 | 4:25.39 | 87693 | 107606
7 | 23:54.57 | 4:33.59 | 107607 | 128140
8 | 28:28.41 | 2:44.68 | 128141 | 140508
9 | 31:13.34 | 4:14.10 | 140509 | 159568
10 | 35:27.44 | 3:26.64 | 159569 | 175082
11 | 38:54.33 | 2:21.18 | 175083 | 185675
12 | 41:15.51 | 4:23.40 | 185676 | 205440
13 | 45:39.16 | 4:10.34 | 205441 | 224224
14 | 49:49.50 | 2:56.43 | 224225 | 237467


Характеристики диапазона извлечения и сообщения об ошибках

Выбранный диапазон

Имя файла E:\MusicCD\Torrent\Otis Taylor - Recapturing The Banjo\Otis Taylor - Recapturing The Banjo.wav

Пиковый уровень 100.0 %
Скорость извлечения 6.5 X
Качество диапазона 100.0 %
CRC теста 39D3BA89
CRC копии 39D3BA89
Копирование… OK

Ошибок не произошло


AccurateRip: сводка

Трек 1 : извлечено точно (доверие 3) [D609E8C4] (AR v2)
Трек 2 : извлечено точно (доверие 2) [3D371B28] (AR v2)
Трек 3 : извлечено точно (доверие 2) [EB89B8C7] (AR v2)
Трек 4 : извлечено точно (доверие 3) [0FA1BC1C] (AR v2)
Трек 5 : извлечено точно (доверие 2) [DD0F802C] (AR v2)
Трек 6 : извлечено точно (доверие 2) [069EA245] (AR v2)
Трек 7 : извлечено точно (доверие 2) [8317D8E7] (AR v2)
Трек 8 : извлечено точно (доверие 2) [5477520D] (AR v2)
Трек 9 : извлечено точно (доверие 2) [5F104DA0] (AR v2)
Трек 10 : извлечено точно (доверие 2) [34D9EAE5] (AR v2)
Трек 11 : извлечено точно (доверие 2) [9A130159] (AR v2)
Трек 12 : извлечено точно (доверие 2) [F5325B53] (AR v2)
Трек 13 : извлечено точно (доверие 2) [99357D41] (AR v2)
Трек 14 : извлечено точно (доверие 2) [47ED6026] (AR v2)

Все треки извлечены точно

Конец отчёта

==== Контрольная сумма отчёта 5BA12121DAD58E4A6FC721195648BBF785FAB7E33966FB7600BC94EE0DF9AE47 ====




Otis Taylor - Albums Collection 1997-2017 (14CD) [Re-Up]

Otis Taylor - Pentatonic Wars And Love Songs (2009)
EAC | FLAC | Image (Cue&Log) ~ 490 Mb | Mp3 (CBR320) ~ 201 Mb
Scans Included | Label: Telarc | # CD-83690 | Time: 01:08:53

Otis Taylor doesn't suffer fools lightly, and his songs are full of defiant reclamations of history and tender vignettes of people struggling to survive in hostile cultural territory. Now he wants to talk about love. Taylor began his career playing bluegrass banjo, but switched to guitar (and the blues) in the late '60s, working in various bands and as a solo artist before walking away from it all 1978. He re-emerged a couple decades later in the mid-'90s with an utterly unique and modal-driven blues style that made full use of his gritty singing voice; his quirky songwriting skills; and his raw, driving guitar and banjo playing. Taylor really hasn't been idle since, and Pentatonic Wars and Love Songs is his tenth studio album in 14 years. Following on the heels of 2008's Recapturing the Banjo (which did exactly what its title says), this set finds Taylor turning his attention to love, but these aren't love songs in the normal sense, and more often than not these songs chart the course of love in dramatically unstable and even dangerous relationships. No moon and June stuff. Not even close. Much bleaker. The album opens with "Looking for Some Heat," and yeah, it's about love, but things don't end well at all. "Lost My Guitar," which is all about the loss of love in the truest sense, uses guitars and fatal car accidents as central metaphors. Nope, love isn't all roses in Taylor's view of things. And the sound of this album is different, too, with frequent use of solo cornet, giving these tracks a kind of dark, jazzy feel, particularly on cuts like "I'm Not Mysterious" that feature jazz pianist Jason Moran and Ron Miles' cornet. Irish blues-rock guitarist Gary Moore pops up on three cuts, and Taylor's daughter and bassist Cassie Taylor handles lead vocals on a few songs, including the striking and wonderful "Maybe Yeah." Pentatonic Wars and Love Songs ends up being an urgent, stubborn, and sometimes overly dark view of love in all of its unavoidable permutations. In other words, it's exactly the kind of album of love songs you'd expect from Taylor, one that is direct and as baffling as it is challenging.

Review by Steve Leggett, Allmusic.com

Tracklist:

01. Looking For Some Heat [0:05:55.52]
02. Sunday Morning [0:04:15.58]
03. Silver Dollar On My Head [0:03:44.74]
04. Lost My Guitar [0:04:37.14]
05. I'm Not Mysterious [0:07:29.77]
06. Young Girl Down The Street [0:06:20.49]
07. Country Boy, Girl [0:04:47.13]
08. Talking About It Blues [0:04:45.85]
09. Walk On Water [0:08:02.40]
10. Mama's Best Friend [0:05:02.29]
11. Maybe Yeah [0:04:09.02]
12. Dagger By My Side [0:03:45.73]
13. If You Hope [0:05:57.44]


Exact Audio Copy V1.0 beta 3 from 29. August 2011

Отчёт EAC об извлечении, выполненном 7. января 2012, 14:14

Otis Taylor / Pentatonic Wars And Love Songs

Дисковод: SONY CD-RW CRX230ED Adapter: 0 ID: 1

Режим чтения : Достоверность
Использование точного потока : Да
Отключение кэша аудио : Да
Использование указателей C2 : Нет

Коррекция смещения при чтении : 6
Способность читать области Lead-in и Lead-out : Нет
Заполнение пропущенных сэмплов тишиной : Да
Удаление блоков с тишиной в начале и конце : Нет
При вычислениях CRC использовались нулевые сэмплы : Да
Интерфейс : Установленный внешний ASPI-интерфейс

Выходной формат : Внутренние WAV-операции
Формат сэмплов : 44.100 Гц; 16 бит; стерео


TOC извлечённого CD

Трек | Старт | Длительность | Начальный сектор | Конечный сектор
––––––––––––––––––––––––––––––––––-
1 | 0:00.00 | 5:55.39 | 0 | 26663
2 | 5:55.39 | 4:15.44 | 26664 | 45832
3 | 10:11.08 | 3:44.56 | 45833 | 62688
4 | 13:55.64 | 4:37.11 | 62689 | 83474
5 | 18:33.00 | 7:29.58 | 83475 | 117207
6 | 26:02.58 | 6:20.37 | 117208 | 145744
7 | 32:23.20 | 4:47.10 | 145745 | 167279
8 | 37:10.30 | 4:45.64 | 167280 | 188718
9 | 41:56.19 | 8:02.30 | 188719 | 224898
10 | 49:58.49 | 5:02.22 | 224899 | 247570
11 | 55:00.71 | 4:09.02 | 247571 | 266247
12 | 59:09.73 | 3:45.55 | 266248 | 283177
13 | 62:55.53 | 5:57.33 | 283178 | 309985


Характеристики диапазона извлечения и сообщения об ошибках

Выбранный диапазон

Имя файла E:\MusicCD\Torrent\Otis Taylor - Pentatonic Wars And Love Songs\Otis Taylor - Pentatonic Wars And Love Songs.wav

Пиковый уровень 100.0 %
Скорость извлечения 5.2 X
Качество диапазона 100.0 %
CRC теста 280612F4
CRC копии 280612F4
Копирование… OK

Ошибок не произошло


AccurateRip: сводка

Трек 1 : извлечено точно (доверие 14) [E127ACC8] (AR v1)
Трек 2 : извлечено точно (доверие 14) [6626932B] (AR v1)
Трек 3 : извлечено точно (доверие 14) [FEA82E4C] (AR v1)
Трек 4 : извлечено точно (доверие 14) [2E1684B9] (AR v1)
Трек 5 : извлечено точно (доверие 14) [4EDFBB33] (AR v1)
Трек 6 : извлечено точно (доверие 14) [F1C90D8A] (AR v1)
Трек 7 : извлечено точно (доверие 14) [D89D2E3F] (AR v1)
Трек 8 : извлечено точно (доверие 14) [BE822D32] (AR v1)
Трек 9 : извлечено точно (доверие 13) [4BE37E79] (AR v1)
Трек 10 : извлечено точно (доверие 14) [8405D87A] (AR v1)
Трек 11 : извлечено точно (доверие 14) [42CCDF2F] (AR v1)
Трек 12 : извлечено точно (доверие 14) [AB323B6A] (AR v1)
Трек 13 : извлечено точно (доверие 14) [0D8BABD9] (AR v1)

Все треки извлечены точно

Конец отчёта

==== Контрольная сумма отчёта 7BCFAD6F85B817F6B734AC9F64824E086071D80477F5FD6B86FA13AA3ADD774F ====




Otis Taylor - Albums Collection 1997-2017 (14CD) [Re-Up]

Otis Taylor - Clovis People Vol.3 (2010)
EAC | FLAC | Image (Cue&Log) ~ 366 Mb | Mp3 (CBR320) ~ 155 Mb
Scans Included | Label: Telarc | # TEL-31849-02 | Time: 00:49:52

Over a decade, folk-blues songwriter Otis Taylor has come up with compelling, often puzzling album titles; Clovis People, Vol. 3 is no exception. For starters, there aren’t any previous volumes. Also, the Clovis People he refers to don’t exist. Their name was chosen by archaeologists near Taylor’s own home in Pueblo, Colorado, who discovered the tools and pottery of a culture that had died out over 13,000 years ago.

Taylor’s approach is quite spare and atmospheric, though his ensemble is sometimes exotic: some of his guests include jazz trumpeter Ron Miles, electric guitar slinger Gary Moore, Fara Tolno on djembe, pedal steel guitarist Chuck Campbell, and his regulars, daughter Cassie on bass and theremin, and Larry Thompson on drums, along with assorted guests. Taylor’s trademark vocals and guitar are ever-present. These blues are moody, sometimes menacing: “Little Willie” is a narrative account of a young boy shot dead on a school playground. A biting lead guitar line is answered by Taylor’s stuttering rhythmic one. Campbell’s pedal steel weaves between the two as Cassie’s bass rumbles, and the skeletal, pulsing crackle of Thompson’s kit heats up Taylor's moan toward a biting crescendo. On “Rain So Hard,” Miles' trumpet paints Taylor’s National steel with ethereal single notes and short runs, as a theremin, pedal steel, and a cello fill out the bottom. It’s a slow, hypnotic John Lee Hooker-esque shuffle about lost love. “Lee and Arnez” is a folk song textured by Moore’s trademark guitar snarl, a violin, and an organ. Its fragmented narrative is about race and changing times. Taylor’s reclaiming the ghosts of people he knew and staking a claim to what was always true, even if America didn’t know it at the time (and may still not): “There’s no color/there’s no difference.” “Ain’t No Cowgirl” features Moore's electric guitar against Tolno's djemebe. They snake and pulse under a sparse lyric about a truly dangerous woman. “Think I Won’t” returns us to the school yard. Fiddle, pedal steel, bass, guitars, and drums create the musical backbone that allows a mother to confront a drug dealer. How it ends Taylor doesn’t say, but the music offers enough pent-up rage and righteous anger that we can guess. Clovis People, Vol. 3 adds significantly to Taylor’s increasingly ambitious body of work. He mines new territory from an ancient–perhaps prehistoric–blues with grit, humanity, and an elliptical musical personality.

Review by Thom Jurek, Allmusic.com

Tracklist:

01. Rain So Hard [0:05:55.52]
02. Little Willie [0:04:53.62]
03. Lee And Arnez [0:04:34.24]
04. It's Done Happened Again [0:03:40.16]
05. Past Times [0:03:50.70]
06. She's Ice In The Desert [0:04:10.81]
07. Hands On Your Stomach [0:03:49.81]
08. Harry, Turn The Music Up [0:04:04.32]
09. Ain't No Cowgirl [0:03:23.49]
10. Babies Don't Lie [0:04:01.17]
11. Coffee Woman [0:03:40.49]
12. Think I Won't [0:03:47.82]


Exact Audio Copy V1.0 beta 3 from 29. August 2011

Отчёт EAC об извлечении, выполненном 7. января 2012, 14:42

Otis Taylor / Clovis People Vol.3

Дисковод: SONY CD-RW CRX230ED Adapter: 0 ID: 1

Режим чтения : Достоверность
Использование точного потока : Да
Отключение кэша аудио : Да
Использование указателей C2 : Нет

Коррекция смещения при чтении : 6
Способность читать области Lead-in и Lead-out : Нет
Заполнение пропущенных сэмплов тишиной : Да
Удаление блоков с тишиной в начале и конце : Нет
При вычислениях CRC использовались нулевые сэмплы : Да
Интерфейс : Установленный внешний ASPI-интерфейс

Выходной формат : Внутренние WAV-операции
Формат сэмплов : 44.100 Гц; 16 бит; стерео


TOC извлечённого CD

Трек | Старт | Длительность | Начальный сектор | Конечный сектор
––––––––––––––––––––––––––––––––––-
1 | 0:00.00 | 5:55.39 | 0 | 26663
2 | 5:55.39 | 4:53.47 | 26664 | 48685
3 | 10:49.11 | 4:34.18 | 48686 | 69253
4 | 15:23.29 | 3:40.12 | 69254 | 85765
5 | 19:03.41 | 3:50.53 | 85766 | 103068
6 | 22:54.19 | 4:10.61 | 103069 | 121879
7 | 27:05.05 | 3:49.61 | 121880 | 139115
8 | 30:54.66 | 4:04.24 | 139116 | 157439
9 | 34:59.15 | 3:23.37 | 157440 | 172701
10 | 38:22.52 | 4:01.13 | 172702 | 190789
11 | 42:23.65 | 3:40.37 | 190790 | 207326
12 | 46:04.27 | 3:47.62 | 207327 | 224413


Характеристики диапазона извлечения и сообщения об ошибках

Выбранный диапазон

Имя файла E:\MusicCD\Torrent\Otis Taylor - Clovis People Vol.3\Otis Taylor - Clovis People Vol.3.wav

Пиковый уровень 94.8 %
Скорость извлечения 8.2 X
Качество диапазона 100.0 %
CRC теста E8CD7FCC
CRC копии E8CD7FCC
Копирование… OK

Ошибок не произошло


AccurateRip: сводка

Трек 1 : извлечено точно (доверие 2) [ED36793F] (AR v2)
Трек 2 : извлечено точно (доверие 2) [B1211A78] (AR v2)
Трек 3 : извлечено точно (доверие 2) [4FD15B1D] (AR v2)
Трек 4 : извлечено точно (доверие 2) [C25AFD73] (AR v2)
Трек 5 : извлечено точно (доверие 2) [EADC03FC] (AR v2)
Трек 6 : извлечено точно (доверие 2) [FD727375] (AR v2)
Трек 7 : извлечено точно (доверие 2) [9665B280] (AR v2)
Трек 8 : извлечено точно (доверие 2) [CFF46141] (AR v2)
Трек 9 : извлечено точно (доверие 2) [5BDC0D89] (AR v2)
Трек 10 : извлечено точно (доверие 2) [A535DBFC] (AR v2)
Трек 11 : извлечено точно (доверие 2) [7632E965] (AR v2)
Трек 12 : извлечено точно (доверие 2) [742030F4] (AR v2)

Все треки извлечены точно

Конец отчёта

==== Контрольная сумма отчёта CDD48F37C46534952374276DA1072D7E0B4F0B70D74B04CD89DD4B66726CFC8C ====




Otis Taylor - Albums Collection 1997-2017 (14CD) [Re-Up]

Otis Taylor - Otis Taylor's Contraband (2012)
EAC | FLAC | Image (Cue&Log) ~ 429 Mb | Mp3 (CBR320) ~ 185 Mb
Scans Included | Label: Telarc | # TEL-33188-02 | Time: 00:58:25

Anyone who has paid attention to Otis Taylor's career understands that he is not a conventional bluesman, yet his diverse music, for all of its ambitious instrumentation, odd rhythmic meters, minor pentatonic scales, and textural strangeness embodies the spirit of the blues authentically and unmistakably. His is an iconic – and some would argue iconoclastic – vision. Contraband is nearly an hour long and contains 14 songs. Taylor plays guitar as well as banjo, and he uses a familiar slate of players: cornetist Ron Miles, keyboardist Brian Juan, fiddler Anne Harris, guitarist Jon Paul Johnson, with Chuck Campbell on pedal steel, djembe player Fara Tolno, and two bassists: daughter Cassie Taylor and Todd Edmunds; Larry Thompson plays drums. The album's hinge piece, "Contraband Blues," elucidates the use of human beings being used as actual contraband. The track, with its layered strings, spooky pedal steel, skittering snare, and open-toned, droning blues details the plight of slaves during the Civil War. They were freed by law, but weren't free – they were used by the Union Army as captured property. Opener "Devil's Gonna Lie" is a circular two-chord blues riff, accentuated by djembe and multi-tracked cornet, B-3, pedal steel and electric guitars, and the Wendy Rene Choir. Taylor sings in old gospel style about the "devil," but refers to him not so much as a person but as the persuasive power of evil. Punchy, funky, and gritty, evil is portrayed as any form of exploitation. Taylor examines race, class, and interpersonal relationships in unusual ways. "Blind Piano Teacher" is a soulful ballad that explores the relationship between a younger blind piano teacher of mixed racial heritage and an older man of no racial distinction. Miles' cornet playing is like another singing voice, answering Taylor's narrative. "Banjo Boogie Blues" is a strutting shuffle with screaming guitars, banjo, and drums, with the choir underscoring Taylor's call for universal and personal compassion. 12-bar blues are the basis of the tracks "Your Ten Dollar Bill," Yellow Car, Yellow Dog," "Romans Had Their Way," "Lay On My Delta Bed," and closing burner "I Can See You're Lying," but Taylor and his band stretch them to the limit rhythmically with odd instrumental and vocal cadences, only the drum kit keeping them on the rails. Still, it's the nearly acoustic Delta blues-inspired "2 or 3 Times," the Mexican corrido "Yell Your Name," the Americana-inspired "Never Been to Africa" (detailing the plight of a black soldier who has fought all over the world during WWI, yet never visits his homeland), and the shimmering acoustic/electric folk-blues of "Look to the Side" that lend mystery on this deeply focused set. By reining in the freedom that made Clovis People, Vol. 3 such a puzzling wonder, Taylor manages to up the ante musically and lyrically on Contraband. All killer, no filler.

Review by Thom Jurek, Allmusic.com

Tracklist:

01. The Devil's Gonna Lie [0:03:57.52]
02. Yell Your Name [0:03:31.78]
03. Look To The Side [0:04:42.20]
04. Romans Had Their Way [0:04:13.25]
05. Blind Piano Teacher [0:03:34.92]
06. Banjo Boogie Blues [0:04:34.04]
07. 2 Or 3 Times [0:03:42.62]
08. Contraband Blues [0:04:29.50]
09. Lay On My Delta Bed [0:02:34.24]
10. Your 10 Dollar Bill [0:03:56.21]
11. Open These Bars [0:06:29.98]
12. Yellow Car, Yellow Dog [0:04:02.97]
13. Never Been To Africa [0:03:48.02]
14. I Can See You're Lying [0:04:47.82]


Exact Audio Copy V1.0 beta 3 from 29. August 2011

Отчёт EAC об извлечении, выполненном 7. июня 2012, 10:18

Otis Taylor / Otis Taylor's Contraband

Дисковод: SONY CD-RW CRX230ED Adapter: 0 ID: 1

Режим чтения : Достоверность
Использование точного потока : Да
Отключение кэша аудио : Да
Использование указателей C2 : Нет

Коррекция смещения при чтении : 6
Способность читать области Lead-in и Lead-out : Нет
Заполнение пропущенных сэмплов тишиной : Да
Удаление блоков с тишиной в начале и конце : Нет
При вычислениях CRC использовались нулевые сэмплы : Да
Интерфейс : Встроенный Win32-интерфейс для Win NT/2000

Выходной формат : Внутренние WAV-операции
Формат сэмплов : 44.100 Гц; 16 бит; стерео


TOC извлечённого CD

Трек | Старт | Длительность | Начальный сектор | Конечный сектор
––––––––––––––––––––––––––––––––––-
1 | 0:00.00 | 3:57.39 | 0 | 17813
2 | 3:57.39 | 3:31.59 | 17814 | 33697
3 | 7:29.23 | 4:42.15 | 33698 | 54862
4 | 12:11.38 | 4:13.19 | 54863 | 73856
5 | 16:24.57 | 3:34.69 | 73857 | 89975
6 | 19:59.51 | 4:34.03 | 89976 | 110528
7 | 24:33.54 | 3:42.47 | 110529 | 127225
8 | 28:16.26 | 4:29.38 | 127226 | 147438
9 | 32:45.64 | 2:34.18 | 147439 | 159006
10 | 35:20.07 | 3:56.16 | 159007 | 176722
11 | 39:16.23 | 6:29.74 | 176723 | 205971
12 | 45:46.22 | 4:02.73 | 205972 | 224194
13 | 49:49.20 | 3:48.02 | 224195 | 241296
14 | 53:37.22 | 4:47.62 | 241297 | 262883


Характеристики диапазона извлечения и сообщения об ошибках

Выбранный диапазон

Имя файла E:\MusicCD\Torrent\Otis Taylor - Otis Taylor's Contraband\Otis Taylor - Otis Taylor's Contraband.wav

Пиковый уровень 98.7 %
Скорость извлечения 6.1 X
Качество диапазона 100.0 %
CRC теста BE02F0DC
CRC копии BE02F0DC
Копирование… OK

Ошибок не произошло


AccurateRip: сводка

Трек 1 : извлечено точно (доверие 2) [F4A1F39A] (AR v2)
Трек 2 : извлечено точно (доверие 2) [43F4DBC8] (AR v2)
Трек 3 : извлечено точно (доверие 2) [C30B7383] (AR v2)
Трек 4 : извлечено точно (доверие 2) [3EDD7F57] (AR v2)
Трек 5 : извлечено точно (доверие 2) [C72E50E2] (AR v2)
Трек 6 : извлечено точно (доверие 2) [37164C70] (AR v2)
Трек 7 : извлечено точно (доверие 2) [146CD3DC] (AR v2)
Трек 8 : извлечено точно (доверие 2) [65A572EF] (AR v2)
Трек 9 : извлечено точно (доверие 2) [1DF160E7] (AR v2)
Трек 10 : извлечено точно (доверие 2) [8E1BFB60] (AR v2)
Трек 11 : извлечено точно (доверие 2) [21DCF019] (AR v2)
Трек 12 : извлечено точно (доверие 2) [6B90120C] (AR v2)
Трек 13 : извлечено точно (доверие 2) [312D1B83] (AR v2)
Трек 14 : извлечено точно (доверие 2) [146A0034] (AR v2)

Все треки извлечены точно

Конец отчёта

==== Контрольная сумма отчёта 255B99B762E14A5400A5ACD42B2CD989EB10A6FEC8AFF0E2E6941FF9353D22B0 ====




Otis Taylor - Albums Collection 1997-2017 (14CD) [Re-Up]

Otis Taylor - My World Is Gone (2013)
EAC | FLAC | Image (Cue&Log) ~ 427 Mb | Mp3 (CBR320) ~ 184 Mb
Scans included | Label: Telarc | # TEL-34028-02 | Time: 01:00:42

Otis Taylor is among the most mercurial of bluesmen. While his signature vocal phrasing and playing – whether it be on guitar, mandolin, or banjo – is rooted in several blues traditions – his music almost never strictly conforms. Taylor's ability to morph his elliptical "trance blues" into any sound he pursues is beguiling. My World Is Gone is no exception. Its title refers to a comment made to him by Native American guitarist Mato Nanji of Indigenous after a concert. Nanji and his guitar are key players on about half the record. Most of these cuts address various issues in Native American history (from the Indian's side), especially the ill treatment of this first world people by the United States government and populace. Yet, in typical Taylor fashion, there are a couple of curveballs too. The title track is introduced by his acoustic guitar and Anne Harris' lonesome fiddle, as he gradually unfolds his tale, Nanji's electric stings the ends of his lines. "Huckleberry Blues" is essentially a one-chord funk vamp, propelled by Todd Edmund's bassline, and equally elusive jazzman Ron Miles' labyrinthine groove-laden cornet. Taylor plays chunky, amplified banjo chords atop Larry Thompson's drum kit. An acoustic banjo and Thompson's military snare, introduce "Sand Creek Massacre," the most haunting cut here. Nanji uses restraint in painting the margins with an array of guitar sounds and Miles flits and hovers in the mix. A B-3 shimmers in somewhere, and Taylor's voice, moaning and chantlike, brings the listener inside the drama. Americana is utilized in "Blue Rain in Africa," a story song about the white buffalo, sacred in Native American culture as viewed from the point of view of an Indian protagonist who has only ever seen one on television because the buffalo were almost wiped from the earth in the middle of the 20th century. "Girl Friend's House" is pulsed by banjo, throbbing bass, brushed snare, and Miles' multi-tracked cornet. It's about a "man who catches his wife in bed with a girlfriend and decides he wants to join in." Taylor's protagonist's pain and desire is evident in his groaning, grainy vocal. "Jae Jae Waltz" is a banjo- and cornet-fueled country waltz, while "The Wind Comes In" is slow blues rock with excellent guitar from Nanji. "Coming with Crosses" uses country and bluegrass to tell its horrific tale in a dramatic droning blues. Harris' fiddle is particularly effective as another voice in the narrative. "Sit Across Your Table," a love song, is the full-blown electric rocker that closes the recording. The music on My World Is Gone is always seemingly familiar yet impossible to pin down. Taylor's chameleon-like always-hiding-in-plain-sight aesthetic gives us a poignant, compelling recording that warrants repeated listening. In a decade or a century, it will more than likely sound as elliptical and necessary as it does now.

Review by Thom Jurek, Allmusic.com

Tracklist:

01. My World Is Gone [0:04:27.94]
02. Lost My Horse [0:03:30.10]
03. Huckleberry Blues [0:04:40.68]
04. Sand Creek Massacre Mourning [0:04:32.28]
05. The Wind Comes In [0:05:48.17]
06. Blue Rain In Africa [0:04:14.28]
07. Never Been To The Reservation [0:05:02.38]
08. Girl Friend's House [0:04:35.64]
09. Jae Jae Waltz [0:04:10.74]
10. Gangster And Iztatoz Chauffeur [0:05:11.97]
11. Coming With Crosses [0:06:07.01]
12. Green Apples [0:03:52.04]
13. Sit Across Your Table [0:04:28.94]


Exact Audio Copy V1.0 beta 3 from 29. August 2011

Отчёт EAC об извлечении, выполненном 8. июня 2013, 10:51

Otis Taylor / My World Is Gone

Дисковод: SONY CD-RW CRX230ED Adapter: 0 ID: 1

Режим чтения : Достоверность
Использование точного потока : Да
Отключение кэша аудио : Да
Использование указателей C2 : Нет

Коррекция смещения при чтении : 6
Способность читать области Lead-in и Lead-out : Нет
Заполнение пропущенных сэмплов тишиной : Да
Удаление блоков с тишиной в начале и конце : Нет
При вычислениях CRC использовались нулевые сэмплы : Да
Интерфейс : Установленный внешний ASPI-интерфейс

Выходной формат : Внутренние WAV-операции
Формат сэмплов : 44.100 Гц; 16 бит; стерео


TOC извлечённого CD

Трек | Старт | Длительность | Начальный сектор | Конечный сектор
––––––––––––––––––––––––––––––––––-
1 | 0:00.00 | 4:27.71 | 0 | 20095
2 | 4:27.71 | 3:30.08 | 20096 | 35853
3 | 7:58.04 | 4:40.51 | 35854 | 56904
4 | 12:38.55 | 4:32.21 | 56905 | 77325
5 | 17:11.01 | 5:48.13 | 77326 | 103438
6 | 22:59.14 | 4:14.21 | 103439 | 122509
7 | 27:13.35 | 5:02.29 | 122510 | 145188
8 | 32:15.64 | 4:35.48 | 145189 | 165861
9 | 36:51.37 | 4:10.56 | 165862 | 184667
10 | 41:02.18 | 5:11.73 | 184668 | 208065
11 | 46:14.16 | 6:07.01 | 208066 | 235591
12 | 52:21.17 | 3:52.03 | 235592 | 252994
13 | 56:13.20 | 4:28.71 | 252995 | 273165


Характеристики диапазона извлечения и сообщения об ошибках

Выбранный диапазон

Имя файла E:\MusicCD\Torrent\Otis Taylor - Discography\Otis Taylor - My World Is Gone\Otis Taylor - My World Is Gone.wav

Пиковый уровень 96.6 %
Скорость извлечения 8.7 X
Качество диапазона 100.0 %
CRC теста 4F8BDB08
CRC копии 4F8BDB08
Копирование… OK

Ошибок не произошло


AccurateRip: сводка

Трек 1 отсутствует в базе данных
Трек 2 отсутствует в базе данных
Трек 3 отсутствует в базе данных
Трек 4 отсутствует в базе данных
Трек 5 отсутствует в базе данных
Трек 6 отсутствует в базе данных
Трек 7 отсутствует в базе данных
Трек 8 отсутствует в базе данных
Трек 9 отсутствует в базе данных
Трек 10 отсутствует в базе данных
Трек 11 отсутствует в базе данных
Трек 12 отсутствует в базе данных
Трек 13 отсутствует в базе данных

Ни одного трека нет в базе AccurateRip

Конец отчёта

==== Контрольная сумма отчёта 18F301751115C912569D0F6073046D96E8FE4A673E2890553E11264DC7404E5A ====




Otis Taylor - Albums Collection 1997-2017 (14CD) [Re-Up]

Otis Taylor - Hey Joe Opus Red Meat (2015)
EAC | FLAC | Image (Cue&Log) ~ 313 Mb | Mp3 (CBR320) ~ 160 Mb
Label: in-akustik | # INAK 9136 CD | Time: 00:48:12 | Scans included

Otis Taylor's fourteenth album Hey Joe Opus Red Meat offers a meticulously crafted collection of songs and instrumentals. His earlier recordings but it approaches only in the sense that the music again escapes a simplistic categorization. Of course, blues and folk elements essential component, but also refers Otis Taylor psychedelic rock, jazz and Americana with a. The resulting therefrom hybrid he calls himself trance blues.

The focus of Hey Joe Opus Red Meat Taylors are reflections on decisions about the changes to which such decisions in our lives - can lead - and that of our families.

The overarching theme of the designed as a single piece in ten parts new album is the song Hey Joe, heard in two different contrasting versions. More songs, song forms and instrumental parts merge. Are often flavored airy musical fabric and the interlocking guitar structures through prudent interspersed violin and brass passages.

In addition to his band distinguished guests are on Hey Joe Opus Red Meat represented: Guitar powerhouse Warren Haynes (Allman Brothers, The Dead and Gov't Mule), acoustic guitarist Bill Nershi (The String Cheese Incident), singer-songwriter and guitarist Langhorne Slim and guitarist Daniel Sproul, who has toured with Eddie Van Halen, Warren Haynes, the Black Crowes and Otis Taylor.

The Colorado bluesman has made Hey Joe a theme tune and live staple. Here the song made famous by Jimi Hendrix (with whom a young Taylor jammed) becomes the centrepiece of a gaunt meditation on betrayal and murder, cast in Taylor’s customary “trance blues” mode; guitar drones shot through with lines of cornet, fiddle and banjo and fronted by his growling declamations. Talented guests help dramatise the album’s arid, wild west soundscapes; guitarist Warren Haynes psychs out, Hendrix-style, on two versions of Hey Joe, with singer Langhorne Slim playing the part of gun-toting Joe. A visceral tour de force.

Review by Neil Spencer, The Guardian

Tracklist:

01. Hey Joe (A) (07:38)
02. Sunday Morning (A) (06:45)
03. The Heart is a Muscle (Used for the Blues) (04:08)
04. Red Meat (04:17)
05. Peggy Lee (04:18)
06. They Wore Blue (03:33)
07. Hey Joe (B) (07:38)
08. Sunday Morning (B) (01:50)
09. Cold at Midnight (04:28)
10. Sunday Morning (C) (03:34)


Exact Audio Copy V1.1 from 23. June 2015

Отчёт EAC об извлечении, выполненном 24. декабря 2016, 16:30

Otis Taylor / Hey Joe Opus Red Meat

Дисковод: TEAC CD-W552GB Adapter: 1 ID: 0

Режим чтения : Достоверность
Использование точного потока : Да
Отключение кэша аудио : Да
Использование указателей C2 : Нет

Коррекция смещения при чтении : 6
Способность читать области Lead-in и Lead-out : Нет
Заполнение пропущенных сэмплов тишиной : Да
Удаление блоков с тишиной в начале и конце : Нет
При вычислениях CRC использовались нулевые сэмплы : Да
Интерфейс : Встроенный Win32-интерфейс для Win NT/2000

Выходной формат : Внутренние WAV-операции
Формат сэмплов : 44.100 Гц; 16 бит; стерео


TOC извлечённого CD

Трек | Старт | Длительность | Начальный сектор | Конечный сектор
––––––––––––––––––––––––––––––––––-
1 | 0:00.00 | 7:38.36 | 0 | 34385
2 | 7:38.36 | 6:45.13 | 34386 | 64773
3 | 14:23.49 | 4:08.11 | 64774 | 83384
4 | 18:31.60 | 4:17.67 | 83385 | 102726
5 | 22:49.52 | 4:18.12 | 102727 | 122088
6 | 27:07.64 | 3:33.34 | 122089 | 138097
7 | 30:41.23 | 7:38.17 | 138098 | 172464
8 | 38:19.40 | 1:50.05 | 172465 | 180719
9 | 40:09.45 | 4:28.07 | 180720 | 200826
10 | 44:37.52 | 3:34.54 | 200827 | 216930


Характеристики диапазона извлечения и сообщения об ошибках

Выбранный диапазон

Имя файла F:\MusicCD\Torrent\Otis Taylor - Hey Joe Opus Red Meat\Otis Taylor - Hey Joe Opus Red Meat.wav

Пиковый уровень 100.0 %
Скорость извлечения 8.3 X
Качество диапазона 99.9 %
CRC теста 299F54C7
CRC копии 299F54C7
Копирование… OK

Ошибок не произошло


AccurateRip: сводка

Трек 1 : извлечено точно (доверие 21) [0701125D] (AR v2)
Трек 2 : извлечено точно (доверие 20) [14BAA06D] (AR v2)
Трек 3 : извлечено точно (доверие 20) [F51E8C98] (AR v2)
Трек 4 : извлечено точно (доверие 20) [2ACD1E7C] (AR v2)
Трек 5 : извлечено точно (доверие 20) [18E26F4E] (AR v2)
Трек 6 : извлечено точно (доверие 20) [5D1B42B4] (AR v2)
Трек 7 : извлечено точно (доверие 20) [ACBEFDDC] (AR v2)
Трек 8 : извлечено точно (доверие 20) [39E8EF24] (AR v2)
Трек 9 : извлечено точно (доверие 19) [D101611E] (AR v2)
Трек 10 : извлечено точно (доверие 20) [DBB72287] (AR v2)

Все треки извлечены точно

Конец отчёта

–– CUETools DB Plugin V2.1.6

[CTDB TOCID: fVbj8o94THznRcjuhOQc0AW3tRA-] found
Submit result: fVbj8o94THznRcjuhOQc0AW3tRA- has been confirmed
Track | CTDB Status
1 | (62/62) Accurately ripped
2 | (62/62) Accurately ripped
3 | (62/62) Accurately ripped
4 | (62/62) Accurately ripped
5 | (62/62) Accurately ripped
6 | (62/62) Accurately ripped
7 | (62/62) Accurately ripped
8 | (62/62) Accurately ripped
9 | (62/62) Accurately ripped
10 | (61/62) Accurately ripped


==== Контрольная сумма отчёта B0CF8E637FB7DA1D25EFEA127ABAD3E87DAD6823592F1DB65725C0BBCF87CCFA ====

foobar2000 1.2 / Dynamic Range Meter 1.1.1
log date: 2016-12-25 21:21:48

––––––––––––––––––––––––––––––––––––––––
Analyzed: Otis Taylor / Hey Joe Opus Red Meat
––––––––––––––––––––––––––––––––––––––––

DR Peak RMS Duration Track
––––––––––––––––––––––––––––––––––––––––
DR11 -0.11 dB -13.06 dB 7:38 01-Hey Joe (A)
DR11 -0.11 dB -14.31 dB 6:45 02-Sunday Morning (A)
DR12 -0.11 dB -13.58 dB 4:08 03-The Heart is a Muscle (Used for the Blues)
DR11 -0.11 dB -12.84 dB 4:18 04-Red Meat
DR11 -0.11 dB -13.58 dB 4:18 05-Peggy Lee
DR9 0.00 dB -10.42 dB 3:33 06-They Wore Blue
DR10 -0.11 dB -12.90 dB 7:38 07-Hey Joe (B)
DR13 -5.53 dB -23.29 dB 1:50 08-Sunday Morning (B)
DR13 -0.11 dB -14.65 dB 4:28 09-Cold at Midnight
DR11 -0.11 dB -13.48 dB 3:35 10-Sunday Morning (C)
––––––––––––––––––––––––––––––––––––––––

Number of tracks: 10
Official DR value: DR11

Samplerate: 44100 Hz
Channels: 2
Bits per sample: 16
Bitrate: 720 kbps
Codec: FLAC
================================================================================




Otis Taylor - Albums Collection 1997-2017 (14CD) [Re-Up]

Otis Taylor - Fantasizing About Being Black (2017)
XLD | FLAC | Image (Cue&Log) ~ 230 Mb | Mp3 (CBR320) ~ 99 Mb | Scans ~ 100 Mb
Label: in-akustik | # INAK 9147 CD | Time: 00:42:53

Otis Taylor stands alone among 21st century blues musicians in his fearlessness in redefining what the music means in modern society. He pushes forward, but he also has a deep knowledge of its history, and 2017's Fantasizing About Being Black draws upon the past to offer commentary of contemporary race relations in America. Taylor's 11 original compositions – including four earlier tunes re-recorded for this record – take stock of African American history, from slavery into the present, but there's a concentration of stories from the 20th century, including songs devoted to World War II and Civil Rights marchers. No matter the setting, the songs feel alive, an impressive achievement made all the more so because of how understated Taylor's delivery is. He's expanded the essential single-chord boogie of John Lee Hooker so it's become mesmerizing and open-ended, but this music isn't designed for passive listening. There's dramatic tension in its circular chords and its sparseness helps draw attention to his stories. Neither his music nor lyrics follow shopworn blues changes, but that's why they feel so vital: far from resting on clichés, Taylor recasts the blues and the history of Black America on Fantasizing About Being Black in a way that speaks to a new century, and the results are bracing.

Review by Stephen Thomas Erlewine, Allmusic.com


Tracklist:

01. Twelve String Mile (4:09)
02. Walk On Water (4:22)
03. Banjo Bam Bam (3:37)
04. Hands On Your Stomach (4:01)
05. Jump Jelly Belly (3:56)
06. Tripping On This (3:16)
07. D to E Blues (3:30)
08. Jump Out of Line (4:10)
09. Just Want to Live With You (3:27)
10. Roll Down The Hill (4:05)
11. Jump To Mexico (4:20)


X Lossless Decoder version 20170729 (150.3)

XLD extraction logfile from 2018-09-21 21:08:03 +0500

Otis Taylor / Fantasizing About Being Black

Used drive : HL-DT-ST DVDRAM GP60NS60 (revision PE00)
Media type : Pressed CD

Ripper mode : XLD Secure Ripper
Disable audio cache : OK for the drive with a cache less than 1375KiB
Make use of C2 pointers : NO
Read offset correction : 6
Max retry count : 20
Gap status : Analyzed, Appended

TOC of the extracted CD
Track | Start | Length | Start sector | End sector
––––––––––––––––––––––––––––-
1 | 00:00:00 | 04:09:07 | 0 | 18681
2 | 04:09:07 | 04:22:30 | 18682 | 38361
3 | 08:31:37 | 03:36:49 | 38362 | 54610
4 | 12:08:11 | 04:01:15 | 54611 | 72700
5 | 16:09:26 | 03:55:72 | 72701 | 90397
6 | 20:05:23 | 03:16:16 | 90398 | 105113
7 | 23:21:39 | 03:30:11 | 105114 | 120874
8 | 26:51:50 | 04:09:47 | 120875 | 139596
9 | 31:01:22 | 03:27:11 | 139597 | 155132
10 | 34:28:33 | 04:05:34 | 155133 | 173541
11 | 38:33:67 | 04:19:38 | 173542 | 193004

List of alternate offset correction values
# | Absolute | Relative | Confidence
–––––––––––––––––––––
1 | 18 | 12 | 17
2 | -24 | -30 | 6
3 | -30 | -36 | 2

AccurateRip Summary (DiscID: 0011bb24-0098c697-710a0d0b)
Track 01 : OK (v2, confidence 9/34)
Track 02 : OK (v2, confidence 9/34)
Track 03 : OK (v2, confidence 9/34)
Track 04 : OK (v2, confidence 9/34)
Track 05 : OK (v2, confidence 9/34)
Track 06 : OK (v2, confidence 9/34)
Track 07 : OK (v2, confidence 9/34)
Track 08 : OK (v2, confidence 9/34)
Track 09 : OK (v2, confidence 9/34)
Track 10 : OK (v2, confidence 9/34)
Track 11 : OK (v2, confidence 9/32)
->All tracks accurately ripped.

All Tracks
Filename : /Users/mihail/Music/CDs/Otis Taylor - Fantasizing About Being Black.flac
Album gain : -6.50 dB
Peak : 0.979370
CRC32 hash (test run) : F34B2FC1
CRC32 hash : F34B2FC1
CRC32 hash (skip zero) : 7E3E9176
Statistics
Read error : 0
Jitter error (maybe fixed) : 0
Retry sector count : 0
Damaged sector count : 0

Track 01
Pre-gap length : 00:02:00

Track gain : -5.83 dB
Peak : 0.979370
CRC32 hash (test run) : 4DB9E36D
CRC32 hash : 4DB9E36D
CRC32 hash (skip zero) : 70769E94
AccurateRip v1 signature : 355E42E3
AccurateRip v2 signature : ED7127A9
->Accurately ripped (v2, confidence 9/34)
Statistics
Read error : 0
Jitter error (maybe fixed) : 0
Retry sector count : 0
Damaged sector count : 0

Track 02
Pre-gap length : 00:00:32

Track gain : -7.15 dB
Peak : 0.979370
CRC32 hash (test run) : 2A37A22E
CRC32 hash : 2A37A22E
CRC32 hash (skip zero) : 0F2E8570
AccurateRip v1 signature : 878D21B2
AccurateRip v2 signature : B57F7E01
->Accurately ripped (v2, confidence 9/34)
Statistics
Read error : 0
Jitter error (maybe fixed) : 0
Retry sector count : 0
Damaged sector count : 0

Track 03

Track gain : -7.12 dB
Peak : 0.979370
CRC32 hash (test run) : 5CDBEB7F
CRC32 hash : 5CDBEB7F
CRC32 hash (skip zero) : 330D992D
AccurateRip v1 signature : FAF1DA0A
AccurateRip v2 signature : BE32A920
->Accurately ripped (v2, confidence 9/34)
Statistics
Read error : 0
Jitter error (maybe fixed) : 0
Retry sector count : 0
Damaged sector count : 0

Track 04

Track gain : -5.11 dB
Peak : 0.979370
CRC32 hash (test run) : 33534A3C
CRC32 hash : 33534A3C
CRC32 hash (skip zero) : FD04131E
AccurateRip v1 signature : 1A913BC5
AccurateRip v2 signature : 60E5C341
->Accurately ripped (v2, confidence 9/34)
Statistics
Read error : 0
Jitter error (maybe fixed) : 0
Retry sector count : 0
Damaged sector count : 0

Track 05

Track gain : -4.12 dB
Peak : 0.979370
CRC32 hash (test run) : D7103C47
CRC32 hash : D7103C47
CRC32 hash (skip zero) : F06BFCE5
AccurateRip v1 signature : 0AB3D3EC
AccurateRip v2 signature : 6E7764AD
->Accurately ripped (v2, confidence 9/34)
Statistics
Read error : 0
Jitter error (maybe fixed) : 0
Retry sector count : 0
Damaged sector count : 0

Track 06
Pre-gap length : 00:00:69

Track gain : -5.92 dB
Peak : 0.979370
CRC32 hash (test run) : 24A1692F
CRC32 hash : 24A1692F
CRC32 hash (skip zero) : 42CEB7B0
AccurateRip v1 signature : 23AA02AB
AccurateRip v2 signature : C1CD6C76
->Accurately ripped (v2, confidence 9/34)
Statistics
Read error : 0
Jitter error (maybe fixed) : 0
Retry sector count : 0
Damaged sector count : 0

Track 07
Pre-gap length : 00:01:38

Track gain : -5.51 dB
Peak : 0.979370
CRC32 hash (test run) : 27E334A0
CRC32 hash : 27E334A0
CRC32 hash (skip zero) : 8A83FAAA
AccurateRip v1 signature : 0E5662CB
AccurateRip v2 signature : 1F491D4A
->Accurately ripped (v2, confidence 9/34)
Statistics
Read error : 0
Jitter error (maybe fixed) : 0
Retry sector count : 0
Damaged sector count : 0

Track 08
Pre-gap length : 00:00:30

Track gain : -7.65 dB
Peak : 0.979370
CRC32 hash (test run) : 1A9D7EDD
CRC32 hash : 1A9D7EDD
CRC32 hash (skip zero) : 8FE51974
AccurateRip v1 signature : 29039F85
AccurateRip v2 signature : F42BF050
->Accurately ripped (v2, confidence 9/34)
Statistics
Read error : 0
Jitter error (maybe fixed) : 0
Retry sector count : 0
Damaged sector count : 0

Track 09
Pre-gap length : 00:01:10

Track gain : -7.78 dB
Peak : 0.979370
CRC32 hash (test run) : EFFCA556
CRC32 hash : EFFCA556
CRC32 hash (skip zero) : ECDD9B3C
AccurateRip v1 signature : AA95A79D
AccurateRip v2 signature : CB6930E3
->Accurately ripped (v2, confidence 9/34)
Statistics
Read error : 0
Jitter error (maybe fixed) : 0
Retry sector count : 0
Damaged sector count : 0

Track 10
Pre-gap length : 00:01:01

Track gain : -6.31 dB
Peak : 0.979370
CRC32 hash (test run) : FCDA3769
CRC32 hash : FCDA3769
CRC32 hash (skip zero) : 655B06EA
AccurateRip v1 signature : 19583D5D
AccurateRip v2 signature : EF923098
->Accurately ripped (v2, confidence 9/34)
Statistics
Read error : 0
Jitter error (maybe fixed) : 0
Retry sector count : 0
Damaged sector count : 0

Track 11
Pre-gap length : 00:01:70

Track gain : -4.91 dB
Peak : 0.979370
CRC32 hash (test run) : CC704BF1
CRC32 hash : CC704BF1
CRC32 hash (skip zero) : 6FA4E83D
AccurateRip v1 signature : B876A374
AccurateRip v2 signature : DA9DAC4F
->Accurately ripped (v2, confidence 9/32)
Statistics
Read error : 0
Jitter error (maybe fixed) : 0
Retry sector count : 0
Damaged sector count : 0

No errors occurred

End of status report

––-BEGIN XLD SIGNATURE––-
Rkkis_w03XzCoCAxxwapgQKYxWyuyOflRxLTSACR8J8tQzRRJ2pi4a9Ep51t19iK9TWNOSgBT_A6xfU2qt6_YT0GtNTh_awi.k19144
––-END XLD SIGNATURE––-

foobar2000 1.5 / Dynamic Range Meter 1.1.1
log date: 2020-10-31 18:22:42

––––––––––––––––––––––––––––––––––––––––
Analyzed: Otis Taylor / Fantasizing About Being Black
––––––––––––––––––––––––––––––––––––––––

DR Peak RMS Duration Track
––––––––––––––––––––––––––––––––––––––––
DR9 -0.18 dB -10.76 dB 4:09 01-Twelve String Mile
DR8 -0.18 dB -9.33 dB 4:22 02-Walk On Water
DR8 -0.18 dB -9.21 dB 3:37 03-Banjo Bam Bam
DR8 -0.18 dB -9.38 dB 4:01 04-Hands On Your Stomach
DR8 -0.18 dB -9.33 dB 3:56 05-Jump Jelly Belly
DR8 -0.18 dB -10.00 dB 3:16 06-Tripping On This
DR9 -0.18 dB -10.40 dB 3:30 07-D to E Blues
DR8 -0.18 dB -9.21 dB 4:10 08-Jump Out of Line
DR7 -0.18 dB -8.47 dB 3:27 09-Just Want to Live With You
DR9 -0.18 dB -10.12 dB 4:05 10-Roll Down The Hill
DR11 -0.18 dB -13.44 dB 4:20 11-Jump To Mexico
––––––––––––––––––––––––––––––––––––––––

Number of tracks: 11
Official DR value: DR8

Samplerate: 44100 Hz
Channels: 2
Bits per sample: 16
Bitrate: 747 kbps
Codec: FLAC
================================================================================




All thanks to original releaser - squirr

Welcome to my Blog

Password: designol