Tags
Language
Tags

Poison Idea - Feel The Darkness (2CD) (1990) {2018 American Leather}

Posted By:
Poison Idea - Feel The Darkness (2CD) (1990) {2018 American Leather}

Poison Idea - Feel The Darkness (2CD) (1990) {2018 American Leather}
EAC Rip | FLAC with CUE and log | scans | 807 mb
MP3 CBR 320kbps | RAR | 268 mb
Genre: punk rock

Feel The Darkness is 1990 album by Portland, Oregon punk band Poison Idea. Originally released on their own American Leather label, this deluxe edition released in 2018 features the original album as disc one plus as disc two's title indicates, it consists of "singles, B-sides, outtakes, alternate mixes" and a live recording performed on London.

Poison Idea - Feel The Darkness (2CD) (1990) {2018 American Leather}

DISC 1
01. Plastic Bomb
02. Deep Sleep
03. The Badge
04. Just To Get Away
05. Gone For Good
06. Death Of An Idiot Blues
07. Taken By Suprise
08. Alan's On Fire
09. Welcome To Krell
10. Nation Of Finks
11. Back Stab Gospel
12. Painkiller
13. Feel The Darkness
14. Discontent

DISC 2
01. We Got The Beat
02. Discontent
03. Jail House Stomp
04. The Harder They Come
05. Lawdy Miss Clawdy
06. This Is It
07. Plastic Bomb (Alternate Mix)
08. Death Of An Idiot Blues (Thee Idiot Mix)
09. Feel The Darkness (Remix Mix)
10. Crack Smoking Freak
11. Live In London:
Discontent
Getting The Fear
Motorhead
Plastic Bomb
Give It Up
Taken By Surprise
Just To Get Away
Alan's On Fire
Marked For Life
Short Fuse
A.A.
Kick Out The Jams


Exact Audio Copy V1.6 from 23. October 2020

EAC extraction logfile from 9. June 2021, 17:03

Poison Idea / Feel The Darkness (Disc 1)

Used drive : HL-DT-STDVD+-RW GT32N Adapter: 1 ID: 0

Read mode : Burst

Read offset correction : 103
Overread into Lead-In and Lead-Out : No
Fill up missing offset samples with silence : Yes
Delete leading and trailing silent blocks : No
Null samples used in CRC calculations : Yes
Used interface : Native Win32 interface for Win NT & 2000
Gap handling : Appended to previous track

Used output format : Internal WAV Routines
Sample format : 44.100 Hz; 16 Bit; Stereo


TOC of the extracted CD

Track | Start | Length | Start sector | End sector
––––––––––––––––––––––––––––-
1 | 0:00.00 | 3:06.37 | 0 | 13986
2 | 3:06.37 | 2:23.19 | 13987 | 24730
3 | 5:29.56 | 3:33.06 | 24731 | 40711
4 | 9:02.62 | 2:31.74 | 40712 | 52110
5 | 11:34.61 | 1:15.36 | 52111 | 57771
6 | 12:50.22 | 2:51.41 | 57772 | 70637
7 | 15:41.63 | 3:14.59 | 70638 | 85246
8 | 18:56.47 | 3:50.12 | 85247 | 102508
9 | 22:46.59 | 1:55.13 | 102509 | 111146
10 | 24:41.72 | 1:31.64 | 111147 | 118035
11 | 26:13.61 | 1:37.73 | 118036 | 125383
12 | 27:51.59 | 1:44.61 | 125384 | 133244
13 | 29:36.45 | 5:54.49 | 133245 | 159843


Track 1

Filename C:\cuntfist\FLAC\Poison Idea - Feel The Darkness (2CD) (1990) [FLAC] {2018 American Leather}\Disc 1\01 - Plastic Bomb.wav

Pre-gap length 0:00:02.00

Peak level 95.5 %
Extraction speed 4.6 X
Test CRC E6D3E3C6
Copy CRC E6D3E3C6
Accurately ripped (confidence 1) [1B322A69] (AR v2)
Copy OK

Track 2

Filename C:\cuntfist\FLAC\Poison Idea - Feel The Darkness (2CD) (1990) [FLAC] {2018 American Leather}\Disc 1\02 - Deep Sleep.wav

Timing problem 0:01:15

Peak level 96.4 %
Extraction speed 4.5 X
Test CRC 38ABBEFA
Copy CRC 38ABBEFA
Accurately ripped (confidence 1) [73A34E7E] (AR v2)
Copy finished

Track 3

Filename C:\cuntfist\FLAC\Poison Idea - Feel The Darkness (2CD) (1990) [FLAC] {2018 American Leather}\Disc 1\03 - The Badge.wav

Peak level 99.1 %
Extraction speed 5.4 X
Test CRC 5849CD99
Copy CRC 5849CD99
Accurately ripped (confidence 1) [8042A40B] (AR v2)
Copy OK

Track 4

Filename C:\cuntfist\FLAC\Poison Idea - Feel The Darkness (2CD) (1990) [FLAC] {2018 American Leather}\Disc 1\04 - Just To Get Away.wav

Peak level 95.5 %
Extraction speed 5.7 X
Test CRC 2EAC2C1F
Copy CRC 2EAC2C1F
Accurately ripped (confidence 1) [4E8FE82C] (AR v2)
Copy OK

Track 5

Filename C:\cuntfist\FLAC\Poison Idea - Feel The Darkness (2CD) (1990) [FLAC] {2018 American Leather}\Disc 1\05 - Gone For Good.wav

Pre-gap length 0:00:00.01

Peak level 97.6 %
Extraction speed 5.9 X
Test CRC 2DF22030
Copy CRC 2DF22030
Accurately ripped (confidence 1) [F775AE43] (AR v2)
Copy OK

Track 6

Filename C:\cuntfist\FLAC\Poison Idea - Feel The Darkness (2CD) (1990) [FLAC] {2018 American Leather}\Disc 1\06 - Death Of An Idiot Blues.wav

Peak level 99.2 %
Extraction speed 6.2 X
Test CRC DFE8D1C9
Copy CRC DFE8D1C9
Accurately ripped (confidence 1) [D1CDAE2F] (AR v2)
Copy OK

Track 7

Filename C:\cuntfist\FLAC\Poison Idea - Feel The Darkness (2CD) (1990) [FLAC] {2018 American Leather}\Disc 1\07 - Taken By Surprise.wav

Peak level 96.2 %
Extraction speed 6.5 X
Test CRC 2374C66E
Copy CRC 2374C66E
Accurately ripped (confidence 1) [1BC2CAD3] (AR v2)
Copy OK

Track 8

Filename C:\cuntfist\FLAC\Poison Idea - Feel The Darkness (2CD) (1990) [FLAC] {2018 American Leather}\Disc 1\08 - Alan's On Fire.wav

Peak level 97.1 %
Extraction speed 6.8 X
Test CRC 0848E23D
Copy CRC 0848E23D
Accurately ripped (confidence 1) [8F0029EC] (AR v2)
Copy OK

Track 9

Filename C:\cuntfist\FLAC\Poison Idea - Feel The Darkness (2CD) (1990) [FLAC] {2018 American Leather}\Disc 1\09 - Welcome To Krell.wav

Peak level 96.0 %
Extraction speed 7.1 X
Test CRC 864A0D50
Copy CRC 864A0D50
Accurately ripped (confidence 1) [2B75FAC2] (AR v2)
Copy OK

Track 10

Filename C:\cuntfist\FLAC\Poison Idea - Feel The Darkness (2CD) (1990) [FLAC] {2018 American Leather}\Disc 1\10 - Nation Of Finks.wav

Peak level 95.8 %
Extraction speed 7.2 X
Test CRC 2AE39CE5
Copy CRC 2AE39CE5
Accurately ripped (confidence 1) [915AB5A8] (AR v2)
Copy OK

Track 11

Filename C:\cuntfist\FLAC\Poison Idea - Feel The Darkness (2CD) (1990) [FLAC] {2018 American Leather}\Disc 1\11 - Back Stab Gospel.wav

Peak level 95.8 %
Extraction speed 7.4 X
Test CRC 75384BB7
Copy CRC 75384BB7
Accurately ripped (confidence 1) [1868D873] (AR v2)
Copy OK

Track 12

Filename C:\cuntfist\FLAC\Poison Idea - Feel The Darkness (2CD) (1990) [FLAC] {2018 American Leather}\Disc 1\12 - Painkiller.wav

Peak level 96.6 %
Extraction speed 7.5 X
Test CRC C1F42E5B
Copy CRC C1F42E5B
Accurately ripped (confidence 1) [2181F81A] (AR v2)
Copy OK

Track 13

Filename C:\cuntfist\FLAC\Poison Idea - Feel The Darkness (2CD) (1990) [FLAC] {2018 American Leather}\Disc 1\13 - Feel The Darkness.wav

Timing problem 0:02:44

Peak level 99.2 %
Extraction speed 7.7 X
Test CRC 842AA301
Copy CRC 842AA301
Accurately ripped (confidence 1) [DC52009E] (AR v2)
Copy finished


All tracks accurately ripped

No errors occurred

End of status report

–– CUETools DB Plugin V2.1.6

[CTDB TOCID: uQem8iEpRm1V.NGBvjKBxdId34I-] found
Submit result: uQem8iEpRm1V.NGBvjKBxdId34I- has been confirmed
Track | CTDB Status
1 | (7/7) Accurately ripped
2 | (7/7) Accurately ripped
3 | (7/7) Accurately ripped
4 | (7/7) Accurately ripped
5 | (7/7) Accurately ripped
6 | (7/7) Accurately ripped
7 | (7/7) Accurately ripped
8 | (7/7) Accurately ripped
9 | (7/7) Accurately ripped
10 | (7/7) Accurately ripped
11 | (7/7) Accurately ripped
12 | (7/7) Accurately ripped
13 | (7/7) Accurately ripped


==== Log checksum C164113540751558E2F20AC4F7490CD60B48A61AC9953C43F280FB30DB366DBE ====






Exact Audio Copy V1.6 from 23. October 2020

EAC extraction logfile from 9. June 2021, 18:09

Poison Idea / Feel The Darkness (Disc 2)

Used drive : HL-DT-STDVD+-RW GT32N Adapter: 1 ID: 0

Read mode : Burst

Read offset correction : 103
Overread into Lead-In and Lead-Out : No
Fill up missing offset samples with silence : Yes
Delete leading and trailing silent blocks : No
Null samples used in CRC calculations : Yes
Used interface : Native Win32 interface for Win NT & 2000
Gap handling : Not detected, thus appended to previous track

Used output format : Internal WAV Routines
Sample format : 44.100 Hz; 16 Bit; Stereo


TOC of the extracted CD

Track | Start | Length | Start sector | End sector
––––––––––––––––––––––––––––-
1 | 0:00.00 | 2:23.07 | 0 | 10731
2 | 2:23.07 | 3:32.22 | 10732 | 26653
3 | 5:55.29 | 2:51.67 | 26654 | 39545
4 | 8:47.21 | 2:37.55 | 39546 | 51375
5 | 11:25.01 | 2:00.64 | 51376 | 60439
6 | 13:25.65 | 2:02.25 | 60440 | 69614
7 | 15:28.15 | 3:05.69 | 69615 | 83558
8 | 18:34.09 | 3:20.09 | 83559 | 98567
9 | 21:54.18 | 6:01.37 | 98568 | 125679
10 | 27:55.55 | 2:42.33 | 125680 | 137862
11 | 30:38.13 | 40:14.15 | 137863 | 318927


Track 1

Filename C:\cuntfist\FLAC\Poison Idea - Feel The Darkness (2CD) (1990) [FLAC] {2018 American Leather}\Disc 2\01 - We Got The Beat.wav

Peak level 97.8 %
Extraction speed 4.5 X
Test CRC 2D85E6B8
Copy CRC 2D85E6B8
Accurately ripped (confidence 2) [8CF87A80] (AR v2)
Copy OK

Track 2

Filename C:\cuntfist\FLAC\Poison Idea - Feel The Darkness (2CD) (1990) [FLAC] {2018 American Leather}\Disc 2\02 - Discontent.wav

Peak level 95.8 %
Extraction speed 4.9 X
Test CRC 147CAF79
Copy CRC 147CAF79
Accurately ripped (confidence 2) [DFC788A6] (AR v2)
Copy OK

Track 3

Filename C:\cuntfist\FLAC\Poison Idea - Feel The Darkness (2CD) (1990) [FLAC] {2018 American Leather}\Disc 2\03 - Jail House Stomp.wav

Peak level 95.5 %
Extraction speed 5.3 X
Test CRC 44FF23A6
Copy CRC 44FF23A6
Accurately ripped (confidence 2) [31AE286E] (AR v2)
Copy OK

Track 4

Filename C:\cuntfist\FLAC\Poison Idea - Feel The Darkness (2CD) (1990) [FLAC] {2018 American Leather}\Disc 2\04 - The Harder They Come.wav

Timing problem 0:01:01

Peak level 98.6 %
Extraction speed 5.5 X
Test CRC 1B627935
Copy CRC 1B627935
Accurately ripped (confidence 2) [E20CEE3D] (AR v2)
Copy finished

Track 5

Filename C:\cuntfist\FLAC\Poison Idea - Feel The Darkness (2CD) (1990) [FLAC] {2018 American Leather}\Disc 2\05 - Lawdy Miss Clawdy.wav

Peak level 95.7 %
Extraction speed 5.9 X
Test CRC 8E9A295A
Copy CRC 8E9A295A
Accurately ripped (confidence 2) [303E621F] (AR v2)
Copy OK

Track 6

Filename C:\cuntfist\FLAC\Poison Idea - Feel The Darkness (2CD) (1990) [FLAC] {2018 American Leather}\Disc 2\06 - This Is It.wav

Peak level 95.8 %
Extraction speed 6.1 X
Test CRC 516A68C7
Copy CRC 516A68C7
Accurately ripped (confidence 2) [6707240D] (AR v2)
Copy OK

Track 7

Filename C:\cuntfist\FLAC\Poison Idea - Feel The Darkness (2CD) (1990) [FLAC] {2018 American Leather}\Disc 2\07 - Plastic Bomb (Alternate Mix).wav

Peak level 95.0 %
Extraction speed 6.2 X
Test CRC 87F271E3
Copy CRC 87F271E3
Accurately ripped (confidence 2) [104F0ACC] (AR v2)
Copy OK

Track 8

Filename C:\cuntfist\FLAC\Poison Idea - Feel The Darkness (2CD) (1990) [FLAC] {2018 American Leather}\Disc 2\08 - Death Of An Idiot Blues (Thee Idiot Mix).wav

Peak level 95.9 %
Extraction speed 6.5 X
Test CRC 07FB33A0
Copy CRC 07FB33A0
Accurately ripped (confidence 2) [4991DCC9] (AR v2)
Copy OK

Track 9

Filename C:\cuntfist\FLAC\Poison Idea - Feel The Darkness (2CD) (1990) [FLAC] {2018 American Leather}\Disc 2\09 - Feel The Darkness (Remix Mix).wav

Timing problem 0:03:44
Timing problem 0:03:46

Peak level 98.5 %
Extraction speed 6.8 X
Test CRC 396A05ED
Copy CRC 396A05ED
Accurately ripped (confidence 2) [60580DAB] (AR v2)
Copy finished

Track 10

Filename C:\cuntfist\FLAC\Poison Idea - Feel The Darkness (2CD) (1990) [FLAC] {2018 American Leather}\Disc 2\10 - Crack Smoking Freak.wav

Timing problem 0:00:21

Peak level 95.7 %
Extraction speed 7.0 X
Test CRC C4BBDBD0
Copy CRC C4BBDBD0
Accurately ripped (confidence 2) [41DD53A5] (AR v2)
Copy finished

Track 11

Filename C:\cuntfist\FLAC\Poison Idea - Feel The Darkness (2CD) (1990) [FLAC] {2018 American Leather}\Disc 2\11 - Live In London.wav

Peak level 94.4 %
Extraction speed 8.6 X
Test CRC D0B2E617
Copy CRC D0B2E617
Accurately ripped (confidence 2) [5C161A2F] (AR v2)
Copy OK


All tracks accurately ripped

No errors occurred

End of status report

–– CUETools DB Plugin V2.1.6

[CTDB TOCID: CrLMxNZmX.MsNjQtV_SOYJ6iilI-] found
Submit result: CrLMxNZmX.MsNjQtV_SOYJ6iilI- has been confirmed
Track | CTDB Status
1 | (6/6) Accurately ripped
2 | (6/6) Accurately ripped
3 | (6/6) Accurately ripped
4 | (6/6) Accurately ripped
5 | (6/6) Accurately ripped
6 | (6/6) Accurately ripped
7 | (6/6) Accurately ripped
8 | (6/6) Accurately ripped
9 | (6/6) Accurately ripped
10 | (6/6) Accurately ripped
11 | (6/6) Accurately ripped


==== Log checksum 6D5681ED9414E0A7F5A574CF18807A71AB94B8854487DC575E8781F6D286C990 ====


Poison Idea - Feel The Darkness (2CD) (1990) {2018 American Leather}