Subcategories
Tags
Language
Tags

Passion: Sacred Masterpieces: Schütz, Bach, Purcell, Handel, Telemann, Pergolesi, Haydn [15CDs] (2010)

Posted By: ArlegZ
Passion: Sacred Masterpieces: Schütz, Bach, Purcell, Handel, Telemann, Pergolesi, Haydn [15CDs] (2010)

Passion: Sacred Masterpieces: Schütz, Bach, Purcell, Handel, Telemann, Pergolesi, Haydn [15CDs] (2010)
EAC | FLAC | Image (Cue & Log) ~ 3.86 Gb | Total time: 15:10:08 | Scans included
Classical | Label: Brilliant Classics | # 94032 | Recorded: 1994-2002

A stunning collection of some of the greatest sacred music ever written. From the great Lamentations of Byrd, Tallis and Palestrina, the listener is taken on a remarkable spiritual journey through Bach’s great St Matthew Passion, Purcell’s moving and bleak funeral music for Queen Mary, and Handel radiant Messiah. Pergolesi’s masterful setting of the Stabat Mater and Telemann’s Passions-Oratorium are also to be found here, along with Haydn’s Stabat Mater and his dark and intense masterpiece Die sieben letzen Worte, or The Seven Last Words of our Saviour from the Cross. Finally, Allegri’s hauntingly beautiful Miserere opens this collection – a work that was copied from memory after one hearing by the child Mozart. Prior to that moment the work had only been heard in the Vatican.

Contents:
CD 01: Lamentations: Allegri, Byrd, Josquin, Palestrina, Tallis (Timothy Brown)
CD 02: Schütz: Matthäus-Passion (Cappella Augustana, Matteo Messori)
CD 03-05: J.S. Bach: Matthäus-Passion (Stephen Cleobury)
CD 06-07: J.S. Bach: Johannes-Passion (Stephen Cleobury)
CD 08: Purcell: Sacred Music (Timothy Brown)
CD 09-10: Handel: Messiah (Stephen Cleobury)
CD 11-12: Telemann: Passions-Oratorium (Wolfgang Schafer)
CD 13: Pergolesi: Stabat Mater, Salve Regina (Timothy Brown)
CD 14: Haydn: Stabat Mater (Frieder Bernius)
CD 15: Haydn: Die sieben letzten Worte (Nicol Matt)


CD1:
Lamentations
01. Giovanni Pierluigi da Palestrina: Stabat Mater
02. Gregorio Allegri: Miserere
03. Robert Ramsey: How are the mighty fallen
04. Thomas Weelkes: When David heard
05. Thomas Tallis: Lamentations
06. Tomás Luis de Victoria: O vos omnes
07. Josquin Des Prez: Déploration sur la mort d’Ockeghem
08. Carlo Gesualdo: O vos omnes
09. Giovanni Pierluigi da Palestrina: Super flumina Babylonis
10. Josquin Des Prez: Absalon fili mi
11. William Byrd: Civitas sancti tui
12. Thomas Tomkins: When David heard
13. George Kirbye: Vox in Rama
CD2:
Heinrich Schütz: Matthäus-Passion, SWV479
01. Introitus
02. Der Beschluss des Hohen Rates
03. Die Salbung in Betanien
04. Der Verrat durch Judas
05. Die Vorbereitung des Paschamahls
06. Das Mahl
07. Der Gang zum Ölberg
08. Das Gebet in Getsemani
09. Die Gefangennahme
10. Das Verhör vor dem Hohen Rat
11. Die Verleugnung durch Petrus
12. Die Auslieferung an Pilatus
13. Das Ende des Judas
14. Die Verhandlung vor Pilatus
15. Die Verspottung Jesu durch die Soldaten
16. Die Kreuzigung
17. Der Tod Jesu
18. Das Begräbnis Jesu
19. Die Bewachung des Grabes
20. Beschluss
21. Dialogo per la Pascua, SWV443 Weib,was weinest du?
CD3:
Johann Sebastian Bach: Matthäus-Passion, BWV244
01. 1. Chorus with Chorale: Kommt, Ihr Töchter, Helft Mir Klagen
02. 2. Recitative (Evangelist, Jesus): Da Jesus Diese Rede Vollendet Hatte
03. 3. Chorale: Herzliebster Jesu, Was Hast Du Verbrochen
04. 4a. Recitative (Evangelist): Da Versammelten Sich Die Hohenpriester
05. 4b. Chorus: Ja Nicht Auf Das Fest
06. 4c. Recitative (Evangelist): Da Nun Jesus War Zu Bethanien
07. 4d. Chorus: Wozu Dienet Dieser Unrat?
08. 4e. Recitative (Evangelist, Jesus): Da Das Jesus Merkete
09. 5. Recitative (Alto): Du Lieber Heiland Du
10. 6. Aria (Alto): Buß Und Reu
11. 7. Recitative (Evangelist, Judas): Da Ging Hin Der Zwölfen Einer
12. 8. Aria (Soprano): Blute Nur, Du Liebes Herz!
13. 9a. Recitative (Evangelist): Aber Am Ersten Tage Der Süßen Brot
14. 9b. Chorus: Wo Willst Du, Daß Wir Dir Bereiten
15. 9c. Recitative (Evangelist, Jesus): Er Sprach: Gehet Hin In Die Stadt
16. 9d. Recitative (Evangelist): Und Sie Wurden Sehr Betrübt
17. 9e. Chorus: Herr, Bin Ich's?
18. 10. Chorale: Ich Bin's, Ich Sollte Büßen
19. 11. Recitative (Evangelist, Jesus, Judas): Er Antwortete Und Sprach
20. 12. Recitative (Soprano): Wiewohl Mein Herz In Tränen Schwimmt
21. 13. Aria (Soprano): Ich Will Dir Mein Herze Schenken
22. 14. Recitative (Evangelist, Jesus): Und Da Sie Den Lobgesang Gesprochen Hatten
23. 15. Chorale: Erkenne Mich, Mein Hüter
24. 16. Recitative (Evangelist, Peter, Jesus): Petrus Aber Antwortete Und Sprach Zu Ihm
25. 17. Chorale: Ich Will Hier Bei Dir Stehen
26. 18. Recitative (Evangelist, Jesus): Da Kam Jesus Mit Ihnen Zu Einem Hofe
27. 19. Recitative (Tenor & Chorale): O Schmerz! Hier Zittert Das Gequälte Herz
28. 20. Aria (Tenor & Chorus): Ich Will Bei Meinem Jesu Wachen
29. 21. Recitative (Evangelist, Jesus): Und Ging Hin Ein Wenig
30.Johann Sebastian Bach: Matthäus-Passion, BWV244: 22. Recitative (Bass): Der Heiland Fällt Vor Seinem Vater Nieder
31. 23. Aria (Bass): Gerne Will Ich Mich Bequemen
32. 24. Recitative (Evangelist, Jesus): Und Er Kam Zu Seinen Jüngern
33. 25. Chorale: Was Mein Gott Will, Das G'scheh Allzeit
34. 26. Recitative (Evangelist, Jesus, Judas): Und Er Kam Und Fand Sie Aber Schlafend
35. 27a. Aria (Soprano, Alto & Chorus): So Ist Mein Jesus Nun Gefangen
36. 27b. Chorus: Sind Blitze, Sind Donner In Wolken Verschwunden?
37. 28. Recitative (Evangelist, Jesus): Und Siehe, Einer Aus Denen
38. 29. Chorale: O Mensch, Bewein Dein’ Sünde Groß
CD4:
01. 30. Aria (Alto & Chorus): Ach! Nun Ist Mein Jesus Hin!
02. 31. Recitative (Evangelist): Die Aber Jesum Gegriffen Hatten
03. 32. Chorale: Mir Hat Die Welt Trüglich Gericht'
04. 33. Recitative (Evangelist, Witnesses, High Priest): Und Wiewohl Viel Falsche Zeugen Herzutraten
05. 34. Recitative (Tenor): Mein Jesus Schweigt Zu Falschen Lügen stille
06. 35. Aria (Tenor): Geduld!
07. 36a. Recitative (Evangelist, High Priest, Jesus): Und Der Hohepriester Antwortete Und Sprach Zu Ihm
08. 36b. Chorus: Er Is Des Todes Schuldig!
09. 36c. Recitative (Evangelist): Da Speieten Sie Aus
10. 36d. Chorus: Weissage Uns, Christe
11. 37. Chorale: Wer Hat Dich So Geschlagen
12. 38a. Recitative (Evangelist, Maids, Peter): Petrus Aber Saß Draußen Im Palast
13. 38b. Chorus: Wahrlich, Du Bist Auch Einer Von Denen
14. 38c. Recitative (Evangelist, Peter): Da Hub Er An, Sich Zu Verfluchen
15. 39. Aria (Alto): Erbarme Dich
16. 40. Chorale: Bin Ich Gleich Von Dir Gewichen
17. 41a. Recitative (Evangelist, Judas): Des Morgens Aber Hielten Alle Hohepriester
18. 41b. Chorus: Was Gehet Uns Das An?
19. 41c. Recitative (Evangelist, High Priest): Und Er Warf Die Silberlinge In Den Tempel
20. 42. Aria (Bass): Geht Mir Meinen Jesum wieder!
21. 43. Recitative (Evangelist, Pilate, Jesus): Sie Hielten Aber Einen Rat
22. 44. Chorale: Befiehl Du Deine Wege
23. 45a. Recitative (Evangelist, Pilate, Pilate's wife, Chorus): Auf Das Fest Aber Hatte Der Landpfleger Gewohnheit
24. 45b. Chorus: Laß Ihn Kreuzigen!
25. 46. Chorale: Wie Wunderbarlich Ist Doch Diese Strafe!
26. 47. Recitative (Evangelist, Pilate): Der Landpfleger Sagte
27. 48. Recitative (Soprano): Er Hat Uns Allen Wohlgetan
28. 49. Aria (Soprano): Aus Liebe Will Mein Heiland Sterben
CD5:
01. 50a. Recitative (Evangelist): Sie Schrieen Aber Noch Mehr
02. 50b. Chorus: Laß Ihn Kreuzigen!
03. 50c. Recitative (Evangelist, Pilate): Da Aber Pilatus Sahe
04. 50d. Chorus: Sein Blut Komme Über Uns
05. 50e. Recitative (Evangelist): Da Gab Er Ihnen Barrabam Los
06. 51. Recitative (Alto): Erbarm Es Gott!
07. 52. Aria (Alto): Können Tränen Meiner Wangen
08. 53a. Recitative (Evangelist): Da Namen Die Kriegsknechte
09. 53b. Chorus: Gegrüßet Seist Du, Jüdenkönig!
10. 53c. Recitative (Evangelist): Und Speieten Ihn An
11. 54. Chorale: O Haupt Voll Blut Und Wunden
12. 55. Recitative (Evangelist): Und Da Sie Ihn Verspottet Hatten
13. 56. Recitative (Bass): Ja Freilich Will In Uns Das Fleisch Und Blut
14. 57. Aria (Bass): Komm, Süßes Kreuz, So Will Ich Sagen
15. 58a. Recitative (Evangelist): Und Da Sie An Die Stätte Kamen
16. 58b. Chorus: Der Du Den Tempel Gottes Zerbricht
17. 58c. Recitative (Evangelist): Desgleichen Auch Die Hohenpriester
18. 58d. Chorus: Andern Hat Er Geholfen
19. 58e. Recitative (Evangelist): Desgleichen Schmäheten Ihn Auch Die Mörder
20. 59. Recitative (Alto): Ach Golgatha!
21. 60. Aria (Alto & Chorus): Sehet, Jesus Hat Die Hand
22. 61a. Recitative (Evangelist, Jesus): Und Von Der Sechsten Stunde An
23. 61b. Chorus: Der Rufet Dem Elias!
24. 61c. Recitative (Evangelist): Und Bald Lief Einer Unter Ihnen
25. 61d. Chorus: Halt! Laß Sehen
26. 61e. Recitative (Evangelist): Aber Jesus Schrie Abermal Laut
27. 62. Chorale: Wenn Ich Einmal Soll Scheiden
28. 63a. Recitative (Evangelist): Und Siehe Da, Der Vorhang Im Tempel Zerriß
29. 63b. Chorus: Wahrlich, Dieser Ist Gottes Sohn Gewesen
30. 63c. Recitative (Evangelist): Und Es Waren Viel Weiber Da
31. 64. Recitative (Bass): Am Abend, Da Es Kühle War
32. 65. Aria (Bass): Mache Dich, Mein Herze, Rein
33. 66a. Recitative (Evangelist): Und Joseph Nahm Den Leib
34. 66b. Chorus: Herr, Wir Haben Gedacht
35. 66c. Recitative (Evangelist, Pilate): Pilatus Sprach Zu Ihnen
36. 67. Recitative (Bass, Tenor, Alto, Soprano, Chorus): Nun Ist Der Herr Zur Ruh Gebracht
37. 68. Chorus: Wir Setzen Uns Mit Tränen Nieder
CD6:
Johann Sebastian Bach: Johannes-Passion, BWV245
01. Chorus: Herr, unser Herrscher
02. Recitative: Jesus ging mit seinen Jüngern
03. Chorale: O große Lieb
04. Recitative: Auf daß das Wort erfüllet wurde
05. Chorale: Dein Will gescheh, Herr Gott, zugleich
06. Recitative: Die Schar aber und der Oberhauptmann
07. Aria (Alto): Von der Stricken meiner Sünden
08. Recitative: Simon Petrus aber folgete Jesu nach
09. Aria (Soprano): Ich folge dir gleichfalls mit freudigen Schritten
10. Recitative: Derselbige Jünger war dem Hohenpriester bekannt
11. Chorale: Wer hat dich so geschlagen
12. Recitative: Und Hannas sandte ihn gebunden
13. Aria (Tenor): Ach, mein Sinn
14. Chorale: Petrus, der nicht denkt zurück
15. Chorale: Christus, der uns selig macht
16. Recitative: Da führeten sie Jesum
17. Chorale: Ach großer König
18. Recitative: Da sprach Pilatus zu ihm
19. Arioso (Bass): Betrachte, meine Seele
20. Aria (Tenor): Erwäge, wie sein blutgefärbter Rücken
21. Recitative: Und die Kriegsknechte flochten eine Krone
22. Chorus: Durch dein Gefängnis, Gottes Sohn
23. Recitative: Die Juden aber schrieen und sprachen
24. Aria (Bass): Eilt, ihr angefochtnen Seelen
25. Recitative: Allda kreuzigten sie ihn
26. Chorale: In meines Herzens Grunde
CD7:
01. Recitative: Die Kriegsknechte aber
02. Chorale: Er nahm alles wohl in acht
03. Recitative: Und von Stund an nahm sie der Jünger
04. Aria (Alto): Es ist vollbracht!
05. Recitative: Und neiget das Haupt und verschied
06. Aria (Bass): Mein teurer Heiland, laß dich fragen
07. Recitative: Und siehe da, der Vorhang im Tempel zerriß
08. Arioso (Tenor): Mein Herz, in dem die ganze Welt
09. Aria (Soprano): Zerfließe, mein Herze
10. Recitative: Die Juden aber, dieweil es der Rüsttag war
11. Chorale: O hilf, Christe, Gottes Sohn
12. Recitative: Darnach bat Pilatum Joseph von Arimathia
13. Chorus: Ruht wohl, ihr heiligen Gebeine
14. Chorale: Ach Herr, laß dein lieb Engelein
Johannes-Passion (1725 Version), Appendix
15. Chorale: O Mensch, bewein dein Sünde groß
16. Aria (Bass): Himmel reiße, Welt erbebe
17. Aria (Tenor): Zerschmettert mich
18. Aria (Tenor): Ach windet euch nicht so
19. Chorale: Christe, du Lamm Gottes
CD8:
Henry Purcell: Sacred Music
01. Te Deum
02. Jubilate Deo
03. My Beloved Spake
04. O God,Thou art my God
05. Lord, how long wilt Thou be angry
06. Remember not, Lord, our offences
07. Hear my prayer, O Lord
Funeral Sentences for Queen Mary
08. Funeral March
09. Man, that is born of a woman
10. In the midst of life
11. Canzona
12. Thou knowest, Lord
13. Funeral March
CD9:
Georg Frideric Handel: Messiah, HWV. 56
01. Sinfonia (Ouverture)
02. Recitative (Tenor): Comfort ye my people
03. Air (Tenor): Ev'ry valley shall be exalted
04. Chorus: And the glory of the Lord shall be revealed
05. Recitative (Bass): Thus said the Lord of Hosts
06. Air (Alto): But who may abide
07. Chorus: And He shall purify
08. Recitative (Alto): Behold, a virgin shall conceive
09. Air (Alto & Chorus): O thou that tellest
10. Recitative (Bass): For behold, darkness shall cover the earth
11. Air (Bass): The people that walked in darkness
12. Chorus: For unto us a Child is born
13. Pifa (Pastoral Symphony)
14. Recitative (Soprano): There were shepherds
15. Recitative (Soprano): And the angel said unto them
16. Recitative (Soprano): And suddenly there was with the angel
17. Chorus: Glory to God in the highest
18. Air (Soprano): Rejoice greatly, O daughter of Zion
19. Recitative (Alto): Then shall the eyes of the blind
20. Duet (Alto & Soprano): He shall feed His flock
21. Chorus: His yoke is easy
22. Chorus: Behold, the Lamb of God
23. Air (Tenor): He was despised and rejected of men
CD10:
01. Chorus: Surely He hath borne our griefs
02. Chorus: And with His stripes we are healed
03. Chorus: All we like sheep have gone astray
04. Recitative (Tenor): All they that see Him
05. Chorus: He trusted in God
06. Recitative (Tenor): Thy rebuke hath broken His heart
07. Air (Tenor): Behold, and see if there be any sorrow
08. Recitative (Tenor): He was cut off out of the land
09. Air (Soprano): But Thou didst not leave
10. Chorus: Lift up your heads
11. Recitative (Tenor): Unto which of the angels
12. Chorus: Let all the angels of God worship Him
13. Air (Alto): Thou art gone up on high
14. Chorus: The Lord gave the word
15. Air(Soprano): How beautiful are the feet
16. Chorus: Their sound is gone out
17. Air (Bass): Why do the nations?
18. Chorus: Let us break their bonds asunder
19. Recitative (Tenor): He that dwelleth in heaven
20. Air (Tenor): Thou shalt break them
21. Chorus: Hallelujah!
22. Air (Soprano): I know that my Redeemer
23. Chorus: Since by man came death
24. Recitative (Bass): Behold, I tell you a mystery
25. Air (Bass): The trumpet shall sound
26. Recitative (Alto): Then shall be brought to pass
27. Duet (Alto & Tenor): O death, where is thy sting?
28. Chorus: But thanks be to God
29. Air (Soprano): If God be for us
30. Chorus: Worthy is the Lamb… Amen
CD11:
Georg Philipp Telemann: Passions-Oratorium
01. Sonata
02. Choral: Schmücke dich
03. Aria Jesus: Gute Nacht, ihr meine Lieben
04. Recitativo Jesus: Doch, dass ihr möget
05. Aria Die Andacht: Sollt ich deiner wohl vergessen
06. Recitativo Jesus: Ich will euch noch
07. Choral: Dein Blut der edle Saft
08. Recitativo Die Andacht: Gottlob, es ist das Alte nun vergangen
09. Aria Die Andacht: Sollt ich deiner nicht gedenken
10. Recitativo Jesus: Nun werd ich bald erfahren
11. Aria Petrus: Foltern, foltern
12. Recitativo Jesus: Es wird der Hahn
13. Aria Petrus: Foltern, foltern
14. Recitativo Die Andacht: Ach Petre
15. Aria Die Andacht: Denke nach
16. Choral: Gott gross über alle Götter
17. Aria Jesus: Vater, Vater
18. Accompagnato Die Andacht: O Anblick
19. Aria Die Andacht: Ihr blut’gen Schweissrubinen
20. Choral: Tritt her
21. Aria Caiphas: Recht und Gerechtigkeit
22. Rectativo Caiphas/Jesus: Gefangener, was hören wir
23. Aria Jesus: Wenn die Gerichtsposaune
24. Recitativo Caiphas: Wie, dass doch Gott
25. Aria Die Andacht: Menschemhände, Menschenlippen tun
26. Recitativo Die Andacht: Doch denke nach
27. Choral: Du edles Angesichte
CD12:
01. Accompagnato Petrus: Ach, ach, was hab ich
02. Aria Petrus: Mir ist die ganze Welt
03. Accompagnato Petrus: Ach, könnt ich doch
04. Aria Der Glaube: Tränen, die der Glaube
05. Choral: Straf mich nicht
06. Recitativo Die Andacht: So rufet ihr
07. Aria Die Andacht: Droht der Satan
08. Recitativo Die Andacht: Wen seh ich dort
09. Aria Die Andacht: Ich treff auf deinen blut’gen Rücken
10. Choral: O Haupt, voll Blut
11. Recitativo Jesus: Nun schliess ich bald
12. Aria Jesus: Ich will kämpfen
13. Recitativo Die Andacht: So wirst du Lebensbaum
14. Aria Die Andacht: Jese wird ans Holz geschlagen
15. Choral: Jesus unter deinem Kreuz
16. Aria Jesus: Es ist vollbracht
17. Choral: O grosse Gott
18. Recitativo Zion: Ihr Gottesmörder
19. Aria Zion: Erstaunet
20. Choral: Nun gibt mein Jesus
21. Aria Die Andacht: Jesus spannt die Gnadenflügel
22. Recitativo Die Andacht: Nun endlich hat mein Jesus
23. Choral: Erscheine mir zum Schilde
CD13:
Giovanni Battista Pergolesi
Stabat Mater
01. Stabat Mater dolorosa
02. Cujus animam gememtem
03. O quam tristis et afflicta
04. Quae moerabat et dolebat
05. Quis est homo qui non fleret
06. Vidit suum dulcem natum
07. Eia Mater, fons amoris
08. Fac, ut ardeat cor meum
09. Sancta Mater, istud agas
10. Fac, ut portem Christi mortem
11. Inflammatus et accensus
12. Quando corpus morietur
Salve Regina
13. Salve Regina
14. Ad te clamamus
15. Eia ergo, advocata nostra
16. Et Jesum
17. O clemens, o pia
CD14:
Franz Joseph Haydn: Stabat Mater Hob. XX:bis
01. Stabat Mater dolorosa
02. O quam tristis et afflicta
03. Quis est homo qui non fleret
04. Quis non posset
05. Pro peccatis suae gentis
06. Vidit suum dulcem natum
07. Eia Mater, fons amoris
08. Sancta Mater, istud agas
09. Fac me verum tecum flere
10. Virgo virginum preclara
11. Flammis arci ne succendor
12. Fac me cruce custodiri
13. Quando corpus morietur
14. Paradisi gloria
CD15
Franz Joseph Haydn: Die sieben letzten Worte, Oratorio version
01. Introduzione I
02. Vater, vergib Ihnen, denn sie wissen nicht was sie tun
03. Fürwahr, ich sag'es dir
04. Frau, hier siehe deinen Sohn
05. Mein Gott, mein Gott, warum hast du mich verlassen?
06. Introduzione II
07. Jesus rufet: Ach, mich dürstet!
08. Es ist vollbracht!
09. Vater, in deine Hände empfehle ich meinen Geist
10. Il Terremoto (Das Erdbeben)



Exact Audio Copy V1.5 from 20. February 2020

EAC extraction logfile from 13. March 2021, 16:03

Timothy Brown / Passion. Sacred Masterpieces (Disc 1) Lamentations

Used drive : ATAPI iHAS124 F Adapter: 1 ID: 0

Read mode : Secure
Utilize accurate stream : Yes
Defeat audio cache : Yes
Make use of C2 pointers : No

Read offset correction : 6
Overread into Lead-In and Lead-Out : No
Fill up missing offset samples with silence : Yes
Delete leading and trailing silent blocks : No
Null samples used in CRC calculations : Yes
Used interface : Native Win32 interface for Win NT & 2000

Used output format : User Defined Encoder
Selected bitrate : 1024 kBit/s
Quality : High
Add ID3 tag : No
Command line compressor : C:\Program Files (x86)\Exact Audio Copy\FLAC\FLAC.EXE
Additional command line options : -6 -V -T "ARTIST=%artist%" -T "TITLE=%title%" -T "ALBUM=%albumtitle%" -T "DATE=%year%" -T "TRACKNUMBER=%tracknr%" -T "GENRE=%genre%" -T "COMMENT=%comment%" -T "BAND=%albuminterpret%" -T "ALBUMARTIST=%albuminterpret%" -T "COMPOSER=%composer%" %haslyrics%–tag-from-file=LYRICS="%lyricsfile%"%haslyrics% -T "DISCNUMBER=%cdnumber%" -T "TOTALDISCS=%totalcds%" -T "TOTALTRACKS=%numtracks%" %hascover%–picture="%coverfile%"%hascover% %source% -o %dest%


TOC of the extracted CD

Track | Start | Length | Start sector | End sector
––––––––––––––––––––––––––––-
1 | 0:00.00 | 11:20.41 | 0 | 51040
2 | 11:20.41 | 12:44.67 | 51041 | 108407
3 | 24:05.33 | 7:39.65 | 108408 | 142897
4 | 31:45.23 | 4:27.63 | 142898 | 162985
5 | 36:13.11 | 7:27.41 | 162986 | 196551
6 | 43:40.52 | 2:27.20 | 196552 | 207596
7 | 46:07.72 | 4:35.30 | 207597 | 228251
8 | 50:43.27 | 2:55.45 | 228252 | 241421
9 | 53:38.72 | 3:48.61 | 241422 | 258582
10 | 57:27.58 | 3:51.63 | 258583 | 275970
11 | 61:19.46 | 4:18.61 | 275971 | 295381
12 | 65:38.32 | 4:38.53 | 295382 | 316284
13 | 70:17.10 | 4:27.72 | 316285 | 336381


Range status and errors

Selected range

Filename C:\EACRip\PASSION. Sacred Masterpieces (15CDs, Brilliant Classics) [2010]\CD 01 - Lamentations\Passion. Sacred Masterpieces (Disc 1) Lamentations - Choir of Clare College Cambridge, Timothy Brown.wav

Peak level 91.6 %
Extraction speed 9.3 X
Range quality 100.0 %
Test CRC 7EE0CF3B
Copy CRC 7EE0CF3B
Copy OK

No errors occurred


AccurateRip summary

Track 1 accurately ripped (confidence 10) [77E79442] (AR v2)
Track 2 accurately ripped (confidence 10) [BB302A2F] (AR v2)
Track 3 accurately ripped (confidence 10) [15A9B525] (AR v2)
Track 4 accurately ripped (confidence 10) [F2730943] (AR v2)
Track 5 accurately ripped (confidence 10) [22EE1B59] (AR v2)
Track 6 accurately ripped (confidence 10) [3C210545] (AR v2)
Track 7 accurately ripped (confidence 10) [7096DA6E] (AR v2)
Track 8 accurately ripped (confidence 10) [F7CF38F7] (AR v2)
Track 9 accurately ripped (confidence 10) [7073FE0A] (AR v2)
Track 10 accurately ripped (confidence 10) [AE171942] (AR v2)
Track 11 accurately ripped (confidence 10) [12A2F1D1] (AR v2)
Track 12 accurately ripped (confidence 9) [F2E86657] (AR v2)
Track 13 accurately ripped (confidence 9) [A951FC43] (AR v2)

All tracks accurately ripped

End of status report

–– CUETools DB Plugin V2.1.6

[CTDB TOCID: ZrV.MfsNvqDq.ztyqbTeNXhgZIQ-] found
Submit result: ZrV.MfsNvqDq.ztyqbTeNXhgZIQ- has been confirmed
Track | CTDB Status
1 | (31/33) Accurately ripped
2 | (32/33) Accurately ripped
3 | (33/33) Accurately ripped
4 | (33/33) Accurately ripped
5 | (33/33) Accurately ripped
6 | (33/33) Accurately ripped
7 | (33/33) Accurately ripped
8 | (33/33) Accurately ripped
9 | (33/33) Accurately ripped
10 | (33/33) Accurately ripped
11 | (33/33) Accurately ripped
12 | (33/33) Accurately ripped
13 | (33/33) Accurately ripped


==== Log checksum A17E743D3A23FC01125E77F67F2FBA2B7C48402FDFBE00EC1B7F9F7EBCA1CF23 ====


Exact Audio Copy V1.5 from 20. February 2020

EAC extraction logfile from 13. March 2021, 16:40

Gerd Türk, Bas Ramselaar / Passion. Sacred Masterpieces (Disc 2) Schütz - Matthäus-Passion

Used drive : ATAPI iHAS124 F Adapter: 1 ID: 0

Read mode : Secure
Utilize accurate stream : Yes
Defeat audio cache : Yes
Make use of C2 pointers : No

Read offset correction : 6
Overread into Lead-In and Lead-Out : No
Fill up missing offset samples with silence : Yes
Delete leading and trailing silent blocks : No
Null samples used in CRC calculations : Yes
Used interface : Native Win32 interface for Win NT & 2000

Used output format : User Defined Encoder
Selected bitrate : 1024 kBit/s
Quality : High
Add ID3 tag : No
Command line compressor : C:\Program Files (x86)\Exact Audio Copy\FLAC\FLAC.EXE
Additional command line options : -6 -V -T "ARTIST=%artist%" -T "TITLE=%title%" -T "ALBUM=%albumtitle%" -T "DATE=%year%" -T "TRACKNUMBER=%tracknr%" -T "GENRE=%genre%" -T "COMMENT=%comment%" -T "BAND=%albuminterpret%" -T "ALBUMARTIST=%albuminterpret%" -T "COMPOSER=%composer%" %haslyrics%–tag-from-file=LYRICS="%lyricsfile%"%haslyrics% -T "DISCNUMBER=%cdnumber%" -T "TOTALDISCS=%totalcds%" -T "TOTALTRACKS=%numtracks%" %hascover%–picture="%coverfile%"%hascover% %source% -o %dest%


TOC of the extracted CD

Track | Start | Length | Start sector | End sector
––––––––––––––––––––––––––––-
1 | 0:00.00 | 0:52.73 | 0 | 3972
2 | 0:52.73 | 1:39.27 | 3973 | 11424
3 | 2:32.25 | 2:40.06 | 11425 | 23430
4 | 5:12.31 | 0:41.71 | 23431 | 26576
5 | 5:54.27 | 1:25.17 | 26577 | 32968
6 | 7:19.44 | 3:56.11 | 32969 | 50679
7 | 11:15.55 | 2:07.25 | 50680 | 60229
8 | 13:23.05 | 4:18.65 | 60230 | 79644
9 | 17:41.70 | 3:44.55 | 79645 | 96499
10 | 21:26.50 | 4:31.44 | 96500 | 116868
11 | 25:58.19 | 2:39.04 | 116869 | 128797
12 | 28:37.23 | 0:33.07 | 128798 | 131279
13 | 29:10.30 | 2:50.68 | 131280 | 144097
14 | 32:01.23 | 5:54.39 | 144098 | 170686
15 | 37:55.62 | 1:49.38 | 170687 | 178899
16 | 39:45.25 | 4:44.67 | 178900 | 200266
17 | 44:30.17 | 5:37.67 | 200267 | 225608
18 | 50:08.09 | 1:26.10 | 225609 | 232068
19 | 51:34.19 | 2:21.61 | 232069 | 242704
20 | 53:56.05 | 2:13.68 | 242705 | 252747
21 | 56:09.73 | 4:24.02 | 252748 | 272549


Range status and errors

Selected range

Filename C:\EACRip\PASSION. Sacred Masterpieces (15CDs, Brilliant Classics) [2010]\CD 02 - Schutz (Matthaus)\Passion. Sacred Masterpieces (Disc 2) Schutz - Matthaus-Passion - Cappella Augustana, Matteo Messori.wav

Peak level 100.0 %
Extraction speed 5.9 X
Range quality 100.0 %
Test CRC 8C93B6B1
Copy CRC 8C93B6B1
Copy OK

No errors occurred


AccurateRip summary

Track 1 accurately ripped (confidence 2) [6F0EAE91] (AR v2)
Track 2 accurately ripped (confidence 2) [DE9609CD] (AR v2)
Track 3 accurately ripped (confidence 2) [4223058A] (AR v2)
Track 4 accurately ripped (confidence 2) [BB886A42] (AR v2)
Track 5 accurately ripped (confidence 2) [A339FF31] (AR v2)
Track 6 accurately ripped (confidence 2) [20D6B79D] (AR v2)
Track 7 accurately ripped (confidence 2) [4C5A02A0] (AR v2)
Track 8 accurately ripped (confidence 2) [0556C505] (AR v2)
Track 9 accurately ripped (confidence 2) [3FDDD21A] (AR v2)
Track 10 accurately ripped (confidence 2) [B3AECC3E] (AR v2)
Track 11 accurately ripped (confidence 2) [F82E6AE1] (AR v2)
Track 12 accurately ripped (confidence 2) [B2F70D7D] (AR v2)
Track 13 accurately ripped (confidence 2) [E9300350] (AR v2)
Track 14 accurately ripped (confidence 2) [00F62BF7] (AR v2)
Track 15 accurately ripped (confidence 2) [E8150837] (AR v2)
Track 16 accurately ripped (confidence 2) [6F4072BE] (AR v2)
Track 17 accurately ripped (confidence 2) [BBF38B9A] (AR v2)
Track 18 accurately ripped (confidence 2) [326D5C6A] (AR v2)
Track 19 accurately ripped (confidence 2) [209411E5] (AR v2)
Track 20 accurately ripped (confidence 2) [CE99F8EC] (AR v2)
Track 21 accurately ripped (confidence 2) [4CAE56D8] (AR v2)

All tracks accurately ripped

End of status report

–– CUETools DB Plugin V2.1.6

[CTDB TOCID: 97GRjRE.hxBXdl36f9GrNOEgRL0-] found
Submit result: 97GRjRE.hxBXdl36f9GrNOEgRL0- has been confirmed
Track | CTDB Status
1 | (2/2) Accurately ripped
2 | (2/2) Accurately ripped
3 | (2/2) Accurately ripped
4 | (2/2) Accurately ripped
5 | (2/2) Accurately ripped
6 | (2/2) Accurately ripped
7 | (2/2) Accurately ripped
8 | (2/2) Accurately ripped
9 | (2/2) Accurately ripped
10 | (2/2) Accurately ripped
11 | (2/2) Accurately ripped
12 | (2/2) Accurately ripped
13 | (2/2) Accurately ripped
14 | (2/2) Accurately ripped
15 | (2/2) Accurately ripped
16 | (2/2) Accurately ripped
17 | (2/2) Accurately ripped
18 | (2/2) Accurately ripped
19 | (2/2) Accurately ripped
20 | (2/2) Accurately ripped
21 | (2/2) Accurately ripped


==== Log checksum 98B039635A109599B3BD0BDFBAD30396C1DD8F06D66E0A8802D28509729DF421 ====


Exact Audio Copy V1.5 from 20. February 2020

EAC extraction logfile from 13. March 2021, 17:00

Rogers Covey-Crump, Michael George, Emma Kirkby, Michael Chance, Martyn Hill, David Thomas / Passion. Sacred Masterpieces (Disc 3) Matthäus Passion (I)

Used drive : ATAPI iHAS124 F Adapter: 1 ID: 0

Read mode : Secure
Utilize accurate stream : Yes
Defeat audio cache : Yes
Make use of C2 pointers : No

Read offset correction : 6
Overread into Lead-In and Lead-Out : No
Fill up missing offset samples with silence : Yes
Delete leading and trailing silent blocks : No
Null samples used in CRC calculations : Yes
Used interface : Native Win32 interface for Win NT & 2000

Used output format : User Defined Encoder
Selected bitrate : 1024 kBit/s
Quality : High
Add ID3 tag : No
Command line compressor : C:\Program Files (x86)\Exact Audio Copy\FLAC\FLAC.EXE
Additional command line options : -6 -V -T "ARTIST=%artist%" -T "TITLE=%title%" -T "ALBUM=%albumtitle%" -T "DATE=%year%" -T "TRACKNUMBER=%tracknr%" -T "GENRE=%genre%" -T "COMMENT=%comment%" -T "BAND=%albuminterpret%" -T "ALBUMARTIST=%albuminterpret%" -T "COMPOSER=%composer%" %haslyrics%–tag-from-file=LYRICS="%lyricsfile%"%haslyrics% -T "DISCNUMBER=%cdnumber%" -T "TOTALDISCS=%totalcds%" -T "TOTALTRACKS=%numtracks%" %hascover%–picture="%coverfile%"%hascover% %source% -o %dest%


TOC of the extracted CD

Track | Start | Length | Start sector | End sector
––––––––––––––––––––––––––––-
1 | 0:00.00 | 6:54.30 | 0 | 31079
2 | 6:54.30 | 0:41.55 | 31080 | 34209
3 | 7:36.10 | 0:40.52 | 34210 | 37261
4 | 8:16.62 | 0:28.13 | 37262 | 39374
5 | 8:45.00 | 0:14.20 | 39375 | 40444
6 | 8:59.20 | 0:31.52 | 40445 | 42821
7 | 9:30.72 | 0:30.28 | 42822 | 45099
8 | 10:01.25 | 1:20.60 | 45100 | 51159
9 | 11:22.10 | 0:50.20 | 51160 | 54929
10 | 12:12.30 | 4:06.32 | 54930 | 73411
11 | 16:18.62 | 0:40.15 | 73412 | 76426
12 | 16:59.02 | 4:29.33 | 76427 | 96634
13 | 21:28.35 | 0:11.60 | 96635 | 97519
14 | 21:40.20 | 0:21.02 | 97520 | 99096
15 | 22:01.22 | 1:14.55 | 99097 | 104701
16 | 23:16.02 | 0:10.35 | 104702 | 105486
17 | 23:26.37 | 0:14.28 | 105487 | 106564
18 | 23:40.65 | 0:45.52 | 106565 | 109991
19 | 24:26.42 | 2:53.03 | 109992 | 122969
20 | 27:19.45 | 1:14.10 | 122970 | 128529
21 | 28:33.55 | 3:19.32 | 128530 | 143486
22 | 31:53.12 | 1:01.40 | 143487 | 148101
23 | 32:54.52 | 0:56.13 | 148102 | 152314
24 | 33:50.65 | 1:00.50 | 152315 | 156864
25 | 34:51.40 | 0:57.30 | 156865 | 161169
26 | 35:48.70 | 1:36.62 | 161170 | 168431
27 | 37:25.57 | 1:54.53 | 168432 | 177034
28 | 39:20.35 | 4:58.65 | 177035 | 199449
29 | 44:19.25 | 0:39.45 | 199450 | 202419
30 | 44:58.70 | 0:53.22 | 202420 | 206416
31 | 45:52.17 | 4:08.10 | 206417 | 225026
32 | 50:00.27 | 1:12.10 | 225027 | 230436
33 | 51:12.37 | 1:02.10 | 230437 | 235096
34 | 52:14.47 | 2:18.60 | 235097 | 245506
35 | 54:33.32 | 3:15.43 | 245507 | 260174
36 | 57:49.00 | 1:14.55 | 260175 | 265779
37 | 59:03.55 | 2:13.20 | 265780 | 275774
38 | 61:17.00 | 5:53.12 | 275775 | 302261


Range status and errors

Selected range

Filename C:\EACRip\PASSION. Sacred Masterpieces (15CDs, Brilliant Classics) [2010]\CD 03 - Bach (Matthaus 1)\Passion. Sacred Masterpieces (Disc 3) Bach - Matthaus Passion (I) - Stephen Cleobury.wav

Peak level 78.0 %
Extraction speed 8.6 X
Range quality 99.9 %
Test CRC 82B4AFB6
Copy CRC 82B4AFB6
Copy OK

No errors occurred


AccurateRip summary

Track 1 cannot be verified as accurate (confidence 68) [66F9998F], AccurateRip returned [85800650] (AR v2)
Track 2 cannot be verified as accurate (confidence 68) [F5FFB89A], AccurateRip returned [6AB7A0F2] (AR v2)
Track 3 cannot be verified as accurate (confidence 68) [3036B773], AccurateRip returned [D887A732] (AR v2)
Track 4 cannot be verified as accurate (confidence 69) [CC469CE2], AccurateRip returned [131A46B8] (AR v2)
Track 5 cannot be verified as accurate (confidence 69) [E0DD3FA5], AccurateRip returned [58DF9FFC] (AR v2)
Track 6 cannot be verified as accurate (confidence 69) [4D4524C0], AccurateRip returned [875AA2A3] (AR v2)
Track 7 cannot be verified as accurate (confidence 69) [6E877ACC], AccurateRip returned [C093CD75] (AR v2)
Track 8 cannot be verified as accurate (confidence 69) [D25575BE], AccurateRip returned [25EF0A61] (AR v2)
Track 9 cannot be verified as accurate (confidence 69) [EA27C0FB], AccurateRip returned [9A211911] (AR v2)
Track 10 cannot be verified as accurate (confidence 69) [13CAD044], AccurateRip returned [FCF5AD1C] (AR v2)
Track 11 cannot be verified as accurate (confidence 69) [6B2371CB], AccurateRip returned [F0B372AF] (AR v2)
Track 12 cannot be verified as accurate (confidence 69) [D5E1AAD6], AccurateRip returned [314F1E45] (AR v2)
Track 13 cannot be verified as accurate (confidence 69) [DBB910C7], AccurateRip returned [B924D41E] (AR v2)
Track 14 cannot be verified as accurate (confidence 69) [5BE0F5BE], AccurateRip returned [75DE2BA5] (AR v2)
Track 15 cannot be verified as accurate (confidence 69) [00D0D9FB], AccurateRip returned [4B8D09E3] (AR v2)
Track 16 cannot be verified as accurate (confidence 68) [51E5C8E3], AccurateRip returned [678A36E4] (AR v2)
Track 17 cannot be verified as accurate (confidence 68) [8D3516C1], AccurateRip returned [77516116] (AR v2)
Track 18 cannot be verified as accurate (confidence 68) [7CA0011D], AccurateRip returned [00A595A0] (AR v2)
Track 19 cannot be verified as accurate (confidence 68) [2DC9FCC5], AccurateRip returned [F1466636] (AR v2)
Track 20 cannot be verified as accurate (confidence 68) [0FF6878E], AccurateRip returned [196FB280] (AR v2)
Track 21 cannot be verified as accurate (confidence 68) [615847FE], AccurateRip returned [17F3298A] (AR v2)
Track 22 cannot be verified as accurate (confidence 68) [13A9A594], AccurateRip returned [2BD213D4] (AR v2)
Track 23 cannot be verified as accurate (confidence 68) [69F4046C], AccurateRip returned [3FB60A9B] (AR v2)
Track 24 cannot be verified as accurate (confidence 68) [619D1CD1], AccurateRip returned [07C0211C] (AR v2)
Track 25 cannot be verified as accurate (confidence 67) [A2266D09], AccurateRip returned [B2A913E9] (AR v2)
Track 26 cannot be verified as accurate (confidence 67) [7D36EB1E], AccurateRip returned [FD9AE980] (AR v2)
Track 27 cannot be verified as accurate (confidence 67) [F72C0952], AccurateRip returned [84595557] (AR v2)
Track 28 cannot be verified as accurate (confidence 66) [FB35E88D], AccurateRip returned [99BBEB42] (AR v2)
Track 29 cannot be verified as accurate (confidence 66) [D395C6C1], AccurateRip returned [03FAF2C1] (AR v2)
Track 30 cannot be verified as accurate (confidence 67) [467AFD77], AccurateRip returned [EC798459] (AR v2)
Track 31 cannot be verified as accurate (confidence 67) [8FD1EDEA], AccurateRip returned [6CD6DE7C] (AR v2)
Track 32 cannot be verified as accurate (confidence 67) [FCEFEF61], AccurateRip returned [1926394E] (AR v2)
Track 33 cannot be verified as accurate (confidence 67) [89988C3E], AccurateRip returned [5CB35781] (AR v2)
Track 34 cannot be verified as accurate (confidence 67) [C3F34952], AccurateRip returned [EC09A07E] (AR v2)
Track 35 cannot be verified as accurate (confidence 67) [09DA6D61], AccurateRip returned [7C5CCA6A] (AR v2)
Track 36 cannot be verified as accurate (confidence 67) [1483D3BC], AccurateRip returned [39E6471B] (AR v2)
Track 37 cannot be verified as accurate (confidence 67) [93756F01], AccurateRip returned [366FA0D4] (AR v2)
Track 38 cannot be verified as accurate (confidence 68) [FA7F0C9F], AccurateRip returned [C1532302] (AR v2)

No tracks could be verified as accurate
You may have a different pressing from the one(s) in the database

End of status report

–– CUETools DB Plugin V2.1.6

[CTDB TOCID: HZePvZ94uXcZdoru8hn9ixy_xQw-] found
Submit result: already submitted
Track | CTDB Status
1 | (462/466) Accurately ripped
2 | (462/466) Accurately ripped
3 | (465/466) Accurately ripped
4 | (465/466) Accurately ripped
5 | (465/466) Accurately ripped
6 | (464/466) Accurately ripped
7 | (465/466) Accurately ripped
8 | (463/466) Accurately ripped
9 | (465/466) Accurately ripped
10 | (464/466) Accurately ripped
11 | (464/466) Accurately ripped
12 | (463/466) Accurately ripped
13 | (465/466) Accurately ripped
14 | (465/466) Accurately ripped
15 | (465/466) Accurately ripped
16 | (465/466) Accurately ripped
17 | (465/466) Accurately ripped
18 | (464/466) Accurately ripped
19 | (465/466) Accurately ripped
20 | (465/466) Accurately ripped
21 | (463/466) Accurately ripped
22 | (465/466) Accurately ripped
23 | (465/466) Accurately ripped
24 | (465/466) Accurately ripped
25 | (465/466) Accurately ripped
26 | (464/466) Accurately ripped
27 | (464/466) Accurately ripped
28 | (460/466) Accurately ripped
29 | (462/466) Accurately ripped
30 | (462/466) Accurately ripped
31 | (462/466) Accurately ripped
32 | (464/466) Accurately ripped
33 | (465/466) Accurately ripped
34 | (463/466) Accurately ripped
35 | (463/466) Accurately ripped
36 | (463/466) Accurately ripped
37 | (463/466) Accurately ripped
38 | (455/466) Accurately ripped


==== Log checksum 58D93278BEC8246374A1565B8D87B0918F2AE7EF92C652403E0ABEEBC17D4EB4 ====


Exact Audio Copy V1.5 from 20. February 2020

EAC extraction logfile from 13. March 2021, 17:28

Rogers Covey-Crump, Michael George, Emma Kirkby, Michael Chance, Martyn Hill, David Thomas / Passion. Sacred Masterpieces (Disc 4) Matthaus Passion (II)

Used drive : ATAPI iHAS124 F Adapter: 1 ID: 0

Read mode : Secure
Utilize accurate stream : Yes
Defeat audio cache : Yes
Make use of C2 pointers : No

Read offset correction : 6
Overread into Lead-In and Lead-Out : No
Fill up missing offset samples with silence : Yes
Delete leading and trailing silent blocks : No
Null samples used in CRC calculations : Yes
Used interface : Native Win32 interface for Win NT & 2000

Used output format : User Defined Encoder
Selected bitrate : 1024 kBit/s
Quality : High
Add ID3 tag : No
Command line compressor : C:\Program Files (x86)\Exact Audio Copy\FLAC\FLAC.EXE
Additional command line options : -6 -V -T "ARTIST=%artist%" -T "TITLE=%title%" -T "ALBUM=%albumtitle%" -T "DATE=%year%" -T "TRACKNUMBER=%tracknr%" -T "GENRE=%genre%" -T "COMMENT=%comment%" -T "BAND=%albuminterpret%" -T "ALBUMARTIST=%albuminterpret%" -T "COMPOSER=%composer%" %haslyrics%–tag-from-file=LYRICS="%lyricsfile%"%haslyrics% -T "DISCNUMBER=%cdnumber%" -T "TOTALDISCS=%totalcds%" -T "TOTALTRACKS=%numtracks%" %hascover%–picture="%coverfile%"%hascover% %source% -o %dest%


TOC of the extracted CD

Track | Start | Length | Start sector | End sector
––––––––––––––––––––––––––––-
1 | 0:00.00 | 3:39.40 | 0 | 16464
2 | 3:39.40 | 1:04.60 | 16465 | 21324
3 | 4:44.25 | 0:39.65 | 21325 | 24314
4 | 5:24.15 | 1:11.55 | 24315 | 29694
5 | 6:35.70 | 1:05.02 | 29695 | 34571
6 | 7:40.72 | 3:28.63 | 34572 | 50234
7 | 11:09.60 | 1:17.47 | 50235 | 56056
8 | 12:27.32 | 0:12.08 | 56057 | 56964
9 | 12:39.40 | 0:14.45 | 56965 | 58059
10 | 12:54.10 | 0:22.42 | 58060 | 59751
11 | 13:16.52 | 0:45.28 | 59752 | 63154
12 | 14:02.05 | 0:58.35 | 63155 | 67539
13 | 15:00.40 | 0:11.52 | 67540 | 68416
14 | 15:12.17 | 1:16.58 | 68417 | 74174
15 | 16:29.00 | 6:00.72 | 74175 | 101246
16 | 22:29.72 | 0:56.03 | 101247 | 105449
17 | 23:26.00 | 1:02.57 | 105450 | 110156
18 | 24:28.57 | 0:08.65 | 110157 | 110821
19 | 24:37.47 | 0:44.68 | 110822 | 114189
20 | 25:22.40 | 2:58.07 | 114190 | 127546
21 | 28:20.47 | 2:14.10 | 127547 | 137606
22 | 30:34.57 | 0:55.43 | 137607 | 141774
23 | 31:30.25 | 2:07.37 | 141775 | 151336
24 | 33:37.62 | 0:22.33 | 151337 | 153019
25 | 34:00.20 | 0:40.42 | 153020 | 156061
26 | 34:40.62 | 0:17.20 | 156062 | 157356
27 | 34:58.07 | 1:05.15 | 157357 | 162246
28 | 36:03.22 | 4:47.65 | 162247 | 183836


Range status and errors

Selected range

Filename C:\EACRip\PASSION. Sacred Masterpieces (15CDs, Brilliant Classics) [2010]\CD 04 - Bach (Matthaus 2)\Passion. Sacred Masterpieces (Disc 4) Bach - Matthaus Passion (II) - Stephen Cleobury.wav

Peak level 98.4 %
Extraction speed 7.5 X
Range quality 99.9 %
Test CRC A33D34DE
Copy CRC A33D34DE
Copy OK

No errors occurred


AccurateRip summary

Track 1 cannot be verified as accurate (confidence 68) [ED3F2B6D], AccurateRip returned [B1BAF375] (AR v2)
Track 2 cannot be verified as accurate (confidence 69) [B59A58A6], AccurateRip returned [883FAE3B] (AR v2)
Track 3 cannot be verified as accurate (confidence 69) [44B3ED75], AccurateRip returned [EC220CDB] (AR v2)
Track 4 cannot be verified as accurate (confidence 69) [B42999E1], AccurateRip returned [EB09CF29] (AR v2)
Track 5 cannot be verified as accurate (confidence 69) [CD6B86D2], AccurateRip returned [B4DFDE9B] (AR v2)
Track 6 cannot be verified as accurate (confidence 69) [03D8EB31], AccurateRip returned [B4138B29] (AR v2)
Track 7 cannot be verified as accurate (confidence 69) [36B13478], AccurateRip returned [22918AB7] (AR v2)
Track 8 cannot be verified as accurate (confidence 69) [1B87172F], AccurateRip returned [36DEAF67] (AR v2)
Track 9 cannot be verified as accurate (confidence 69) [7532226D], AccurateRip returned [5BCA5209] (AR v2)
Track 10 cannot be verified as accurate (confidence 69) [47D0049F], AccurateRip returned [D7EA251A] (AR v2)
Track 11 cannot be verified as accurate (confidence 69) [9C738A8C], AccurateRip returned [1918F67C] (AR v2)
Track 12 cannot be verified as accurate (confidence 69) [2A8460B7], AccurateRip returned [4D2E6E61] (AR v2)
Track 13 cannot be verified as accurate (confidence 69) [864C1E36], AccurateRip returned [0A180E39] (AR v2)
Track 14 cannot be verified as accurate (confidence 69) [F77D0F05], AccurateRip returned [644591A9] (AR v2)
Track 15 cannot be verified as accurate (confidence 68) [8CD75D6C], AccurateRip returned [108E6BE0] (AR v2)
Track 16 cannot be verified as accurate (confidence 68) [7362AF00], AccurateRip returned [C3F22F7E] (AR v2)
Track 17 cannot be verified as accurate (confidence 68) [7F8609CA], AccurateRip returned [B05C978C] (AR v2)
Track 18 cannot be verified as accurate (confidence 69) [BD28750A], AccurateRip returned [D93F1319] (AR v2)
Track 19 cannot be verified as accurate (confidence 69) [CFED01FA], AccurateRip returned [16F2CD1D] (AR v2)
Track 20 cannot be verified as accurate (confidence 68) [E5950BDE], AccurateRip returned [5694E7FF] (AR v2)
Track 21 cannot be verified as accurate (confidence 69) [301EC5F0], AccurateRip returned [ECAA1B68] (AR v2)
Track 22 cannot be verified as accurate (confidence 69) [EF755D58], AccurateRip returned [33D23FCF] (AR v2)
Track 23 cannot be verified as accurate (confidence 69) [A9EDE425], AccurateRip returned [B25D2450] (AR v2)
Track 24 cannot be verified as accurate (confidence 69) [BCD86A41], AccurateRip returned [ACFC9AA0] (AR v2)
Track 25 cannot be verified as accurate (confidence 69) [9EA84074], AccurateRip returned [C7E73771] (AR v2)
Track 26 cannot be verified as accurate (confidence 69) [2EFB089F], AccurateRip returned [24520A53] (AR v2)
Track 27 cannot be verified as accurate (confidence 69) [7D624AC5], AccurateRip returned [BF5CA0EA] (AR v2)
Track 28 cannot be verified as accurate (confidence 69) [769444B2], AccurateRip returned [3DC307BF] (AR v2)

No tracks could be verified as accurate
You may have a different pressing from the one(s) in the database

End of status report

–– CUETools DB Plugin V2.1.6

[CTDB TOCID: t39PXpWkZVSjcFAhD9_OS3fmZxg-] found
Submit result: already submitted
Track | CTDB Status
1 | (455/457) Accurately ripped
2 | (456/457) Accurately ripped
3 | (456/457) Accurately ripped
4 | (456/457) Accurately ripped
5 | (457/457) Accurately ripped
6 | (456/457) Accurately ripped
7 | (456/457) Accurately ripped
8 | (457/457) Accurately ripped
9 | (457/457) Accurately ripped
10 | (457/457) Accurately ripped
11 | (456/457) Accurately ripped
12 | (456/457) Accurately ripped
13 | (457/457) Accurately ripped
14 | (456/457) Accurately ripped
15 | (456/457) Accurately ripped
16 | (457/457) Accurately ripped
17 | (456/457) Accurately ripped
18 | (457/457) Accurately ripped
19 | (456/457) Accurately ripped
20 | (453/457) Accurately ripped
21 | (456/457) Accurately ripped
22 | (456/457) Accurately ripped
23 | (455/457) Accurately ripped
24 | (457/457) Accurately ripped
25 | (456/457) Accurately ripped
26 | (457/457) Accurately ripped
27 | (457/457) Accurately ripped
28 | (454/457) Accurately ripped


==== Log checksum 852BC7C3626E0FC9AEC2D33A8D51573575C0FACE04B64B6BC2F52DBBC89A5581 ====


Exact Audio Copy V1.5 from 20. February 2020

EAC extraction logfile from 13. March 2021, 17:48

Rogers Covey-Crump, Michael George, Emma Kirkby, Michael Chance, Martyn Hill, David Thomas / Passion. Sacred Masterpieces (Disc 5) Matthaus Passion (III)

Used drive : ATAPI iHAS124 F Adapter: 1 ID: 0

Read mode : Secure
Utilize accurate stream : Yes
Defeat audio cache : Yes
Make use of C2 pointers : No

Read offset correction : 6
Overread into Lead-In and Lead-Out : No
Fill up missing offset samples with silence : Yes
Delete leading and trailing silent blocks : No
Null samples used in CRC calculations : Yes
Used interface : Native Win32 interface for Win NT & 2000

Used output format : User Defined Encoder
Selected bitrate : 1024 kBit/s
Quality : High
Add ID3 tag : No
Command line compressor : C:\Program Files (x86)\Exact Audio Copy\FLAC\FLAC.EXE
Additional command line options : -6 -V -T "ARTIST=%artist%" -T "TITLE=%title%" -T "ALBUM=%albumtitle%" -T "DATE=%year%" -T "TRACKNUMBER=%tracknr%" -T "GENRE=%genre%" -T "COMMENT=%comment%" -T "BAND=%albuminterpret%" -T "ALBUMARTIST=%albuminterpret%" -T "COMPOSER=%composer%" %haslyrics%–tag-from-file=LYRICS="%lyricsfile%"%haslyrics% -T "DISCNUMBER=%cdnumber%" -T "TOTALDISCS=%totalcds%" -T "TOTALTRACKS=%numtracks%" %hascover%–picture="%coverfile%"%hascover% %source% -o %dest%


TOC of the extracted CD

Track | Start | Length | Start sector | End sector
––––––––––––––––––––––––––––-
1 | 0:00.00 | 0:04.07 | 0 | 306
2 | 0:04.07 | 0:19.40 | 307 | 1771
3 | 0:23.47 | 0:28.13 | 1772 | 3884
4 | 0:51.60 | 0:43.72 | 3885 | 7181
5 | 1:35.57 | 0:22.58 | 7182 | 8889
6 | 1:58.40 | 0:57.55 | 8890 | 13219
7 | 2:56.20 | 6:50.15 | 13220 | 43984
8 | 9:46.35 | 0:41.55 | 43985 | 47114
9 | 10:28.15 | 0:10.62 | 47115 | 47926
10 | 10:39.02 | 0:11.55 | 47927 | 48806
11 | 10:50.57 | 1:56.48 | 48807 | 57554
12 | 12:47.30 | 0:55.55 | 57555 | 61734
13 | 13:43.10 | 0:33.57 | 61735 | 64266
14 | 14:16.67 | 5:19.18 | 64267 | 88209
15 | 19:36.10 | 1:51.55 | 88210 | 96589
16 | 21:27.65 | 0:30.32 | 96590 | 98871
17 | 21:58.22 | 0:09.08 | 98872 | 99554
18 | 22:07.30 | 0:56.52 | 99555 | 103806
19 | 23:04.07 | 0:14.05 | 103807 | 104861
20 | 23:18.12 | 1:25.05 | 104862 | 111241
21 | 24:43.17 | 3:22.53 | 111242 | 126444
22 | 28:05.70 | 1:21.25 | 126445 | 132544
23 | 29:27.20 | 0:04.32 | 132545 | 132876
24 | 29:31.52 | 0:16.68 | 132877 | 134144
25 | 29:48.45 | 0:08.40 | 134145 | 134784
26 | 29:57.10 | 0:32.47 | 134785 | 137231
27 | 30:29.57 | 1:13.00 | 137232 | 142706
28 | 31:42.57 | 1:08.33 | 142707 | 147839
29 | 32:51.15 | 0:19.10 | 147840 | 149274
30 | 33:10.25 | 1:20.70 | 149275 | 155344
31 | 34:31.20 | 1:59.30 | 155345 | 164299
32 | 36:30.50 | 6:19.55 | 164300 | 192779
33 | 42:50.30 | 1:02.20 | 192780 | 197449
34 | 43:52.50 | 0:59.20 | 197450 | 201894
35 | 44:51.70 | 0:38.37 | 201895 | 204781
36 | 45:30.32 | 1:53.33 | 204782 | 213289
37 | 47:23.65 | 5:32.42 | 213290 | 238231


Range status and errors

Selected range

Filename C:\EACRip\PASSION. Sacred Masterpieces (15CDs, Brilliant Classics) [2010]\CD 05 - Bach (Matthaus 3)\Passion. Sacred Masterpieces (Disc 5) Bach - Matthaus Passion (III) - Stephen Cleobury.wav

Peak level 97.9 %
Extraction speed 8.2 X
Range quality 100.0 %
Test CRC 44B8DA4D
Copy CRC 44B8DA4D
Copy OK

No errors occurred


AccurateRip summary

Track 1 accurately ripped (confidence 1) [BD376983] (AR v2)
Track 2 accurately ripped (confidence 1) [AA0541E5] (AR v2)
Track 3 accurately ripped (confidence 1) [E47C17F4] (AR v2)
Track 4 accurately ripped (confidence 1) [F63E7920] (AR v2)
Track 5 accurately ripped (confidence 1) [499C244E] (AR v2)
Track 6 accurately ripped (confidence 1) [01EC9153] (AR v2)
Track 7 accurately ripped (confidence 1) [040104D1] (AR v2)
Track 8 accurately ripped (confidence 1) [FB71B10F] (AR v2)
Track 9 accurately ripped (confidence 1) [7D66F20B] (AR v2)
Track 10 accurately ripped (confidence 1) [7C04EB27] (AR v2)
Track 11 accurately ripped (confidence 1) [F358AB45] (AR v2)
Track 12 accurately ripped (confidence 1) [554540C0] (AR v2)
Track 13 accurately ripped (confidence 1) [2E540BAB] (AR v2)
Track 14 accurately ripped (confidence 1) [10210936] (AR v2)
Track 15 accurately ripped (confidence 1) [6053026C] (AR v2)
Track 16 accurately ripped (confidence 1) [E23DAA40] (AR v2)
Track 17 accurately ripped (confidence 1) [04E24C7B] (AR v2)
Track 18 accurately ripped (confidence 1) [A2CF596B] (AR v2)
Track 19 accurately ripped (confidence 1) [48B41567] (AR v2)
Track 20 accurately ripped (confidence 1) [7D12A712] (AR v2)
Track 21 accurately ripped (confidence 1) [AB16A311] (AR v2)
Track 22 accurately ripped (confidence 1) [1ABFA312] (AR v2)
Track 23 accurately ripped (confidence 1) [BD31FAC8] (AR v2)
Track 24 cannot be verified as accurate (confidence 1) [BB5D5B26], AccurateRip returned [8170732A] (AR v2)
Track 25 accurately ripped (confidence 1) [595312DF] (AR v2)
Track 26 accurately ripped (confidence 1) [10090603] (AR v2)
Track 27 accurately ripped (confidence 1) [071DEC25] (AR v2)
Track 28 accurately ripped (confidence 1) [34C0D108] (AR v2)
Track 29 accurately ripped (confidence 1) [24424699] (AR v2)
Track 30 accurately ripped (confidence 1) [08F0EF22] (AR v2)
Track 31 accurately ripped (confidence 1) [202DAA6C] (AR v2)
Track 32 accurately ripped (confidence 1) [140E4039] (AR v2)
Track 33 accurately ripped (confidence 1) [3BCFF95A] (AR v2)
Track 34 accurately ripped (confidence 1) [14105E3B] (AR v2)
Track 35 cannot be verified as accurate (confidence 1) [7B4FB835], AccurateRip returned [8BFE6706] (AR v2)
Track 36 accurately ripped (confidence 1) [B7C7F1C9] (AR v2)
Track 37 accurately ripped (confidence 1) [128ED607] (AR v2)

35 track(s) accurately ripped
2 track(s) could not be verified as accurate

Some tracks could not be verified as accurate

End of status report

–– CUETools DB Plugin V2.1.6

[CTDB TOCID: eMT180EZzCHyoaaHAeN.qt7prFs-] found
Submit result: eMT180EZzCHyoaaHAeN.qt7prFs- has been confirmed
Track | CTDB Status
1 | (2/2) Accurately ripped
2 | (2/2) Accurately ripped
3 | (2/2) Accurately ripped
4 | (2/2) Accurately ripped
5 | (2/2) Accurately ripped
6 | (2/2) Accurately ripped
7 | (2/2) Accurately ripped
8 | (2/2) Accurately ripped
9 | (2/2) Accurately ripped
10 | (2/2) Accurately ripped
11 | (2/2) Accurately ripped
12 | (2/2) Accurately ripped
13 | (2/2) Accurately ripped
14 | (2/2) Accurately ripped
15 | (2/2) Accurately ripped
16 | (2/2) Accurately ripped
17 | (2/2) Accurately ripped
18 | (2/2) Accurately ripped
19 | (2/2) Accurately ripped
20 | (2/2) Accurately ripped
21 | (2/2) Accurately ripped
22 | (2/2) Accurately ripped
23 | (2/2) Accurately ripped
24 | (2/2) Accurately ripped
25 | (2/2) Accurately ripped
26 | (2/2) Accurately ripped
27 | (2/2) Accurately ripped
28 | (2/2) Accurately ripped
29 | (2/2) Accurately ripped
30 | (2/2) Accurately ripped
31 | (2/2) Accurately ripped
32 | (2/2) Accurately ripped
33 | (2/2) Accurately ripped
34 | (2/2) Accurately ripped
35 | (2/2) Accurately ripped
36 | (2/2) Accurately ripped
37 | (2/2) Accurately ripped


==== Log checksum ADE6E0D9DD7D16D364812E5524855D055FCC033C07C6301AAACC98852AC7D164 ====


Passion: Sacred Masterpieces: Schütz, Bach, Purcell, Handel, Telemann, Pergolesi, Haydn [15CDs] (2010)

Thanks to the original releaser