Subcategories

Pedro Iturralde Quintet feat. Paco De Lucia - Flamenco-Jazz (1967) {MPS}

Posted By: tiburon
Pedro Iturralde Quintet feat. Paco De Lucia - Flamenco-Jazz (1967) {MPS}

Pedro Iturralde Quintet feat. Paco De Lucia - Flamenco-Jazz (1967) {MPS}
EAC 1.0b6 | FLAC tracks level 8 | Cue+Log+M3U | Full Scans 300dpi | 269MB + 5% Recovery
MP3 CBR 320 Kbps | 100MB + 5% Recovery
Genre: Flamenco, Jazz

Jazz and flamenco first crossed paths not in Spain, but in the USA when Miles Davis and arranger/composer Gil Evans recorded “Sketches of Spain” in November 1959 and March 1960. It became one of the most successful jazz albums of all time. And the jazz musicians in Spain? They attempted to emulate – as did their colleagues world-wide – the American model. Jazz stood for open-mindedness; national folklore was thought of as too parochial. Spanish saxophonist Pedro Iturralde was the only musician who, under the influence of “Sketches of Spain”, added a couple of flamenco melodies to his repertoire as he toured Europe accompanied by two Germans and a Swiss. That’s why Joachim-Ernst Berendt sought him out to play at the 1967 Berlin Jazz Festival. With the festival’s motto “Jazz Meets the World”, Berendt was looking for a jazz-flamenco combination to fit the bill. Since Berendt absolutely wanted a guitarist in the band, Iturralde came to Berlin with a 19 year old flamenco musician named Paco de Lucía. He would become an international star as one of the greatest flamenco musicians of our time, and continued to be involved with jazz until his death in February 2014. Paco de Lucía’s participation as a regular band member is what makes this MPS recording so appealing. Iturralde also brought Italian trombonist Dino Piana into the band for this recording as well as the Berlin Festival appearance.
Track List
1. Veleta De Tu Viento
2. Cancion de Las Penas De Amor
3. El Vito
4. Cancion Del Fuego Fatuo

musicians
Pedro Iturralde – tenor saxophone
Paco De Lucía – flamenco guitar
Erich Peter – bass
Peer Wyboris – drums
Paul Grassl – piano
Dino Piana – trombone

Produced by Joachim Ernst Berendt


Exact Audio Copy V1.0 beta 6 from 9. April 2015

EAC extraction logfile from 14. July 2015, 8:32

Pedro Iturralde Quintet, Paco de Lucia / Flamenco-Jazz

Used drive : ATAPI iHBS112 2 Adapter: 1 ID: 0

Read mode : Secure
Utilize accurate stream : Yes
Defeat audio cache : Yes
Make use of C2 pointers : No

Read offset correction : 6
Overread into Lead-In and Lead-Out : No
Fill up missing offset samples with silence : Yes
Delete leading and trailing silent blocks : No
Null samples used in CRC calculations : Yes
Used interface : Native Win32 interface for Win NT & 2000
Gap handling : Appended to previous track

Used output format : User Defined Encoder
Selected bitrate : 1024 kBit/s
Quality : High
Add ID3 tag : No
Command line compressor : C:\Program Files\Exact Audio Copy\Flac\flac.exe
Additional command line options : -8 -V -T "ARTIST=%artist%" -T "TITLE=%title%" -T "ALBUM=%albumtitle%" -T "DATE=%year%" -T "TRACKNUMBER=%tracknr%" -T "TOTALTRACKS=%numtracks%" -T "GENRE=%genre%" -T "ALBUMARTIST=%albumartist%" -T "ALBUM ARTIST=%albumartist%" -T "COMPOSER=%composer%" -T "PERFORMER=%albuminterpret%" -T "DISCNUMBER=%cdnumber%" -T "TOTALDISCS=%totalcds%" -T "COMMENT=EAC Secure Mode, Test & Copy, AccurateRip, FLAC -8" %source%


TOC of the extracted CD

Track | Start | Length | Start sector | End sector
––––––––––––––––––––––––––––-
1 | 0:00.00 | 15:11.64 | 0 | 68388
2 | 15:11.64 | 7:43.33 | 68389 | 103146
3 | 22:55.22 | 15:01.62 | 103147 | 170783
4 | 37:57.09 | 5:37.00 | 170784 | 196058


Track 1

Filename P:\DL\Pedro Iturralde Quintet, Paco de Lucia - Flamenco-Jazz (2014) [FLAC]\01 - Veleta De Tu Viento.wav

Pre-gap length 0:00:02.00

Peak level 82.3 %
Extraction speed 6.1 X
Track quality 100.0 %
Test CRC 6B59457F
Copy CRC 6B59457F
Accurately ripped (confidence 1) [0D53E5BF] (AR v2)
Copy OK

Track 2

Filename P:\DL\Pedro Iturralde Quintet, Paco de Lucia - Flamenco-Jazz (2014) [FLAC]\02 - Cancion de Las Penas De Amor.wav

Pre-gap length 0:00:10.28

Peak level 64.4 %
Extraction speed 6.7 X
Track quality 99.9 %
Test CRC 361F5175
Copy CRC 361F5175
Accurately ripped (confidence 1) [AC83BB4B] (AR v2)
Copy OK

Track 3

Filename P:\DL\Pedro Iturralde Quintet, Paco de Lucia - Flamenco-Jazz (2014) [FLAC]\03 - El Vito.wav

Pre-gap length 0:00:06.66

Peak level 97.5 %
Extraction speed 8.6 X
Track quality 100.0 %
Test CRC B1B13DD1
Copy CRC B1B13DD1
Accurately ripped (confidence 1) [497B7C71] (AR v2)
Copy OK

Track 4

Filename P:\DL\Pedro Iturralde Quintet, Paco de Lucia - Flamenco-Jazz (2014) [FLAC]\04 - Cancion Del Fuego Fatuo.wav

Pre-gap length 0:00:09.82

Peak level 63.7 %
Extraction speed 7.8 X
Track quality 99.9 %
Test CRC 7C89DFA4
Copy CRC 7C89DFA4
Cannot be verified as accurate (confidence 1) [7F85F726], AccurateRip returned [EE536F18] (AR v2)
Copy OK


3 track(s) accurately ripped
1 track(s) could not be verified as accurate

Some tracks could not be verified as accurate

No errors occurred

End of status report

–– CUETools DB Plugin V2.1.6

[CTDB TOCID: dM_Wqe976hw1FbuucZru5TbF2Os-] found
Submit result:
Track | CTDB Status
1 | (1/1) Accurately ripped
2 | (1/1) Accurately ripped
3 | (1/1) Accurately ripped
4 | (1/1) Accurately ripped


==== Log checksum 4FE50CE145EEDE8D64030EBF83F423A1712DCB5C112CE253A619B90FEAF729A0 ====


––––––––––––––––––––––––––––––––––––––––
Analyzed: Pedro Iturralde Quintet, Paco de Lucia / Flamenco-Jazz
––––––––––––––––––––––––––––––––––––––––

DR Peak RMS Duration Track
––––––––––––––––––––––––––––––––––––––––
DR15 -1.69 dB -21.74 dB 15:12 01-Veleta De Tu Viento
DR15 -3.81 dB -26.57 dB 7:43 02-Cancion de Las Penas De Amor
DR15 -0.21 dB -20.24 dB 15:02 03-El Vito
DR15 -3.92 dB -23.18 dB 5:37 04-Cancion Del Fuego Fatuo
––––––––––––––––––––––––––––––––––––––––

Number of tracks: 4
Official DR value: DR15

Samplerate: 44100 Hz
Channels: 2
Bits per sample: 16
Bitrate: 782 kbps
Codec: FLAC
================================================================================

Pedro Iturralde Quintet feat. Paco De Lucia - Flamenco-Jazz (1967) {MPS}
Pedro Iturralde Quintet feat. Paco De Lucia - Flamenco-Jazz (1967) {MPS}
Pedro Iturralde Quintet feat. Paco De Lucia - Flamenco-Jazz (1967) {MPS}


Thanks to the original ripper