Subcategories

Philip Glass - UAKTI - Aguas da Amazonia (1999)

Posted By: Designol
Philip Glass - UAKTI - Aguas da Amazonia (1999)

Philip Glass - UAKTI - Aguas da Amazonia (1999)
EAC | FLAC | Image (Cue&Log) ~ 229 Mb | Mp3 (CBR320) ~ 125 Mb | Scans included
Label: Point Music | # 289 464 064-2 | Time: 00:54:49
Modern Classical, Minimalism, World Fusion

The music on this disc represents one of several collaborations between American minimalist composer Philip Glass and experimental Brazilian percussion group Uakti (say WOK-chee). The members of Uakti make their own instruments, both conventional and invented. Their collaboration with Glass is not simply a matter of performance – in this work, commissioned by a Brazilian dance company in 1993, they actually adapted Glass' materials for their own instruments. The first nine movements of Aguas da Amazonia (Waters of Amazonia) consist of the names of Brazilian rivers; the tenth movement, "Metamorphosis I," was added later, with instrumentation similar to the first nine.

The combination of Uakti's tropical percussion instruments with Glass' slowly evolving, almost static music is magical. Uakti deploys instruments that differ slightly in timbre to realize the rhythmic cycles in the music, often with an electronic keyboard as background. There are two different kinds of marimba, one made out of glass and the other of a Brazilian wood, angelim. The grand pan that appears in several pieces is not a Trinidadian steel pan but a large idiophone made of lengths of PVC pipe, cut with aligned ends (panpipe-fashion) and struck with mallets. There are other percussion instruments of various kinds, flutes, and an occasional piano. The movement sequence leads into denser music, backs off to sparer textures, and brings all the instruments to bear in the final "Amazon River" and "Metamorphosis I" movements, which also contain the only tempo variations in the whole work. Despite the homogeneous material, the music is never boring; the hypnotic sounds of Uakti's unique instrumental textures attune the ear to the slightest alterations in the music – an ideal situation for Glass. This is one of the more successful Glass releases of recent years, and it is recommended to anyone who enjoys percussion music in general.

Review by James Manheim, Allmusic.com

UAKTI at Allmusic
UAKTI at Wiki

Philip Glass at Allmusic
Philip Glass Website
Philip Glass at Wiki


Tracklist:

01. Tiquie River (01:42)
02. Japura River (04:44)
03. Purus River (07:42)
04. Negro River (04:21)
05. Madeira River (03:59)
06. Tapajo River (02:49)
07. Paru River (04:25)
08. Xingu River (05:03)
09. Amazon River (07:26)
10. Metamorphosis I (12:32)


Exact Audio Copy V0.99 prebeta 5 from 4. May 2009

Отчёт EAC об извлечении, выполненном 12. ноября 2010, 1:41

Philip Glass / UAKTI - Aguas da Amazonia

Дисковод: Optiarc DVD RW AD-5200A Adapter: 4 ID: 0

Режим чтения : Достоверность
Использование точного потока : Да
Отключение кэша аудио : Да
Использование указателей C2 : Нет

Коррекция смещения при чтении : 48
Способность читать области Lead-in и Lead-out : Нет
Заполнение пропущенных сэмплов тишиной : Да
Удаление блоков с тишиной в начале и конце : Нет
При вычислениях CRC использовались нулевые сэмплы : Да
Интерфейс : Встроенный Win32-интерфейс для Win NT/2000

Выходной формат : Пользовательский кодировщик
Выбранный битрейт : 128 kBit/s
Качество : Высокий
Добавление ID3-тэга : Нет
Утилита сжатия : C:\Program Files\FLAC\flac.exe
Дополнительные параметры : -8 -V %s


TOC извлечённого CD

Трек | Старт | Длительность | Начальный сектор | Конечный сектор
––––––––––––––––––––––––––––––––––-
1 | 0:00.00 | 1:42.04 | 0 | 7653
2 | 1:42.04 | 4:44.52 | 7654 | 29005
3 | 6:26.56 | 7:42.63 | 29006 | 63718
4 | 14:09.44 | 4:21.72 | 63719 | 83365
5 | 18:31.41 | 3:59.73 | 83366 | 101363
6 | 22:31.39 | 2:49.47 | 101364 | 114085
7 | 25:21.11 | 4:25.30 | 114086 | 133990
8 | 29:46.41 | 5:03.18 | 133991 | 156733
9 | 34:49.59 | 7:26.21 | 156734 | 190204
10 | 42:16.05 | 12:32.67 | 190205 | 246671


Характеристики диапазона извлечения и сообщения об ошибках

Выбранный диапазон

Имя файла D:\Моя музыка\Philip Glass - UAKTI - Aguas da Amazonia.wav

Пиковый уровень 81.0 %
Качество диапазона 100.0 %
CRC теста C190B4AA
CRC копии C190B4AA
Копирование… OK

Ошибок не произошло


AccurateRip: сводка

Трек 1 нет в базе данных
Трек 2 нет в базе данных
Трек 3 нет в базе данных
Трек 4 нет в базе данных
Трек 5 нет в базе данных
Трек 6 нет в базе данных
Трек 7 нет в базе данных
Трек 8 нет в базе данных
Трек 9 нет в базе данных
Трек 10 нет в базе данных

Ни одного трека нет в базе AccurateRip

Конец отчёта

[CUETools log; Date: 03.04.2015 14:31:35; Version: 2.1.4]
[CTDB TOCID: pYeJIrdhQilGqmeIeoJL1sptFZw-] found.
Track | CTDB Status
1 | (1/1) Accurately ripped
2 | (1/1) Accurately ripped
3 | (1/1) Accurately ripped
4 | (1/1) Accurately ripped
5 | (1/1) Accurately ripped
6 | (1/1) Accurately ripped
7 | (1/1) Accurately ripped
8 | (1/1) Accurately ripped
9 | (1/1) Accurately ripped
10 | (1/1) Accurately ripped
[AccurateRip ID: 0011318d-008d954b-7b0cd80a] found.
Track [ CRC | V2 ] Status
01 [ead242db|899c6cc2] (0+5/5) Accurately ripped
02 [14d801a6|fa5c4865] (0+4/4) Accurately ripped
03 [c11b86a5|2750f1e5] (0+4/4) Accurately ripped
04 [f5a5ec90|b786ba71] (0+4/4) Accurately ripped
05 [a9d13b85|2c7f0455] (0+4/4) Accurately ripped
06 [49c6e447|a7cfb150] (0+4/4) Accurately ripped
07 [e9b7ca1a|db315ca3] (0+4/4) Accurately ripped
08 [0334fa14|3b7d30be] (0+4/4) Accurately ripped
09 [133bffa9|1fa2141e] (0+4/4) Accurately ripped
10 [afb77ed9|885f5569] (0+4/4) Accurately ripped

Track Peak [ CRC32 ] [W/O NULL] [ LOG ]
– 81,0 [C190B4AA] [26A747FD] CRC32
01 25,0 [87B6F941] [735BD7D2]
02 59,8 [E1D42881] [21E61351]
03 44,4 [41211532] [D8844356]
04 45,8 [790FDEE6] [DF5218BB]
05 36,3 [C51C254C] [A9361668]
06 41,9 [E96B187F] [4087373B]
07 26,6 [924D789E] [0629D5CC]
08 51,0 [9D9E1589] [38C97875]
09 81,0 [0A7997FE] [D92827F8]
10 75,7 [0A66E469] [1CAC66E1]

[foobar2000 1.2 / Dynamic Range Meter 1.1.1
log date: 2015-04-03 15:01:56

––––––––––––––––––––––––––––––––––––––––
Analyzed: UAKTI - Philip Glass / Aguas da Amazonia
––––––––––––––––––––––––––––––––––––––––

DR Peak RMS Duration Track
––––––––––––––––––––––––––––––––––––––––
DR9 -12.01 dB -24.29 dB 1:42 01-Tiquie River
DR13 -4.46 dB -20.95 dB 4:45 02-Japura River
DR12 -7.04 dB -21.13 dB 7:43 03-Purus River
DR13 -6.77 dB -23.07 dB 4:22 04-Negro River
DR11 -8.80 dB -25.47 dB 4:00 05-Madeira River
DR12 -7.56 dB -23.31 dB 2:50 06-Tapajo River
DR12 -11.50 dB -28.04 dB 4:25 07-Paru River
DR12 -5.84 dB -22.82 dB 5:03 08-Xingu River
DR14 -1.83 dB -20.73 dB 7:26 09-Amazon River
DR16 -2.41 dB -22.79 dB 12:33 10-Metamorphosis I
––––––––––––––––––––––––––––––––––––––––

Number of tracks: 10
Official DR value: DR13

Samplerate: 44100 Hz
Channels: 2
Bits per sample: 16
Bitrate: 571 kbps
Codec: FLAC
================================================================================

Philip Glass - UAKTI - Aguas da Amazonia (1999)

All thanks to original releaser - leodollen

More interesting music in My Blog