Tags
Language
Tags

Purling Hiss: Discography (2009-2016)

Posted By: v3122
Purling Hiss: Discography (2009-2016)

Purling Hiss: Discography (2009-2016)
EAC, WEB | Flac(Image) + Cue, Log & MP3 CBR 320Kbps
9CD | Label: Various | ~ 1742 or 621 Mb | Artwork(jpg) -> 31 Mb
Garage, Indie Rock, Psychedelic Rock

Philadelphia guitarist and songwriter Mike Polizze first appeared under the name Purling Hiss in 2009 with a self-released, self-titled CD-R. He played all the instruments and recorded the six fuzzy, corrosive pop songs himself at home as a recording-only project. Formerly playing in the heavy psych group Birds of Maya, Polizze played in and around the Philly indie scene, sharing stages with contemporaries like Kurt Vile and the War on Drugs while working on Purling Hiss songs in his basement studio. Following his debut recordings, Polizze went on to release records with various indie labels, including 2010's Public Service Announcement on Woodsist Records, 2011's Lounge Lizards EP on Mexican Summer, and a handful of other cassette and EP releases. In 2013, Polizze expanded Purling Hiss into a power trio, and the newly collaborative three-piece entered a proper studio to record Water on Mars. The album's distorted, introspective tunes were more pop-oriented than anything the band had done before, and the album was released in 2013 on Drag City. The next year, while fans waited for a new album, Drag City reissued the early tour CD Dizzy Polizzy on vinyl, going as far back into Polizze's archive as possible for songs recorded between 2004 and 2009, a time just predating Purling Hiss. A proper follow-up to Water on Mars dropped in the fall of 2014 in the form of Weirdon. That record continued the band's lovingly bent appropriation of '90s grunge and melodic slacker pop. High Bias, another bracing set of noisy but melodic rock, was released by Drag City in 2016.

by Fred Thomas, allmusic
Purling Hiss: Discography (2009-2016):

Purling Hiss: Discography (2009-2016)

Tracklist CD01. 2009 - Purling Hiss [aRCHIVE Records, Archive49]:

01. White Noise Machine (1:46)
02. Almost Washed My Hair (9:19)
03. Sound Of Montage (1:31)
04. Purple Kiss (14:28)
05. D.U. I (1:17)
06. Montage Mountain (11:09)

Exact Audio Copy V1.0 beta 3 from 29. August 2011

EAC extraction logfile from 20. January 2014, 17:09

Purling Hiss / Purling Hiss

Used drive : HL-DT-STDVDRAM GT20N Adapter: 0 ID: 0

Read mode : Secure
Utilize accurate stream : Yes
Defeat audio cache : Yes
Make use of C2 pointers : No

Read offset correction : 667
Overread into Lead-In and Lead-Out : No
Fill up missing offset samples with silence : Yes
Delete leading and trailing silent blocks : No
Null samples used in CRC calculations : Yes
Used interface : Native Win32 interface for Win NT & 2000
Gap handling : Appended to previous track

Used output format : User Defined Encoder
Selected bitrate : 1024 kBit/s
Quality : High
Add ID3 tag : No
Command line compressor : C:\Program Files (x86)\Exact Audio Copy\Flac\flac.exe
Additional command line options : -8 -V -T "ARTIST=%artist%" -T "TITLE=%title%" -T "ALBUM=%albumtitle%" -T "DATE=%year%" -T "TRACKNUMBER=%tracknr%" -T "GENRE=%genre%" -T "PERFORMER=%albuminterpret%" -T "COMPOSER=%composer%" %haslyrics%–tag-from-file=LYRICS="%lyricsfile%"%haslyrics% -T "ALBUMARTIST=%albumartist%" -T "DISCNUMBER=%cdnumber%" -T "TOTALDISCS=%totalcds%" -T "TOTALTRACKS=%numtracks%" -T "COMMENT=%comment%" %source% -o %dest%


TOC of the extracted CD

Track | Start | Length | Start sector | End sector
––––––––––––––––––––––––––––-
1 | 0:00.00 | 1:46.37 | 0 | 7986
2 | 1:46.37 | 9:19.00 | 7987 | 49911
3 | 11:05.37 | 1:31.44 | 49912 | 56780
4 | 12:37.06 | 14:28.00 | 56781 | 121880
5 | 27:05.06 | 1:17.28 | 121881 | 127683
6 | 28:22.34 | 11:09.37 | 127684 | 177895


Track 1

Filename C:\Users\tmcdonald\Music\01 White Noise Machine.wav

Pre-gap length 0:00:02.00

Peak level 100.0 %
Extraction speed 2.3 X
Track quality 100.0 %
Test CRC D0B26DCF
Copy CRC D0B26DCF
Track not present in AccurateRip database
Copy OK

Track 2

Filename C:\Users\tmcdonald\Music\02 Almost Washed My Hair.wav

Peak level 100.0 %
Extraction speed 3.5 X
Track quality 100.0 %
Test CRC F120C9AD
Copy CRC F120C9AD
Track not present in AccurateRip database
Copy OK

Track 3

Filename C:\Users\tmcdonald\Music\03 Sound of Montage.wav

Peak level 100.0 %
Extraction speed 2.8 X
Track quality 100.0 %
Test CRC 157C6E4E
Copy CRC 157C6E4E
Track not present in AccurateRip database
Copy OK

Track 4

Filename C:\Users\tmcdonald\Music\04 Purple Hiss.wav

Peak level 100.0 %
Extraction speed 4.5 X
Track quality 100.0 %
Test CRC B0110CBC
Copy CRC B0110CBC
Track not present in AccurateRip database
Copy OK

Track 5

Filename C:\Users\tmcdonald\Music\05 D.U.I..wav

Peak level 100.0 %
Extraction speed 2.0 X
Track quality 99.8 %
Test CRC 55AA0D9E
Copy CRC 55AA0D9E
Track not present in AccurateRip database
Copy OK

Track 6

Filename C:\Users\tmcdonald\Music\06 Montage Mountain.wav

Peak level 100.0 %
Extraction speed 3.6 X
Track quality 100.0 %
Test CRC C39737CF
Copy CRC C39737CF
Track not present in AccurateRip database
Copy OK


None of the tracks are present in the AccurateRip database

No errors occurred

End of status report

–– CUETools DB Plugin V2.1.3

[CTDB TOCID: Bi7hPlIZaJjeTzHJ893YJ82Q6H0-] disk not present in database, Submit result: Bi7hPlIZaJjeTzHJ893YJ82Q6H0- has been uploaded


==== Log checksum 1B2DE5D9ADDB365B486A4DFEA742154926BDB1577D4499C4B27CA63761971874 ====


[CUETools log; Date: 10.09.2021 18:58:42; Version: 2.1.4]
[AccurateRip ID: 000845bd-002dfbf0-4f094306] disk not present in database.

Track Peak [ CRC32 ] [W/O NULL] [ LOG ]
– 100,0 [58EB0A42] [BC275429]
01 100,0 [D0B26DCF] [C5C35A8F] CRC32
02 100,0 [F120C9AD] [70B80FB1] CRC32
03 100,0 [157C6E4E] [A3763AF8] CRC32
04 100,0 [B0110CBC] [148E1E29] CRC32
05 100,0 [55AA0D9E] [63E09361] CRC32
06 100,0 [C39737CF] [A13C93C8] CRC32


Purling Hiss: Discography (2009-2016)

Tracklist CD02. 2010 - Hissteria:

1. "Passenger Queen" (6:37)
2. "Whipple Dam" (3:28)
3. "Space Roots/Limerence" (6:15)
4. "Down on the Delaware River" (12:08)

[CUETools log; Date: 10.09.2021 19:08:20; Version: 2.1.4]
[AccurateRip ID: 00046ad9-0011d549-3c06ad04] disk not present in database.

Track Peak [ CRC32 ] [W/O NULL]
– 100,0 [F6240390] [98C82D12]
01 100,0 [8CCA0361] [C476A36E]
02 100,0 [56ACCAD7] [5E165FB9]
03 100,0 [5DE67D4F] [B58C61CC]
04 100,0 [6666E7FE] [B43D47C3]


Purling Hiss: Discography (2009-2016)

Tracklist CD03. 2010 - Public Service Announcement:

1. "Run From the City" (5:16)
2. "Porch Dude/Slight Return" (4:21)
3. "Don't Even Try It" (3:35)
4. "Bedroom" (0:42)
5. "Ojos Locos" (2:16)
6. "Gypsy" (3:58)
7. "Zor" (1:58)
8. "Goodbye Blue" (2:09)
9. "Beautiful Earth Creature" (3:19)
10. "Malice in Wonderland" (5:34)
11. "Doghouse" (2:52)
12. "1976" (4:50)

[CUETools log; Date: 10.09.2021 19:10:03; Version: 2.1.4]
Padded some input files to a frame boundary.
[AccurateRip ID: 001206d4-00a4df0f-b409950c] disk not present in database.

Track Peak [ CRC32 ] [W/O NULL]
– 100,0 [90BA600A] [EC354DE1]
01 100,0 [838456E6] [8F317C02]
02 87,3 [2F0F4670] [35ED23F1]
03 100,0 [9FC657A0] [5CF9A07B]
04 93,5 [10CBFC5E] [1DB98577]
05 100,0 [C31B7388] [20A3D3A7]
06 57,0 [ECCB3B65] [11A866C6]
07 81,7 [78D4E527] [35222C25]
08 100,0 [A959667D] [DBFEC11F]
09 100,0 [DF2AD7A8] [EACB58B6]
10 100,0 [154B957F] [6CCB115E]
11 87,6 [67CE1455] [F4CBD21A]
12 100,0 [EFC3A26C] [A7C1AF3A]


Purling Hiss: Discography (2009-2016)

Tracklist CD04. 2011 - Dizzy Polizzy:

1. "She Don't Mind" (3:18)
2. "Icelator" (4:10)
3. "Die High" (3:36)
4. "Sifting Hands" (4:15)
5. "Millions of Colors" (3:48)
6. "Squeaky Fromme" (4:29)
7. "Preface" (1:42)
8. "Earth Creature" (3:21)
9. "Last Day" (1:38)
10. "Drag On" (5:38)
11. "Headlights" (6:38)

[CUETools log; Date: 10.09.2021 19:15:48; Version: 2.1.4]
[AccurateRip ID: 0010b105-00906761-6f09fe0b] disk not present in database.

Track Peak [ CRC32 ] [W/O NULL]
– 96,6 [4A937E40] [A534B31E]
01 96,6 [DFD7D1AC] [A5BA5800]
02 96,6 [94AF6B20] [895E0142]
03 96,6 [6E8DC7E8] [F50EC2E4]
04 96,6 [2A849147] [E16ECD43]
05 96,6 [5AE2F6B2] [70DE678D]
06 96,6 [AD32C3A5] [E9E04C26]
07 96,6 [9468A294] [427419E2]
08 96,6 [235EFB4A] [5A4CF46D]
09 96,6 [EBDB1996] [0FDB5250]
10 96,6 [85F7A4DC] [38506F7D]
11 96,6 [28B78085] [408D1891]


Purling Hiss: Discography (2009-2016)

Tracklist CD05. 2011 - Lounge Lizards:

1. "Voices" (5:16)
2. "The Hoodoo" (4:21)
3. "Midnight Man" (3:35)
4. "Been Teased" (1:58)
5. "City Wide Special" (2:09)
6. "Karaoke Nite" (3:19)

[CUETools log; Date: 10.09.2021 19:11:57; Version: 2.1.4]
Padded some input files to a frame boundary.
[AccurateRip ID: 00056bac-001d54d9-4d056906] disk not present in database.

Track Peak [ CRC32 ] [W/O NULL]
– 100,0 [0A95CFA5] [D13DB79B]
01 100,0 [1DB0844D] [FFC23DB8]
02 100,0 [8A6408BB] [0C50668F]
03 100,0 [A7C8BF1E] [9ACD9C16]
04 100,0 [CD6A6579] [9ED30333]
05 100,0 [E3025C79] [D26799CF]
06 100,0 [3CB7F862] [1DB91D84]


Purling Hiss: Discography (2009-2016)

Tracklist CD06. 2013 - Water On Mars [Drag City Records, DC533]:

01. Lolita (04:27)
02. Mercury Retrograde (03:32)
03. Rat Race (03:04)
04. Dead Again (01:36)
05. She Calms Me Down (02:44)
06. Face Down (03:33)
07. The Harrowing Wind (03:47)
08. Water On Mars (07:09)
09. Mary Bumble Bee (03:04)

Exact Audio Copy V1.0 beta 3 from 29. August 2011

EAC extraction logfile from 10. November 2013, 15:03

Purling Hiss / Water On Mars

Used drive : MATSHITABD-CMB UJ160 Adapter: 0 ID: 0

Read mode : Secure
Utilize accurate stream : Yes
Defeat audio cache : Yes
Make use of C2 pointers : No

Read offset correction : 103
Overread into Lead-In and Lead-Out : No
Fill up missing offset samples with silence : Yes
Delete leading and trailing silent blocks : No
Null samples used in CRC calculations : Yes
Used interface : Native Win32 interface for Win NT & 2000
Gap handling : Appended to previous track

Used output format : User Defined Encoder
Selected bitrate : 128 kBit/s
Quality : High
Add ID3 tag : No
Command line compressor : C:\Program Files (x86)\Exact Audio Copy\Flac\flac.exe
Additional command line options : -8 -V -T "ARTIST=%artist%" -T "TITLE=%title%" -T "ALBUM=%albumtitle%" -T "DATE=%year%" -T "TRACKNUMBER=%tracknr%" -T "GENRE=%genre%" -T "PERFORMER=%albuminterpret%" -T "COMPOSER=%composer%" %haslyrics%–tag-from-file=LYRICS="%lyricsfile%"%haslyrics% -T "ALBUMARTIST=%albumartist%" -T "DISCNUMBER=%cdnumber%" -T "TOTALDISCS=%totalcds%" -T "TOTALTRACKS=%numtracks%" -T "COMMENT=%comment%" %source% -o %dest%


TOC of the extracted CD

Track | Start | Length | Start sector | End sector
––––––––––––––––––––––––––––-
1 | 0:00.00 | 4:27.24 | 0 | 20048
2 | 4:27.24 | 3:32.66 | 20049 | 36014
3 | 8:00.15 | 3:04.63 | 36015 | 49877
4 | 11:05.03 | 1:36.58 | 49878 | 57135
5 | 12:41.61 | 2:44.09 | 57136 | 69444
6 | 15:25.70 | 3:33.22 | 69445 | 85441
7 | 18:59.17 | 3:47.35 | 85442 | 102501
8 | 22:46.52 | 7:09.63 | 102502 | 134739
9 | 29:56.40 | 3:03.74 | 134740 | 148538


Track 1

Filename C:\EAC Rips\01 Lolita.wav

Pre-gap length 0:00:02.00

Peak level 97.0 %
Extraction speed 2.5 X
Track quality 100.0 %
Test CRC 7B6304CB
Copy CRC 7B6304CB
Accurately ripped (confidence 1) [FE0DABDE] (AR v2)
Copy OK

Track 2

Filename C:\EAC Rips\02 Mercury Retrograde.wav

Peak level 97.0 %
Extraction speed 2.7 X
Track quality 100.0 %
Test CRC 8C29271F
Copy CRC 8C29271F
Accurately ripped (confidence 1) [DE577B9F] (AR v2)
Copy OK

Track 3

Filename C:\EAC Rips\03 Rat Race.wav

Peak level 97.0 %
Extraction speed 2.8 X
Track quality 100.0 %
Test CRC CDC7F091
Copy CRC CDC7F091
Accurately ripped (confidence 1) [644490C7] (AR v2)
Copy OK

Track 4

Filename C:\EAC Rips\04 Dead Again.wav

Peak level 93.1 %
Extraction speed 2.5 X
Track quality 100.0 %
Test CRC 20530156
Copy CRC 20530156
Accurately ripped (confidence 1) [A9C10AB7] (AR v2)
Copy OK

Track 5

Filename C:\EAC Rips\05 She Calms Me Down.wav

Peak level 97.0 %
Extraction speed 3.0 X
Track quality 100.0 %
Test CRC 41E91B17
Copy CRC 41E91B17
Accurately ripped (confidence 1) [F991AE9B] (AR v2)
Copy OK

Track 6

Filename C:\EAC Rips\06 Face Down.wav

Peak level 97.0 %
Extraction speed 3.3 X
Track quality 100.0 %
Test CRC 3F237940
Copy CRC 3F237940
Accurately ripped (confidence 1) [E67A19C2] (AR v2)
Copy OK

Track 7

Filename C:\EAC Rips\07 The Harrowing Wind.wav

Peak level 97.0 %
Extraction speed 3.5 X
Track quality 100.0 %
Test CRC 070BF72B
Copy CRC 070BF72B
Accurately ripped (confidence 1) [1BBE606D] (AR v2)
Copy OK

Track 8

Filename C:\EAC Rips\08 Water On Mars.wav

Peak level 97.0 %
Extraction speed 4.0 X
Track quality 100.0 %
Test CRC 3C989510
Copy CRC 3C989510
Accurately ripped (confidence 1) [4D18A5AD] (AR v2)
Copy OK

Track 9

Filename C:\EAC Rips\09 Mary Bumble Bee.wav

Peak level 97.0 %
Extraction speed 3.9 X
Track quality 100.0 %
Test CRC 22BFE420
Copy CRC 22BFE420
Accurately ripped (confidence 1) [0589E485] (AR v2)
Copy OK


All tracks accurately ripped

No errors occurred

End of status report

–– CUETools DB Plugin V2.1.3

[CTDB TOCID: r_DOkczNDFtulcvWkyxu0hAm528-] found, Submit result: r_DOkczNDFtulcvWkyxu0hAm528- has been confirmed
[b9dc6541] (3/3) Accurately ripped


==== Log checksum B817ABCB47A5EF07D20EF961FEB96162A9C21FBBECE71A5D74DD92B54F390DDB ====


[CUETools log; Date: 10.09.2021 19:00:45; Version: 2.1.4]
[AccurateRip ID: 000abd02-004ed456-8807bc09] found.
Track [ CRC | V2 ] Status
01 [00b2dae9|fe0dabde] (0+2/4) Accurately ripped
02 [6f8256fc|de577b9f] (0+2/4) Accurately ripped
03 [710ea2e9|644490c7] (0+2/4) Accurately ripped
04 [5a8e8241|a9c10ab7] (0+2/4) Accurately ripped
05 [d71f731c|f991ae9b] (0+2/4) Accurately ripped
06 [ff0a531a|e67a19c2] (0+2/4) Accurately ripped
07 [5739c2b8|1bbe606d] (0+2/4) Accurately ripped
08 [e4d64975|4d18a5ad] (0+2/4) Accurately ripped
09 [2308b01a|0589e485] (0+2/4) Accurately ripped
Offsetted by 646:
01 [a2687786] (0/4) No match (V2 was not tested)
02 [26c4203b] (0/4) No match (V2 was not tested)
03 [ab28e77d] (0/4) No match (V2 was not tested)
04 [ccbd9d14] (0/4) No match (V2 was not tested)
05 [004f7937] (0/4) No match (V2 was not tested)
06 [b627cb03] (0/4) No match (V2 was not tested)
07 [9797c628] (0/4) No match (V2 was not tested)
08 [b6891aed] (0/4) No match (V2 was not tested)
09 [6b0f0512] (0/4) No match (V2 was not tested)

Track Peak [ CRC32 ] [W/O NULL] [ LOG ]
– 97,0 [68F4B1C8] [4EFED390]
01 97,0 [7B6304CB] [905AE887] CRC32
02 97,0 [8C29271F] [0879DA29] CRC32
03 97,0 [CDC7F091] [649CDB7F] CRC32
04 93,1 [20530156] [0318FFDC] CRC32
05 97,0 [41E91B17] [BC6BFE8E] CRC32
06 97,0 [3F237940] [2B5B2319] CRC32
07 97,0 [070BF72B] [353F7242] CRC32
08 97,0 [3C989510] [95409F3A] CRC32
09 97,0 [22BFE420] [8CC66B5D] CRC32


Purling Hiss: Discography (2009-2016)

Tracklist CD07. 2014 - Weirdon [Drag City Records, DC598CD]:

01. Forcefield of Solitude (03:41)
02. Sundance Saloon Boogie (02:07)
03. Learning Slowly (04:58)
04. Another Silvermoon (06:04)
05. Reptili-A-Genda (05:22)
06. Where's Sweetboy (02:21)
07. Aging Faces (02:51)
08. I Don't Wanna Be A… (03:55)
09. Airwaves (01:25)
10. Running Through My Dreams (03:08)
11. Six Ways To Sunday (08:00)

Exact Audio Copy V1.0 beta 3 from 29. August 2011

EAC extraction logfile from 24. December 2014, 20:49

Purling Hiss / Weirdon

Used drive : ATAPI iHAS324 C Adapter: 2 ID: 0

Read mode : Secure
Utilize accurate stream : Yes
Defeat audio cache : Yes
Make use of C2 pointers : No

Read offset correction : 6
Overread into Lead-In and Lead-Out : No
Fill up missing offset samples with silence : Yes
Delete leading and trailing silent blocks : No
Null samples used in CRC calculations : Yes
Used interface : Native Win32 interface for Win NT & 2000
Gap handling : Appended to previous track

Used output format : User Defined Encoder
Selected bitrate : 896 kBit/s
Quality : High
Add ID3 tag : No
Command line compressor : C:\Program Files (x86)\Exact Audio Copy\Flac\flac.exe
Additional command line options : -8 -V -T "ARTIST=%artist%" -T "TITLE=%title%" -T "ALBUM=%albumtitle%" -T "DATE=%year%" -T "TRACKNUMBER=%tracknr%" -T "GENRE=%genre%" -T "PERFORMER=%albuminterpret%" -T "COMPOSER=%composer%" %haslyrics%–tag-from-file=LYRICS="%lyricsfile%"%haslyrics% -T "ALBUMARTIST=%albumartist%" -T "DISCNUMBER=%cdnumber%" -T "TOTALDISCS=%totalcds%" -T "TOTALTRACKS=%numtracks%" -T "COMMENT=%comment%" %source% -o %dest%


TOC of the extracted CD

Track | Start | Length | Start sector | End sector
––––––––––––––––––––––––––––-
1 | 0:00.00 | 3:41.00 | 0 | 16574
2 | 3:41.00 | 2:06.39 | 16575 | 26063
3 | 5:47.39 | 4:57.67 | 26064 | 48405
4 | 10:45.31 | 6:03.28 | 48406 | 75658
5 | 16:48.59 | 5:21.59 | 75659 | 99792
6 | 22:10.43 | 2:20.09 | 99793 | 110301
7 | 24:30.52 | 2:50.72 | 110302 | 123123
8 | 27:21.49 | 3:54.19 | 123124 | 140692
9 | 31:15.68 | 1:24.55 | 140693 | 147047
10 | 32:40.48 | 3:07.73 | 147048 | 161145
11 | 35:48.46 | 7:59.29 | 161146 | 197099


Track 1

Filename D:\Actual Files 2\Purling Hiss - Weirdon (2014) [FLAC]\01 - Forcefield of Solitude.wav

Pre-gap length 0:00:02.00

Peak level 99.3 %
Extraction speed 5.1 X
Track quality 100.0 %
Test CRC FF67559C
Copy CRC FF67559C
Accurately ripped (confidence 1) [C3BBD82C] (AR v2)
Copy OK

Track 2

Filename D:\Actual Files 2\Purling Hiss - Weirdon (2014) [FLAC]\02 - Sundance Saloon Boogie.wav

Peak level 99.1 %
Extraction speed 3.9 X
Track quality 99.9 %
Test CRC 34DC90D4
Copy CRC 34DC90D4
Accurately ripped (confidence 1) [FDC16B54] (AR v2)
Copy OK

Track 3

Filename D:\Actual Files 2\Purling Hiss - Weirdon (2014) [FLAC]\03 - Learning Slowly.wav

Pre-gap length 0:00:01.20

Peak level 97.1 %
Extraction speed 4.8 X
Track quality 99.9 %
Test CRC 67397425
Copy CRC 67397425
Accurately ripped (confidence 1) [E648E493] (AR v2)
Copy OK

Track 4

Filename D:\Actual Files 2\Purling Hiss - Weirdon (2014) [FLAC]\04 - Another Silvermoon.wav

Peak level 99.3 %
Extraction speed 7.2 X
Track quality 100.0 %
Test CRC 05FBD576
Copy CRC 05FBD576
Accurately ripped (confidence 1) [086DAC7C] (AR v2)
Copy OK

Track 5

Filename D:\Actual Files 2\Purling Hiss - Weirdon (2014) [FLAC]\05 - Reptili-A-Genda.wav

Peak level 97.7 %
Extraction speed 7.8 X
Track quality 100.0 %
Test CRC 56C1C09C
Copy CRC 56C1C09C
Accurately ripped (confidence 1) [03BB2F3B] (AR v2)
Copy OK

Track 6

Filename D:\Actual Files 2\Purling Hiss - Weirdon (2014) [FLAC]\06 - Where's Sweetboy.wav

Pre-gap length 0:00:01.48

Peak level 98.1 %
Extraction speed 7.2 X
Track quality 100.0 %
Test CRC 76522E4A
Copy CRC 76522E4A
Accurately ripped (confidence 1) [6F0C9C51] (AR v2)
Copy OK

Track 7

Filename D:\Actual Files 2\Purling Hiss - Weirdon (2014) [FLAC]\07 - Aging Faces.wav

Pre-gap length 0:00:01.13

Peak level 99.4 %
Extraction speed 6.1 X
Track quality 99.9 %
Test CRC 7D5D12FA
Copy CRC 7D5D12FA
Accurately ripped (confidence 1) [0EEFC788] (AR v2)
Copy OK

Track 8

Filename D:\Actual Files 2\Purling Hiss - Weirdon (2014) [FLAC]\08 - I Don't Wanna Be A….wav

Peak level 99.4 %
Extraction speed 8.5 X
Track quality 100.0 %
Test CRC 0BBF9E6E
Copy CRC 0BBF9E6E
Accurately ripped (confidence 1) [32C93159] (AR v2)
Copy OK

Track 9

Filename D:\Actual Files 2\Purling Hiss - Weirdon (2014) [FLAC]\09 - Airwaves.wav

Peak level 96.6 %
Extraction speed 7.0 X
Track quality 100.0 %
Test CRC 50525EC8
Copy CRC 50525EC8
Accurately ripped (confidence 1) [6BCA9924] (AR v2)
Copy OK

Track 10

Filename D:\Actual Files 2\Purling Hiss - Weirdon (2014) [FLAC]\10 - Running Through My Dreams.wav

Pre-gap length 0:00:02.32

Peak level 96.1 %
Extraction speed 8.6 X
Track quality 100.0 %
Test CRC 22812257
Copy CRC 22812257
Accurately ripped (confidence 1) [1CC3ED7B] (AR v2)
Copy OK

Track 11

Filename D:\Actual Files 2\Purling Hiss - Weirdon (2014) [FLAC]\11 - Six Ways To Sunday.wav

Peak level 94.5 %
Extraction speed 9.1 X
Track quality 99.9 %
Test CRC 6764F620
Copy CRC 6764F620
Accurately ripped (confidence 1) [DAEBAFF0] (AR v2)
Copy OK


All tracks accurately ripped

No errors occurred

End of status report

==== Log checksum 091B6A8C2D3EEA66B3F2DC224A4574C390840F4B2383DAC1167781404DA82C00 ====


[CUETools log; Date: 10.09.2021 19:02:53; Version: 2.1.4]
[AccurateRip ID: 00117c36-00974531-820a440b] found.
Track [ CRC | V2 ] Status
01 [04cbd416|c3bbd82c] (0+5/5) Accurately ripped
02 [9bf7a47a|fdc16b54] (0+5/5) Accurately ripped
03 [bf04f3e5|e648e493] (0+5/5) Accurately ripped
04 [59855154|086dac7c] (0+5/5) Accurately ripped
05 [4c0ed35f|03bb2f3b] (0+5/5) Accurately ripped
06 [f2b8e1b1|6f0c9c51] (0+5/5) Accurately ripped
07 [733cddc0|0eefc788] (0+5/5) Accurately ripped
08 [da60ced2|32c93159] (0+5/5) Accurately ripped
09 [7d26d017|6bca9924] (0+5/5) Accurately ripped
10 [91427dc2|1cc3ed7b] (0+5/5) Accurately ripped
11 [7d2fd057|daebaff0] (0+4/4) Accurately ripped

Track Peak [ CRC32 ] [W/O NULL] [ LOG ]
– 99,4 [7BB669A7] [008521D7]
01 99,3 [FF67559C] [32C2CB02] CRC32
02 99,1 [34DC90D4] [CD656B33] CRC32
03 97,1 [67397425] [E9039692] CRC32
04 99,3 [05FBD576] [0AEB8F37] CRC32
05 97,7 [56C1C09C] [3D27F0BC] CRC32
06 98,1 [76522E4A] [3C8C53FA] CRC32
07 99,4 [7D5D12FA] [3EC78409] CRC32
08 99,4 [0BBF9E6E] [82B64789] CRC32
09 96,6 [50525EC8] [502E0DA3] CRC32
10 96,1 [22812257] [9895B769] CRC32
11 94,5 [6764F620] [14DB59AA] CRC32


Purling Hiss: Discography (2009-2016)

Tracklist CD08. 2016 - High Bias [Drag City Records]:

1. "Fever" (3:05)
2. "3000 AD" (3:25)
3. "Notion Sickness" (1:21)
4. "Follow You Around" (3:45)
5. "Teddy's Servo Motors" (6:39)
6. "Get Your Way" (3:45)
7. " Pulsations" (3:20)
8. "Ostinato Musik" (2:16)
9. "Everybody in the USA" (11:24)

Exact Audio Copy V1.1 from 23. June 2015

EAC extraction logfile from 13. November 2016, 21:42

Purling Hiss / High Bias

Used drive : TSSTcorpCDDVDW SU-208GB Adapter: 1 ID: 0

Read mode : Secure
Utilize accurate stream : Yes
Defeat audio cache : Yes
Make use of C2 pointers : No

Read offset correction : 6
Overread into Lead-In and Lead-Out : No
Fill up missing offset samples with silence : Yes
Delete leading and trailing silent blocks : No
Null samples used in CRC calculations : Yes
Used interface : Native Win32 interface for Win NT & 2000
Gap handling : Appended to previous track

Used output format : User Defined Encoder
Selected bitrate : 1024 kBit/s
Quality : High
Add ID3 tag : No
Command line compressor : C:\Program Files (x86)\Exact Audio Copy\Flac\flac.exe
Additional command line options : -8 -V -T "ARTIST=%artist%" -T "TITLE=%title%" -T "ALBUM=%albumtitle%" -T "DATE=%year%" -T "TRACKNUMBER=%tracknr%" -T "GENRE=%genre%" -T "PERFORMER=%albuminterpret%" -T "COMPOSER=%composer%" %haslyrics%–tag-from-file=LYRICS="%lyricsfile%"%haslyrics% -T "ALBUMARTIST=%albumartist%" -T "DISCNUMBER=%cdnumber%" -T "TOTALDISCS=%totalcds%" -T "TOTALTRACKS=%numtracks%" -T "COMMENT=%comment%" %source% -o %dest%


TOC of the extracted CD

Track | Start | Length | Start sector | End sector
––––––––––––––––––––––––––––-
1 | 0:00.00 | 3:05.33 | 0 | 13907
2 | 3:05.33 | 3:25.65 | 13908 | 29347
3 | 6:31.23 | 1:21.29 | 29348 | 35451
4 | 7:52.52 | 3:45.15 | 35452 | 52341
5 | 11:37.67 | 6:39.39 | 52342 | 82305
6 | 18:17.31 | 3:45.09 | 82306 | 99189
7 | 22:02.40 | 3:20.69 | 99190 | 114258
8 | 25:23.34 | 2:16.57 | 114259 | 124515
9 | 27:40.16 | 11:24.46 | 124516 | 175861


Track 1

Filename C:\Users\craig\Music\01 - Fever.wav

Pre-gap length 0:00:02.00

Peak level 95.3 %
Extraction speed 2.1 X
Track quality 100.0 %
Test CRC 237E3B7A
Copy CRC 237E3B7A
Track not present in AccurateRip database
Copy OK

Track 2

Filename C:\Users\craig\Music\02 - 3000 AD.wav

Peak level 95.4 %
Extraction speed 2.4 X
Track quality 100.0 %
Test CRC 2DE34F74
Copy CRC 2DE34F74
Track not present in AccurateRip database
Copy OK

Track 3

Filename C:\Users\craig\Music\03 - Notion Sickness.wav

Peak level 95.4 %
Extraction speed 2.0 X
Track quality 100.0 %
Test CRC A89C668B
Copy CRC A89C668B
Track not present in AccurateRip database
Copy OK

Track 4

Filename C:\Users\craig\Music\04 - Follow You Around.wav

Peak level 95.4 %
Extraction speed 2.7 X
Track quality 100.0 %
Test CRC 81F15D96
Copy CRC 81F15D96
Track not present in AccurateRip database
Copy OK

Track 5

Filename C:\Users\craig\Music\05 - Teddy's Servo Motors.wav

Peak level 95.4 %
Extraction speed 3.1 X
Track quality 100.0 %
Test CRC 339DFFB9
Copy CRC 339DFFB9
Track not present in AccurateRip database
Copy OK

Track 6

Filename C:\Users\craig\Music\06 - Get Your Way.wav

Peak level 95.4 %
Extraction speed 2.4 X
Track quality 99.9 %
Test CRC 4119638D
Copy CRC 4119638D
Track not present in AccurateRip database
Copy OK

Track 7

Filename C:\Users\craig\Music\07 - Pulsations.wav

Peak level 95.2 %
Extraction speed 3.1 X
Track quality 100.0 %
Test CRC 0C5CFA58
Copy CRC 0C5CFA58
Track not present in AccurateRip database
Copy OK

Track 8

Filename C:\Users\craig\Music\08 - Ostinato Musik.wav

Peak level 95.5 %
Extraction speed 2.2 X
Track quality 99.9 %
Test CRC 49FABA76
Copy CRC 49FABA76
Track not present in AccurateRip database
Copy OK

Track 9

Filename C:\Users\craig\Music\09 - Everybody In The USA.wav

Peak level 95.9 %
Extraction speed 3.9 X
Track quality 100.0 %
Test CRC 40E75BCE
Copy CRC 40E75BCE
Track not present in AccurateRip database
Copy OK


None of the tracks are present in the AccurateRip database

No errors occurred

End of status report

–– CUETools DB Plugin V2.1.6

[CTDB TOCID: 1pSG31LmAmcc74j9wwtIBicuxEs-] found
Submit result: 1pSG31LmAmcc74j9wwtIBicuxEs- has been confirmed
Track | CTDB Status
1 | (2/2) Accurately ripped
2 | (2/2) Accurately ripped
3 | (2/2) Accurately ripped
4 | (2/2) Accurately ripped
5 | (2/2) Accurately ripped
6 | (2/2) Accurately ripped
7 | (2/2) Accurately ripped
8 | (2/2) Accurately ripped
9 | (2/2) Accurately ripped


==== Log checksum 74FCAD8A3167270DCF3736E4B64A046C96E85F4175E53E4E622F29254E211BAF ====


[CUETools log; Date: 10.09.2021 19:05:11; Version: 2.1.4]
[AccurateRip ID: 000b188f-0053efd1-81092809] found.
Track [ CRC | V2 ] Status
01 [c67ac20f|9d47fb66] (0+1/2) Accurately ripped
02 [12828da2|fb150bf3] (0+1/2) Accurately ripped
03 [77ee7c26|2013157f] (0+1/2) Accurately ripped
04 [20838cf9|43d76891] (0+1/2) Accurately ripped
05 [240999a8|3ab354ff] (0+1/2) Accurately ripped
06 [4e4e3453|817dff63] (0+1/2) Accurately ripped
07 [4f6b5d1f|6fc4197d] (0+1/2) Accurately ripped
08 [9cf311b5|d779ba97] (0+1/2) Accurately ripped
09 [52d91184|68cf71ec] (0+1/2) Accurately ripped

Track Peak [ CRC32 ] [W/O NULL] [ LOG ]
– 95,9 [A2912BA0] [662BFBB2]
01 95,3 [237E3B7A] [80C98B01] CRC32
02 95,4 [2DE34F74] [9DF18D54] CRC32
03 95,4 [A89C668B] [624A5705] CRC32
04 95,4 [81F15D96] [3D727438] CRC32
05 95,4 [339DFFB9] [1B0B8D9C] CRC32
06 95,4 [4119638D] [E12BE6A9] CRC32
07 95,2 [0C5CFA58] [39831888] CRC32
08 95,5 [49FABA76] [1EE3D00D] CRC32
09 95,9 [40E75BCE] [DE09D1C2] CRC32


Purling Hiss: Discography (2009-2016)

Tracklist CD09. 2016 - Something:

1. "My, My, My" (2:53)
2. "Funny Hunny" (1:57)
3. "Fumble Tumble" (3:45)
4. "Hey Tate" (6:08)

[CUETools log; Date: 10.09.2021 19:14:24; Version: 2.1.4]
Padded some input files to a frame boundary.
[AccurateRip ID: 0002218d-0008ce54-29037304] disk not present in database.

Track Peak [ CRC32 ] [W/O NULL]
– 96,6 [C03719D4] [615B8994]
01 92,3 [7FEE7C55] [AD9F4772]
02 96,6 [FDF058CD] [AC285457]
03 96,6 [592148E1] [D18325C8]
04 96,6 [80E69B04] [BDA988BE]


All thanks go to the original releaser

Discography in my Blog

Download Purling Hiss: Discography (2009-2016):