Tags
Language
Tags
February 2023
Su Mo Tu We Th Fr Sa
29 30 31 1 2 3 4
5 6 7 8 9 10 11
12 13 14 15 16 17 18
19 20 21 22 23 24 25
26 27 28 1 2 3 4

R.E.M. - The One I Love (1988) Limited Edition Single

Posted By: Designol
R.E.M. - The One I Love (1988) Limited Edition Single

R.E.M. - The One I Love (1988) Limited Edition Single
EAC | FLAC | Tracks (Cue&Log) ~ 90 Mb | Mp3 (CBR320) ~ 34 Mb | Scans included | 00:13:33
Alternative Pop/Rock, College Rock, Folk-Rock | Label: I.R.S. | # DIRMX 178

"The One I Love" is a song by American alternative rock band R.E.M. It was released on the band's fifth full-length studio album, Document, and also as a 7" vinyl single in 1987. The song was their first hit single, reaching #9 in the US Billboard Hot 100, #14 in Canada, and later reached #16 in the UK singles chart on its UK release (1991). The song was included in Activision's Guitar Hero World Tour and is in Guitar Hero On Tour: Decades. In March 2005, Q magazine placed "The One I Love" at number 57 in its list of the 100 Greatest Guitar Tracks. In 2012, Slant Magazine listed the song as the 38th best single of the 1980s.

R.E.M. - The One I Love (1988) Limited Edition Single





Tracklist:

01. The One I Love (3:18)
02. Driver Eight (live) (3:30)
03. Disturbance at the Heron House (live) (3:43)
04. Crazy (3:02)


EAC extraction logfile from 14. March 2009, 10:59 for CD
R.E.M. / The One I Love

Used drive : HP DVD Writer 640b Adapter: 0 ID: 0
Read mode : Secure with NO C2, accurate stream, disable cache
Read offset correction : 102
Overread into Lead-In and Lead-Out : No

Used output format : Internal WAV Routines
44.100 Hz; 16 Bit; Stereo

Other options :
Fill up missing offset samples with silence : Yes
Delete leading and trailing silent blocks : No
Installed external ASPI interface


Track 1
Filename C:\EACrips\01 - The One I Love.wav

Pre-gap length 0:00:02.66

Peak level 76.3 %
Track quality 99.8 %
Test CRC 62F63CB3
Copy CRC 62F63CB3
Copy OK

Track 2
Filename C:\EACrips\02 - Driver Eight (live).wav

Pre-gap length 0:00:02.93

Peak level 64.1 %
Track quality 100.0 %
Test CRC 70BE6268
Copy CRC 70BE6268
Copy OK

Track 3
Filename C:\EACrips\03 - Disturbance at the Heron House (live).wav

Pre-gap length 0:00:02.26

Peak level 43.8 %
Track quality 99.9 %
Test CRC A3D3D317
Copy CRC A3D3D317
Copy OK

Track 4
Filename C:\EACrips\04 - Crazy.wav

Pre-gap length 0:00:02.80

Peak level 79.8 %
Track quality 100.0 %
Test CRC 70023A4A
Copy CRC 70023A4A
Copy OK

No errors occured


End of status report

[CUETools log; Date: 20.04.2018 18:19:28; Version: 2.1.4]
Pregap length 00:00:50.
[CTDB TOCID: A4F.BKmu1mEGeWao7bI1bxppsTs-] found.
Track | CTDB Status
1 | ( 9/10) Accurately ripped
2 | (10/10) Accurately ripped
3 | ( 9/10) Accurately ripped
4 | ( 9/10) Accurately ripped
[AccurateRip ID: 000259b0-00096889-15032e04] found.
Track [ CRC | V2 ] Status
01 [bed5e092|8a60d221] (09+13/22) Accurately ripped
02 [539514a1|6da9660a] (09+13/22) Accurately ripped
03 [a457e52e|815c7f19] (09+13/22) Accurately ripped
04 [1843da0d|ff834aa2] (09+13/22) Accurately ripped

Track Peak [ CRC32 ] [W/O NULL] [ LOG ]
– 79,8 [4E3F23D2] [77F76EC7]
01 76,3 [62F63CB3] [61C3966E] CRC32
02 64,1 [70BE6268] [83A61651] CRC32
03 43,8 [A3D3D317] [D9641F9C] CRC32
04 79,8 [70023A4A] [73437535] CRC32

foobar2000 1.2 / Dynamic Range Meter 1.1.1
log date: 2018-04-20 19:38:17

––––––––––––––––––––––––––––––––––––––––
Analyzed: R.E.M. / The One I Love (Limited Edition CD-Single)
––––––––––––––––––––––––––––––––––––––––

DR Peak RMS Duration Track
––––––––––––––––––––––––––––––––––––––––
DR13 -2.35 dB -18.58 dB 3:18 01-The One I Lov
DR14 -3.85 dB -19.15 dB 3:30 02-Driver Eight (live)
DR12 -7.16 dB -22.81 dB 3:43 03-Disturbance at the Heron House (live)
DR12 -1.95 dB -17.75 dB 3:02 04-Crazy
––––––––––––––––––––––––––––––––––––––––

Number of tracks: 4
Official DR value: DR13

Samplerate: 44100 Hz
Channels: 2
Bits per sample: 16
Bitrate: 915 kbps
Codec: FLAC
================================================================================

R.E.M. - The One I Love (1988) Limited Edition Single

R.E.M. - The One I Love (1988) Limited Edition Single