Tags
Language
Tags
July 2024
Su Mo Tu We Th Fr Sa
30 1 2 3 4 5 6
7 8 9 10 11 12 13
14 15 16 17 18 19 20
21 22 23 24 25 26 27
28 29 30 31 1 2 3

REO Speedwagon - R.E.O. (1976) {2011, 40th Anniversary Edition, Remastered, Japan}

Posted By: popsakov
REO Speedwagon - R.E.O. (1976) {2011, 40th Anniversary Edition, Remastered, Japan}

REO Speedwagon - R.E.O. (1976) {2011, 40th Anniversary Edition, Remastered, Japan}
EAC Rip | FLAC (Img) + Cue + Log ~ 321 Mb | MP3 CBR320 ~ 159 Mb
Full Scans | 00:33:25 | RAR 5% Recovery
Classic Rock | Epic / Sony Music Japan #EICP-1485

Due to it's album title, REO Speedwagon's 1976 release, REO, is often mistaken as being the band's debut album–but it was their sixth overall (1971's REO SPEEDWAGON was their inaugural release). The album marked the return of original singer Kevin Cronin, who would eventually help the band scale the top of the charts in just a few short years. But on REO, the newly reinstated vocalist had just begun to help the hard rockin' band hone their craft. "Keep Pushin'" would soon become a perennial concert standard, while other highlights include the hard-edged "Lightning" and "Our Time is Gonna Come."

~ All Music

***************

Track List:

01. Keep Pushin' [4:05]
02. Any Kind Of Love [3:40]
03. (Only A) Summer Love [4:40]
04. (I Believe) Our Time Is Gonna Come [5:04]
05. Breakaway [4:14]
06. Flying Turkey Trot [2:36]
07. Tonight [3:12]
08. Lightning [5:55]

Exact Audio Copy V1.0 beta 3 from 29. August 2011

EAC extraction logfile from 15. November 2011, 20:57

REO Speedwagon / R.E.O.

Used drive : HL-DT-STDVDRAM GSA-H60N Adapter: 2 ID: 0

Read mode : Secure
Utilize accurate stream : Yes
Defeat audio cache : Yes
Make use of C2 pointers : No

Read offset correction : 667
Overread into Lead-In and Lead-Out : No
Fill up missing offset samples with silence : Yes
Delete leading and trailing silent blocks : No
Null samples used in CRC calculations : Yes
Used interface : Native Win32 interface for Win NT & 2000

Used output format : Internal WAV Routines
Sample format : 44.100 Hz; 16 Bit; Stereo


TOC of the extracted CD

Track | Start | Length | Start sector | End sector
––––––––––––––––––––––––––––-
1 | 0:00.00 | 4:05.18 | 0 | 18392
2 | 4:05.18 | 3:39.60 | 18393 | 34877
3 | 7:45.03 | 4:40.09 | 34878 | 55886
4 | 12:25.12 | 5:04.22 | 55887 | 78708
5 | 17:29.34 | 4:13.39 | 78709 | 97722
6 | 21:42.73 | 2:35.45 | 97723 | 109392
7 | 24:18.43 | 3:12.04 | 109393 | 123796
8 | 27:30.47 | 5:54.47 | 123797 | 150393


Range status and errors

Selected range

Filename C:\Documents and Settings\Admin\Рабочий стол\REO Speedwagon 40 Anniversary Sony Music Japan 2011\1976 R.E.O\REO Speedwagon - R.E.O..wav

Peak level 100.0 %
Extraction speed 5.4 X
Range quality 100.0 %
Test CRC 60EF531B
Copy CRC 60EF531B
Copy OK

No errors occurred


AccurateRip summary

Track 1 not present in database
Track 2 not present in database
Track 3 not present in database
Track 4 not present in database
Track 5 not present in database
Track 6 not present in database
Track 7 not present in database
Track 8 not present in database

None of the tracks are present in the AccurateRip database

End of status report

==== Log checksum 79AE5EE756737F1EFCE67A199370BF675220134CD3197FEA36F0570A50ED4349 ====

[CUETools log; Date: 04.11.2018 2:15:36; Version: 2.1.6]
[CTDB TOCID: iZYn_3_z61MmTPT6U2ZhI4rIP_w-] found.
Track | CTDB Status
1 | (10/10) Accurately ripped
2 | (10/10) Accurately ripped
3 | (10/10) Accurately ripped
4 | (10/10) Accurately ripped
5 | (10/10) Accurately ripped
6 | (10/10) Accurately ripped
7 | (10/10) Accurately ripped
8 | (10/10) Accurately ripped
[AccurateRip ID: 000a35f6-0043f87d-5a07d508] found.
Track [ CRC | V2 ] Status
01 [a3162ad7|6bc03024] (0+5/5) Accurately ripped
02 [5573ee99|e9a794f6] (0+4/4) Accurately ripped
03 [69404bd7|5443132a] (0+4/4) Accurately ripped
04 [41805bf0|3bfe2190] (0+4/4) Accurately ripped
05 [e639f4d2|7445d7ff] (0+4/4) Accurately ripped
06 [80e64d8e|b8e4fe23] (0+4/4) Accurately ripped
07 [2163a1e3|85aaa3d4] (0+4/4) Accurately ripped
08 [274e3efc|22aa0534] (0+4/4) Accurately ripped

Track Peak [ CRC32 ] [W/O NULL] [ LOG ]
– 100,0 [60EF531B] [92D47D6D] CRC32
01 100,0 [7A8C638A] [012A0E99]
02 100,0 [2FBC9D5D] [572614F7]
03 100,0 [AF840D72] [4FD766AE]
04 100,0 [B325D23C] [112CA7BE]
05 100,0 [EB97CAB7] [D24CFC92]
06 100,0 [04499810] [417356E9]
07 100,0 [8F293B5C] [DDC98FD0]
08 100,0 [6512594E] [807B05C7]

All thanks go to ALLexxess

>>> REO Speedwagon in my Blog <<<

DOWNLOAD: