Subcategories

Red Hot Chili Peppers - The Red Hot Chili Peppers (1984) [Japanese SHM-CD, Remastrered Reissue 2008] Re-Up

Posted By: Designol
Red Hot Chili Peppers - The Red Hot Chili Peppers (1984) [Japanese SHM-CD, Remastrered Reissue 2008] Re-Up

Red Hot Chili Peppers - The Red Hot Chili Peppers (1984) [Japanese SHM-CD, 2008]
EAC | FLAC | Image (Cue&Log) ~ 330 Mb | Mp3 (CBR320) ~ 111 Mb | Scans ~ 110 Mb
Funk Rock, Funk Punk, Alternative Rock | Label: EMI Music Japan | # TOCP 95028 | 00:45:59

The Red Hot Chili Peppers is the debut studio album by Red Hot Chili Peppers, released on August 10, 1984 on EMI Records. The album was produced by Gang of Four guitarist Andy Gill, and is the only album to feature Jack Sherman on guitar who was fired by the band at the end of the tour in support of the album and replaced by founding member, Hillel Slovak.

This album is their first, and one of their finest. This is a very different Red Hot Chili Peppers than their present day music, but every bit as good. Twenty years after its release, it holds up powerfully.

If you have never heard "True Men Don't Kill Coyotes," you are missing one of the finest Hollywood/Southern California anthems ever written. Pop? Rap? Rock? I honestly think there is no way to properly classify this song, it's the perfect tune to announce the rival of the Chili Peppers, and pretty much personifies their offbeat charge into the music world.

You can find the abovementioned song on one of their "Best Of" albums, but the rest of the songs on this CD are too good to pass off. The mightiest tracks are 1 through 6, with "Buckle Down" and the overdrive-paced "Get Up and Jump" stealing the show. The diversity of the songs on these first six tracks is impressive.

The Chili Peppers were such a rush of fresh air when they hit the scene in 1984. I remember a plethora of heavy metal and new wave all over the airwaves & record stores; some good, lots bad. No new group, however, crashed the music scene that year quite like The Red Hot Chili Peppers. Pick up this CD and compare it to the playlists of the mid 1980s, and I bet the sheer contrast will show you what a cutting edge band The Red Hot Chili Peppers were when they hit the scene.

Give this album a chance, and I think you will find that the Red Hot Chili Peppers didn't get better with time: they started out great, and since then have tinkered with their musical style, all the while keeping their unmistakable Funky spirits in full force. Yes, The Red Hots still have "Baby Appeal!"

Review by K. Brown

Red Hot Chili Peppers - The Red Hot Chili Peppers (1984) [Japanese SHM-CD, Remastrered Reissue 2008] Re-Up



Tracklist:

01. True Men Don't Kill Coyotes (03:40)
02. Baby Appeal (03:40)
03. Buckle Down (03:24)
04. Get Up And Jump (02:53)
05. Why Don't You Love Me (03:25)
06. Green Heaven (03:59)
07. Mommy Where's Daddy (03:31)
08. Out In L.A. (02:00)
09. Police Helicopter (01:16)
10. You Always Sing The Same (00:19)
11. Grand Pappy Du Plenty (04:14)
12. Get Up And Jump (demo) (02:37)
13. Police Helicopter (demo) (01:12)
14. Out In L.A. (demo) (01:56)
15. Green Heaven (demo) (03:50)
16. What It Is [aka Nina's Song] (demo) (03:57)


Exact Audio Copy V1.0 beta 3 from 29. August 2011

EAC extraction logfile from 10. March 2012, 19:41

Red Hot Chili Peppers / The Red Hot Chili Peppers (remastered 2003)

Used drive : TEAC DV-W516GD Adapter: 1 ID: 0

Read mode : Secure
Utilize accurate stream : Yes
Defeat audio cache : Yes
Make use of C2 pointers : No

Read offset correction : 6
Overread into Lead-In and Lead-Out : No
Fill up missing offset samples with silence : Yes
Delete leading and trailing silent blocks : No
Null samples used in CRC calculations : Yes
Used interface : Installed external ASPI interface

Used output format : Internal WAV Routines
Sample format : 44.100 Hz; 16 Bit; Stereo


TOC of the extracted CD

Track | Start | Length | Start sector | End sector
––––––––––––––––––––––––––––-
1 | 0:00.00 | 3:40.30 | 0 | 16529
2 | 3:40.30 | 3:40.62 | 16530 | 33091
3 | 7:21.17 | 3:24.20 | 33092 | 48411
4 | 10:45.37 | 2:53.30 | 48412 | 61416
5 | 13:38.67 | 3:25.03 | 61417 | 76794
6 | 17:03.70 | 3:59.10 | 76795 | 94729
7 | 21:03.05 | 3:31.25 | 94730 | 110579
8 | 24:34.30 | 2:00.37 | 110580 | 119616
9 | 26:34.67 | 1:16.39 | 119617 | 125355
10 | 27:51.31 | 0:19.21 | 125356 | 126801
11 | 28:10.52 | 4:14.43 | 126802 | 145894
12 | 32:25.20 | 2:37.35 | 145895 | 157704
13 | 35:02.55 | 1:12.17 | 157705 | 163121
14 | 36:14.72 | 1:56.05 | 163122 | 171826
15 | 38:11.02 | 3:50.35 | 171827 | 189111
16 | 42:01.37 | 3:57.65 | 189112 | 206951


Range status and errors

Selected range

Filename D:\Red Hot Chili Peppers - The Red Hot Chili Peppers (remastered 2003)\Red Hot Chili Peppers - The Red Hot Chili Peppers.wav

Peak level 98.8 %
Extraction speed 2.4 X
Range quality 100.0 %
Test CRC 996417E2
Copy CRC 996417E2
Copy OK

No errors occurred


AccurateRip summary

Track 1 cannot be verified as accurate (confidence 4) [4EA6632D], AccurateRip returned [D30D4B01] (AR v2)
Track 2 cannot be verified as accurate (confidence 4) [F771984A], AccurateRip returned [FC2FCDAF] (AR v2)
Track 3 cannot be verified as accurate (confidence 4) [947738D4], AccurateRip returned [4996CF0D] (AR v2)
Track 4 cannot be verified as accurate (confidence 4) [FC4ED462], AccurateRip returned [F8DB0A49] (AR v2)
Track 5 cannot be verified as accurate (confidence 4) [E0F44AD3], AccurateRip returned [18A6E694] (AR v2)
Track 6 cannot be verified as accurate (confidence 4) [1197696F], AccurateRip returned [8C8799AD] (AR v2)
Track 7 cannot be verified as accurate (confidence 4) [B8E7225B], AccurateRip returned [FBD5FC05] (AR v2)
Track 8 cannot be verified as accurate (confidence 4) [BE1808F6], AccurateRip returned [3C240B89] (AR v2)
Track 9 cannot be verified as accurate (confidence 4) [FDB9DC4C], AccurateRip returned [286ABC17] (AR v2)
Track 10 cannot be verified as accurate (confidence 4) [80FD7388], AccurateRip returned [54E5D429] (AR v2)
Track 11 cannot be verified as accurate (confidence 4) [29DD68AF], AccurateRip returned [6AD34035] (AR v2)
Track 12 cannot be verified as accurate (confidence 4) [0EA4BDF1], AccurateRip returned [56F317CD] (AR v2)
Track 13 cannot be verified as accurate (confidence 4) [08080B4A], AccurateRip returned [F8A30A47] (AR v2)
Track 14 cannot be verified as accurate (confidence 4) [9567C367], AccurateRip returned [461F35D3] (AR v2)
Track 15 cannot be verified as accurate (confidence 4) [440E2D47], AccurateRip returned [6A1ED0DC] (AR v2)
Track 16 cannot be verified as accurate (confidence 4) [FDCB9FFC], AccurateRip returned [5DFB6EC9] (AR v2)

No tracks could be verified as accurate
You may have a different pressing from the one(s) in the database

End of status report

==== Log checksum E715FEDA79C429811AC824AE83B5E20847D83FDC525D3E8EF70E5A21545A4529 ====

foobar2000 1.2 / Dynamic Range Meter 1.1.1
log date: 2015-01-23 23:51:22

––––––––––––––––––––––––––––––––––––––––
Analyzed: Red Hot Chili Peppers / The Red Hot Chili Peppers (remastered 2003)
––––––––––––––––––––––––––––––––––––––––

DR Peak RMS Duration Track
––––––––––––––––––––––––––––––––––––––––
DR6 -0.10 dB -7.97 dB 3:40 01-True Men Don't Kill Coyotes
DR7 -0.10 dB -8.80 dB 3:41 02-Baby Appeal
DR7 -0.24 dB -9.28 dB 3:24 03-Buckle Down
DR8 -0.70 dB -9.65 dB 2:53 04-Get Up And Jump
DR7 -0.20 dB -9.35 dB 3:25 05-Why Don't You Love Me
DR8 -0.57 dB -10.58 dB 3:59 06-Green Heaven
DR8 -0.86 dB -10.89 dB 3:31 07-Mommy Where's Daddy
DR7 -0.46 dB -9.41 dB 2:00 08-Out In L.A.
DR7 -0.73 dB -9.65 dB 1:17 09-Police Helicopter
DR6 -0.50 dB -9.58 dB 0:19 10-You Always Sing The Same
DR10 -0.56 dB -13.47 dB 4:15 11-Grand Pappy Du Plenty
DR8 -0.20 dB -9.86 dB 2:37 12-Get Up And Jump (demo)
DR8 -0.20 dB -9.46 dB 1:12 13-Police Helicopter (demo)
DR7 -0.20 dB -8.57 dB 1:56 14-Out In L.A. (demo)
DR7 -0.20 dB -8.54 dB 3:50 15-Green Heaven (demo)
DR10 -0.20 dB -10.70 dB 3:58 16-What It Is [aka Nina's Song] (demo)
––––––––––––––––––––––––––––––––––––––––

Number of tracks: 16
Official DR value: DR8

Samplerate: 44100 Hz
Channels: 2
Bits per sample: 16
Bitrate: 959 kbps
Codec: FLAC
================================================================================

Red Hot Chili Peppers - The Red Hot Chili Peppers (1984) [Japanese SHM-CD, Remastrered Reissue 2008] Re-Up

Red Hot Chili Peppers - The Red Hot Chili Peppers (1984) [Japanese SHM-CD, Remastrered Reissue 2008] Re-Up