Tags
Language
Tags

Ravi Shankar - Portrait Of Genius (1964) Remastered Reissue 1998

Posted By: Designol
Ravi Shankar - Portrait Of Genius (1964) Remastered Reissue 1998

Ravi Shankar - Portrait Of Genius (1964) Remastered Reissue 1998
EAC | FLAC | Image (Cue&Log) ~ 233 Mb | Mp3 (CBR320) ~ 123 Mb | Scans included
Label: Angel Records | # 7243 5 66918 2 7 | Time: 00:39:32
Indian Classical, Hindustani, Raga

Ravi Shankar has been described as one of the greatest musicians on the planet. This record, one of his classic World Pacific albums, clearly lends credence to that statement. But the thing that makes this record interesting is the fact that it contains a unique fusion of Shankar and his group performing with respected jazz flutist Paul Horn. It's an extremely gratifying combination, and Horn plays with a true jazzman's restraint on the five short selections that open the record. The second half is devoted to one long (20 minute) traditional raga, "Raga Multani," in which Shankar's awesome ability and stamina is matched only by that of his ensemble, especially Alla Rakha on tabla. Essential for any fan of Shankar or Indian music. Awesome.

Review by Matthew Greenwald, Allmusic.com

Ravi Shankar - Portrait Of Genius (1964) Remastered Reissue 1998



Tracklist:

01. Tala Rasa Ranga (2:58)
02. Dhun (2:47)
03. Tabla-Dhwani (4:53)
04. Song from the Hills (3:00)
05. Tala-Tabla Tarang (3:31)
06. Gat Kirwani (2:40)
07. Raga Multani (19:42)


Exact Audio Copy V0.99 prebeta 5 from 4. May 2009

Отчёт EAC об извлечении, выполненном 17. июня 2010, 10:06

Ravi Shankar / Portrait of Genius

Дисковод: TSSTcorpCDDVDW SH-S223Q Adapter: 0 ID: 0

Режим чтения : Достоверность
Использование точного потока : Да
Отключение кэша аудио : Да
Использование указателей C2 : Нет

Коррекция смещения при чтении : 6
Способность читать области Lead-in и Lead-out : Нет
Заполнение пропущенных сэмплов тишиной : Да
Удаление блоков с тишиной в начале и конце : Нет
При вычислениях CRC использовались нулевые сэмплы : Да
Интерфейс : Встроенный Win32-интерфейс для Win NT/2000

Выходной формат : Пользовательский кодировщик
Выбранный битрейт : 768 kBit/s
Качество : Высокий
Добавление ID3-тэга : Нет
Утилита сжатия : C:\Program Files (x86)\Exact Audio Copy\FLAC\FLAC.EXE
Дополнительные параметры : -6 -V -T "ARTIST=%a" -T "TITLE=%t" -T "ALBUM=%g" -T "DATE=%y" -T "TRACKNUMBER=%n" -T "GENRE=%m" -T "COMMENT=%e" %s -o %d


TOC извлечённого CD

Трек | Старт | Длительность | Начальный сектор | Конечный сектор
––––––––––––––––––––––––––––––––––-
1 | 0:00.32 | 2:58.25 | 32 | 13406
2 | 2:58.57 | 2:47.25 | 13407 | 25956
3 | 5:46.07 | 4:52.48 | 25957 | 47904
4 | 10:38.55 | 3:00.25 | 47905 | 61429
5 | 13:39.05 | 3:31.10 | 61430 | 77264
6 | 17:10.15 | 2:40.12 | 77265 | 89276
7 | 19:50.27 | 19:41.73 | 89277 | 177924


Характеристики диапазона извлечения и сообщения об ошибках

Выбранный диапазон

Имя файла C:\Users\BRAHMAN\Desktop\Ravi Shankar - Portrait of Genius.wav

Пиковый уровень 81.9 %
Качество диапазона 100.0 %
CRC теста D3F3304E
CRC копии D3F3304E
Копирование… OK

Ошибок не произошло


AccurateRip: сводка

Трек 1 нет в базе данных
Трек 2 нет в базе данных
Трек 3 нет в базе данных
Трек 4 нет в базе данных
Трек 5 нет в базе данных
Трек 6 нет в базе данных
Трек 7 нет в базе данных

Ни одного трека нет в базе AccurateRip

Конец отчёта

[CUETools log; Date: 25.10.2019 16:34:34; Version: 2.1.4]
Pregap length 00:00:32.
[CTDB TOCID: B0fNYbBV6zD2Hhyv_HfswAmHJIo-] found.
Track | CTDB Status
1 | (10/10) Accurately ripped
2 | (10/10) Accurately ripped
3 | (10/10) Accurately ripped
4 | (10/10) Accurately ripped
5 | (10/10) Accurately ripped
6 | (10/10) Accurately ripped
7 | (10/10) Accurately ripped
[AccurateRip ID: 0007868e-002f8998-42094407] found.
Track [ CRC | V2 ] Status
01 [bfaf4b96|31e052c5] (03+00/11) Accurately ripped
02 [5d9df0a0|1a3b3c30] (03+00/11) Accurately ripped
03 [9b35939b|35558814] (03+00/11) Accurately ripped
04 [73a83a2d|ee9692c0] (03+00/11) Accurately ripped
05 [c32a5d2d|2a4a0a24] (03+00/11) Accurately ripped
06 [fd2f791a|d60fdcd8] (03+00/11) Accurately ripped
07 [bbc605b6|80fb1fff] (03+00/10) Accurately ripped
Offsetted by 1314:
01 [8ea028cc] (02/11) Accurately ripped
02 [f6cabeca] (02/11) Accurately ripped
03 [adab3c85] (02/11) Accurately ripped
04 [f1f33a37] (02/11) Accurately ripped
05 [7838037f] (02/11) Accurately ripped
06 [2e78a036] (02/11) Accurately ripped
07 [82f03494] (02/10) Accurately ripped
Offsetted by 681:
01 [221cb186] (00/11) No match (V2 was not tested)
02 [2a146e2d] (00/11) No match (V2 was not tested)
03 [81b52f88] (00/11) No match (V2 was not tested)
04 [33f0ff2a] (00/11) No match (V2 was not tested)
05 [83c67aae] (00/11) No match (V2 was not tested)
06 [6ae494f8] (00/11) No match (V2 was not tested)
07 [de068d0d] (00/10) No match (V2 was not tested)

Track Peak [ CRC32 ] [W/O NULL] [ LOG ]
– 81,9 [D3F3304E] [93091C30] CRC32
01 81,9 [C4FBE552] [6C1F4F5A]
02 51,6 [A681C535] [F06B9F05]
03 80,8 [6E7081ED] [8A6A6ACD]
04 60,6 [BE43D9F8] [9811346B]
05 71,6 [071C75B9] [2E6E9E0C]
06 67,1 [D20C19C5] [A8CC2705]
07 70,7 [B03F286B] [65B14773]

foobar2000 1.2 / Dynamic Range Meter 1.1.1
log date: 2019-10-25 16:35:10

––––––––––––––––––––––––––––––––––––––––
Analyzed: Ravi Shankar / Portrait of Genius
––––––––––––––––––––––––––––––––––––––––

DR Peak RMS Duration Track
––––––––––––––––––––––––––––––––––––––––
DR15 -1.73 dB -20.71 dB 2:58 01-Tala Rasa Ranga
DR14 -5.74 dB -22.66 dB 2:47 02-Dhun
DR16 -1.85 dB -22.41 dB 4:53 03-Tabla-Dhwani
DR15 -4.34 dB -22.96 dB 3:00 04-Song from the Hills
DR18 -2.90 dB -23.24 dB 3:31 05-Tala-Tabla Tarang
DR14 -3.46 dB -20.88 dB 2:40 06-Gat Kirwani
DR15 -3.01 dB -21.69 dB 19:42 07-Raga Multani
––––––––––––––––––––––––––––––––––––––––

Number of tracks: 7
Official DR value: DR15

Samplerate: 44100 Hz
Channels: 2
Bits per sample: 16
Bitrate: 708 kbps
Codec: FLAC
================================================================================

Ravi Shankar - Portrait Of Genius (1964) Remastered Reissue 1998

Ravi Shankar - Portrait Of Genius (1964) Remastered Reissue 1998