Tags
Language
Tags

Rod Stewart - The Rod Stewart Sessions 1971-1998 (2009) 4CD Box Set

Posted By: Designol
Rod Stewart - The Rod Stewart Sessions 1971-1998 (2009) 4CD Box Set

Rod Stewart - The Rod Stewart Sessions 1971-1998 (2009) 4CD Box Set
EAC | FLAC | Image (Cue&Log) ~ 1.8 Gb | Mp3 (CBR320) ~ 720 Mb | Scans included
Label: Warner Bros. | # 8122 79853 8 | Time: 05:07:19
Classic Rock, Pop Rock, Folk Rock, Soul, Blues

Warner Bros. goes deep into the vaults to reveal the secret studio history of this very public performer with a boxed set of unreleased recordings chosen from sessions spanning 1971-1998. Encompassing more than 25 years, this collection's 63 songs, outtakes, and ephemera provide extraordinary insight into the studio work of one of rock's legendary figures and paints a picture of what might have been. Many of these performances are more stripped-down and intimate than their released counterparts, so the set becomes an illustration and a showcase of Rod's creative process.

The side-effect of Rod Stewart's superstardom has been that few take him seriously as an artist. Rhino's four-disc box, The Rod Stewart Sessions, is designed to prompt re-evaluation, showcasing an artist at work: an artist writing lyrics, stretching out melodies, changing arrangements, anything he can do to get a piece of music to work. This, naturally, is not passive listening; although the differences are often notable, especially on the earliest tracks, it demands attention because so many of these are working tracks, not finished masters. As the set winds to a conclusion in the late '90s – the last album covered is Rod's Brit-pop homage When We Were the New Boys, tellingly also the last rock & roll album he's made as of this 2009 release – outtakes begin to outnumber the rough cuts, and there are some good ones, including takes on Paul Weller's "Changingman" and Oasis' "Rocking Chair." Still, it takes a little bit of effort to get there, as the set dips in interest during the mid-'80s, when Rod hit a creative lull, but that is easily overshadowed, as it always is, by the glory of his '70s work. Here, there's an undeniable charge in hearing Rod muck about in the studio, figuring out the words for "Maggie May" and "You Wear It Well," figuring out how to give "Los Paraguayos" a kick, joking around on the music hall romp "My Dad's Trouser." True, this is all the province of the dedicated, but for those curious listeners who decide to wade into these deep waters, they will indeed find a sharp, engaged, interpretive singer and songwriter, the artist who has been obscured in the wake of Rod's superstardom.

Review by Stephen Thomas Erlewine, Allmusic.com

Rod Stewart - The Rod Stewart Sessions 1971-1998 (2009) 4CD Box Set



Tracklist:

CD1 (1:14:23)

01. Maggie May (Early Version) (5:28)
02. Seems Like A Long Time (Alternate Version) (4:07)
03. Italian Girls (Early Version) (5:03)
04. You Wear It Well (Early Version) (5:01)
05. Lost Paraguayos (Alternate Version) (4:17)
06. I'd Rather Go Blind (Alternate Version) (5:02)
07. Angel (Alternate Version) (4:08)
08. Think I'll Pack My Bags (early Version of 'Mystifiles My') (3:31)
09. Farewell (Early Version) (5:21)
10. Girl From The North Country (Alternate Version) (3:38)
11. (You Make Me Feel Like) A Natural Man (Alternate Version (4:21)
12. So Tired (Early Version) (4:06)
13. This Old Heart Of Mine (Alternate Version) (4:17)
14. To Love Somebody (Early Version) (5:10)
15. Sailing (Alternate Version (4:58)
16. Tonight The Night (Gonna Be Alright) (early Version) (4:51)
17. My Dad's Trousers (1:05)


CD2 (1:17:41)

01. The First Cut Is The Deepest (Alternate Version) (4:48)
02. Rosie (Acoustic Version) (3:59)
03. Innocent (The Killing Of Georgie Part 3) (6:39)
04. Hot Legs (Early Take) (5:16)
05. You're In My Heart (The Final Acclaim) (Acoustic Version) (4:36)
06. I Was Only Joking (Early Take) (6:34)
07. Scarred & Scared (Early Take) (5:48)
08. When I'm Away From You (4:19)
09. Oh God, I Wish I Was Home Tonight (Early Version) (5:39)
10. Time Of My Life (5:27)
11. TV Mama (5:00)
12. Mabybe Baby (3:17)
13. Stupid (4:35)
14. Guess I'll Always Love You (5:08)
15. The Great Pretender (2:57)
16. It's Coming Out Your Royalties (3:41)


CD3 (1:16:50)

01. Thunderbird (6:55)
02. Dancing Alone (Alternate Version) (5:07)
03. I Wish You Would (4:04)
04. Sweet Surrender (Alternate Version) (4:57)
05. Show Me (4:38)
06. Ghetto Blaster (Early Version) (4:29)
07. Satisfied (Alternate Version) (4:28)
08. Hard Lesson To Learn (Alternate Version) (6:35)
09. Heaven (7:46)
10. In My Life (Piano Version) (2:04)
11. Love Is A Four Letter Word (3:46)
12. Forever Young (Piano Version) (4:32)
13. My Heart Can't Tell You No (Alternate Version) (5:52)
14. I Go To Jail For You (3:56)
15. A Good Lover Is Hard To Find (6:41)
16. 'E Or A' (1:01)


CD4 (1:18:25)

01. Let The Day Begin (Alternate Version) (4:45)
02. The Grooms Still Waiting At The Altar (Alternate Version) (4:03)
03. Windy Town (Piano Version) (4:26)
04. In A Broken Dream (1992) (5:26)
05. This Wheel's On Fire (5:00)
06. I Wanna Stay Home (5:08)
07. I'm A King Bee (3:59)
08. Looking For Love (4:24)
09. Kiss Her For Me (3:56)
10. The Long Journey Home (5:11)
11. Now That You're On Your Own (4:37)
12. Dylan's Day Off (4:36)
13. On And On (4:23)
14. Rockin' Chair (4:31)
15. Sugar Lips (2:36)
16. The Changgingman (4:12)
17. May You Never (3:49)
18. Studio Chatter (Hidden Track) (1:32)
19. Rod Plays Guitar (Hidden Track) (1:50)


Exact Audio Copy V0.99 prebeta 5 from 4. May 2009

EAC extraction logfile from 25. September 2009, 16:14

Rod Stewart / The Rod Stewart Sessions 1971-1998 (CD 1)

Used drive : DVDRW DRW-6S160P Adapter: 1 ID: 0

Read mode : Secure
Utilize accurate stream : Yes
Defeat audio cache : Yes
Make use of C2 pointers : No

Read offset correction : 6
Overread into Lead-In and Lead-Out : No
Fill up missing offset samples with silence : Yes
Delete leading and trailing silent blocks : No
Null samples used in CRC calculations : Yes
Used interface : Native Win32 interface for Win NT & 2000

Used output format : Monkey's Audio Lossless Encoder
Selected bitrate : High Lossless Compression
Quality : High
Add ID3 tag : No
Command line compressor : C:\Program Files\Monkey's Audio\MAC.exe
Additional command line options : -v


TOC of the extracted CD

Track | Start | Length | Start sector | End sector
––––––––––––––––––––––––––––-
1 | 0:00.00 | 5:27.65 | 0 | 24589
2 | 5:27.65 | 4:07.06 | 24590 | 43120
3 | 9:34.71 | 5:03.06 | 43121 | 65851
4 | 14:38.02 | 5:00.61 | 65852 | 88412
5 | 19:38.63 | 4:16.55 | 88413 | 107667
6 | 23:55.43 | 5:01.68 | 107668 | 130310
7 | 28:57.36 | 4:07.63 | 130311 | 148898
8 | 33:05.24 | 3:31.21 | 148899 | 164744
9 | 36:36.45 | 5:20.64 | 164745 | 188808
10 | 41:57.34 | 3:38.06 | 188809 | 205164
11 | 45:35.40 | 4:20.72 | 205165 | 224736
12 | 49:56.37 | 4:06.21 | 224737 | 243207
13 | 54:02.58 | 4:17.09 | 243208 | 262491
14 | 58:19.67 | 5:09.74 | 262492 | 285740
15 | 63:29.66 | 4:57.53 | 285741 | 308068
16 | 68:27.44 | 4:50.58 | 308069 | 329876
17 | 73:18.27 | 1:04.64 | 329877 | 334740


Range status and errors

Selected range

Filename D:\My Documents\Rod Stewart - The Rod Stewart Sessions 1971-1998 (CD 1).wav

Peak level 98.8 %
Range quality 100.0 %
Copy CRC B1F42124
Copy OK

No errors occurred


AccurateRip summary

Track 1 not present in database
Track 2 not present in database
Track 3 not present in database
Track 4 not present in database
Track 5 not present in database
Track 6 not present in database
Track 7 not present in database
Track 8 not present in database
Track 9 not present in database
Track 10 not present in database
Track 11 not present in database
Track 12 not present in database
Track 13 not present in database
Track 14 not present in database
Track 15 not present in database
Track 16 not present in database
Track 17 not present in database

None of the tracks are present in the AccurateRip database

End of status report

[CUETools log; Date: 15.05.2018 19:33:35; Version: 2.1.4]
[CTDB TOCID: PwTAdSwjZeaJK7W.IQkn3BFqk10-] found.
Track | CTDB Status
1 | (30/30) Accurately ripped
2 | (30/30) Accurately ripped
3 | (30/30) Accurately ripped
4 | (30/30) Accurately ripped
5 | (30/30) Accurately ripped
6 | (30/30) Accurately ripped
7 | (30/30) Accurately ripped
8 | (30/30) Accurately ripped
9 | (30/30) Accurately ripped
10 | (30/30) Accurately ripped
11 | (30/30) Accurately ripped
12 | (30/30) Accurately ripped
13 | (30/30) Accurately ripped
14 | (30/30) Accurately ripped
15 | (30/30) Accurately ripped
16 | (30/30) Accurately ripped
17 | (29/30) Accurately ripped
[AccurateRip ID: 003029d6-025ce71a-06116f11] found.
Track [ CRC | V2 ] Status
01 [8eca32d8|cac7da18] (13+12/38) Accurately ripped
02 [c311a872|3012c51d] (13+12/38) Accurately ripped
03 [f0fd0ddd|21dfff7a] (13+12/38) Accurately ripped
04 [8fb16702|5b886658] (13+12/38) Accurately ripped
05 [95f7de82|c91cd21c] (13+12/38) Accurately ripped
06 [3d71f8ea|b70e84f4] (13+12/38) Accurately ripped
07 [b10e9ea9|6a0378a4] (13+12/38) Accurately ripped
08 [493216e6|5d9c7a7b] (13+12/38) Accurately ripped
09 [05064a0f|b6195713] (13+12/38) Accurately ripped
10 [06db4b53|b0a0baff] (13+12/39) Accurately ripped
11 [6ed96bdd|eb0985d1] (13+12/38) Accurately ripped
12 [0c6f1366|85e322f9] (13+12/38) Accurately ripped
13 [8adbdbbc|7f27bb81] (13+12/38) Accurately ripped
14 [f00c921a|3aa4254f] (13+13/39) Accurately ripped
15 [0339f520|2fc72273] (13+13/39) Accurately ripped
16 [738936f7|224e57ed] (13+12/39) Accurately ripped
17 [43d13702|c3cf96cc] (13+11/38) Accurately ripped
Offsetted by -6:
01 [c74bb8ec] (07/38) Accurately ripped
02 [bed76652] (07/38) Accurately ripped
03 [d4b8ba6b] (07/38) Accurately ripped
04 [f004ea0c] (07/38) Accurately ripped
05 [a036537e] (07/38) Accurately ripped
06 [e0bd228a] (07/38) Accurately ripped
07 [a46314c1] (07/38) Accurately ripped
08 [08ff0c8e] (07/38) Accurately ripped
09 [7cc97621] (07/38) Accurately ripped
10 [4e14c10f] (08/39) Accurately ripped
11 [b869c167] (07/38) Accurately ripped
12 [a0d89d2c] (07/38) Accurately ripped
13 [41626ee6] (07/38) Accurately ripped
14 [965cadf0] (07/39) Accurately ripped
15 [3ae51dbc] (07/39) Accurately ripped
16 [b19c5bf7] (08/39) Accurately ripped
17 [46f66646] (08/38) Accurately ripped

Track Peak [ CRC32 ] [W/O NULL] [ LOG ]
– 98,8 [B1F42124] [75882D0C] CRC32
01 98,8 [073CA3AD] [DF13353E]
02 98,8 [F4E73FD6] [BE391F85]
03 96,1 [07955749] [6276FBCB]
04 98,8 [BC2713E8] [33F5713F]
05 94,4 [F4BCCC92] [DDA70454]
06 98,8 [C9AA798A] [CE54E7E6]
07 98,8 [63492CF7] [E40554EB]
08 98,8 [2A98F2C8] [60459CC3]
09 93,3 [BAB3E311] [0B310329]
10 98,8 [49AEA4F6] [9A703D71]
11 98,8 [F1A10D22] [8C07B7A8]
12 98,8 [ECFF47E5] [88E8D950]
13 92,5 [E8663406] [C0EAF664]
14 97,8 [E6C6B274] [E1F99A71]
15 98,8 [04B35120] [AA9435DC]
16 95,3 [DB6B8F91] [2AB35F0E]
17 70,3 [091C55A1] [D6D1995C]

foobar2000 1.2 / Dynamic Range Meter 1.1.1
log date: 2018-05-15 21:41:00

––––––––––––––––––––––––––––––––––––––––
Analyzed: Rod Stewart / The Rod Stewart Sessions 1971-1998 (CD 1)
––––––––––––––––––––––––––––––––––––––––

DR Peak RMS Duration Track
––––––––––––––––––––––––––––––––––––––––
DR10 -0.10 dB -13.04 dB 5:28 01-Maggie May (Early Version)
DR11 -0.10 dB -15.05 dB 4:07 02-Seems Like A Long Time (Alternate Version)
DR11 -0.34 dB -14.77 dB 5:03 03-Italian Girls (Early Version)
DR12 -0.10 dB -13.82 dB 5:01 04-You Wear It Well (Early Version)
DR11 -0.50 dB -14.45 dB 4:17 05-Lost Paraguayos (Alternate Version)
DR12 -0.10 dB -14.91 dB 5:02 06-I'd Rather Go Blind (Alternate Version)
DR10 -0.10 dB -12.72 dB 4:08 07-Angel (Alternate Version)
DR12 -0.10 dB -14.00 dB 3:31 08-Think I'll Pack My Bags (early Version of 'Mystifiles My')
DR10 -0.60 dB -13.00 dB 5:21 09-Farewell (Early Version)
DR12 -0.10 dB -15.14 dB 3:38 10-Girl From The North Country (Alternate Version)
DR12 -0.10 dB -15.97 dB 4:21 11-(You Make Me Feel Like) A Natural Man (Alternate Version
DR12 -0.10 dB -15.54 dB 4:06 12-So Tired (Early Version)
DR11 -0.68 dB -14.10 dB 4:17 13-This Old Heart Of Mine (Alternate Version)
DR12 -0.19 dB -14.36 dB 5:10 14-To Love Somebody (Early Version)
DR11 -0.10 dB -14.67 dB 4:58 15-Sailing (Alternate Version
DR11 -0.41 dB -14.41 dB 4:51 16-Tonight The Night (Gonna Be Alright) (early Version)
DR7 -3.06 dB -15.02 dB 1:05 17-My Dad's Trousers
––––––––––––––––––––––––––––––––––––––––

Number of tracks: 17
Official DR value: DR11

Samplerate: 44100 Hz
Channels: 2
Bits per sample: 16
Bitrate: 787 kbps
Codec: FLAC
================================================================================


Exact Audio Copy V0.99 prebeta 5 from 4. May 2009

EAC extraction logfile from 25. September 2009, 16:51

Rod Stewart / The Rod Stewart Sessions (CD 2)

Used drive : DVDRW DRW-6S160P Adapter: 1 ID: 0

Read mode : Secure
Utilize accurate stream : Yes
Defeat audio cache : Yes
Make use of C2 pointers : No

Read offset correction : 6
Overread into Lead-In and Lead-Out : No
Fill up missing offset samples with silence : Yes
Delete leading and trailing silent blocks : No
Null samples used in CRC calculations : Yes
Used interface : Native Win32 interface for Win NT & 2000

Used output format : Monkey's Audio Lossless Encoder
Selected bitrate : High Lossless Compression
Quality : High
Add ID3 tag : No
Command line compressor : C:\Program Files\Monkey's Audio\MAC.exe
Additional command line options : -v


TOC of the extracted CD

Track | Start | Length | Start sector | End sector
––––––––––––––––––––––––––––-
1 | 0:00.00 | 4:47.57 | 0 | 21581
2 | 4:47.57 | 3:58.56 | 21582 | 39487
3 | 8:46.38 | 6:38.46 | 39488 | 69383
4 | 15:25.09 | 5:15.64 | 69384 | 93072
5 | 20:40.73 | 4:35.41 | 93073 | 113738
6 | 25:16.39 | 6:33.61 | 113739 | 143274
7 | 31:50.25 | 5:47.66 | 143275 | 169365
8 | 37:38.16 | 4:18.43 | 169366 | 188758
9 | 41:56.59 | 5:39.17 | 188759 | 214200
10 | 47:36.01 | 5:26.39 | 214201 | 238689
11 | 53:02.40 | 5:00.03 | 238690 | 261192
12 | 58:02.43 | 3:16.54 | 261193 | 275946
13 | 61:19.22 | 4:35.34 | 275947 | 296605
14 | 65:54.56 | 5:08.02 | 296606 | 319707
15 | 71:02.58 | 2:56.72 | 319708 | 332979
16 | 73:59.55 | 3:40.66 | 332980 | 349545


Range status and errors

Selected range

Filename D:\My Documents\Rod Stewart - The Rod Stewart Sessions (CD 2).wav

Peak level 98.8 %
Range quality 100.0 %
Copy CRC C016388F
Copy OK

No errors occurred


AccurateRip summary

Track 1 not present in database
Track 2 not present in database
Track 3 not present in database
Track 4 not present in database
Track 5 not present in database
Track 6 not present in database
Track 7 not present in database
Track 8 not present in database
Track 9 not present in database
Track 10 not present in database
Track 11 not present in database
Track 12 not present in database
Track 13 not present in database
Track 14 not present in database
Track 15 not present in database
Track 16 not present in database

None of the tracks are present in the AccurateRip database

End of status report

[CUETools log; Date: 15.05.2018 19:34:02; Version: 2.1.4]
[CTDB TOCID: 3mUh9w9o0oSEMcMbVBmSrWXVsvE-] found.
Track | CTDB Status
1 | (29/29) Accurately ripped
2 | (29/29) Accurately ripped
3 | (29/29) Accurately ripped
4 | (29/29) Accurately ripped
5 | (29/29) Accurately ripped
6 | (29/29) Accurately ripped
7 | (29/29) Accurately ripped
8 | (29/29) Accurately ripped
9 | (29/29) Accurately ripped
10 | (29/29) Accurately ripped
11 | (29/29) Accurately ripped
12 | (29/29) Accurately ripped
13 | (29/29) Accurately ripped
14 | (29/29) Accurately ripped
15 | (29/29) Accurately ripped
16 | (29/29) Accurately ripped
[AccurateRip ID: 002fb8f1-0239ee1d-f5123410] found.
Track [ CRC | V2 ] Status
01 [ffb7c1d4|d5164362] (13+12/39) Accurately ripped
02 [19d7933f|8a6d9394] (13+12/38) Accurately ripped
03 [d7cd42f7|36194aac] (13+12/38) Accurately ripped
04 [4642f955|e7e97d3c] (13+12/38) Accurately ripped
05 [59c0bb72|9f082e60] (13+12/39) Accurately ripped
06 [ad8ea4b5|ec71c22b] (13+12/38) Accurately ripped
07 [fee0b950|90475e0e] (13+12/38) Accurately ripped
08 [68e83ba1|c315e3b9] (13+12/39) Accurately ripped
09 [ebe99acf|4909ea6d] (13+12/38) Accurately ripped
10 [acbeac1e|8549e5ee] (13+12/37) Accurately ripped
11 [6469cb38|903430ee] (13+12/38) Accurately ripped
12 [0d918d4d|305592f3] (13+12/38) Accurately ripped
13 [49d86e59|d3c078cc] (13+12/38) Accurately ripped
14 [ff1344ab|5ad44a07] (13+12/38) Accurately ripped
15 [4cbbdbf9|c00aa129] (13+12/38) Accurately ripped
16 [38ed83a1|07f51b99] (13+12/37) Accurately ripped
Offsetted by -6:
01 [37371d9c] (08/39) Accurately ripped
02 [e7e528d1] (07/38) Accurately ripped
03 [a030dccb] (07/38) Accurately ripped
04 [ffc036ab] (07/38) Accurately ripped
05 [505d7c02] (08/39) Accurately ripped
06 [02dd4b4f] (08/38) Accurately ripped
07 [c9c72bd0] (07/38) Accurately ripped
08 [2d8d4005] (08/39) Accurately ripped
09 [dd028007] (07/38) Accurately ripped
10 [badfb550] (08/37) Accurately ripped
11 [7e08114a] (07/38) Accurately ripped
12 [377838fb] (07/38) Accurately ripped
13 [077efd51] (07/38) Accurately ripped
14 [9c8eed03] (07/38) Accurately ripped
15 [2dcd9ea3] (07/38) Accurately ripped
16 [03c79839] (07/37) Accurately ripped

Track Peak [ CRC32 ] [W/O NULL] [ LOG ]
– 98,8 [C016388F] [82444E05] CRC32
01 77,2 [4FD6A6B2] [0833C9E3]
02 77,7 [8A61901D] [2A8F23FA]
03 93,3 [2CB5A412] [495DBB8A]
04 98,8 [BA341A4B] [9A6EAE3B]
05 77,9 [F1FF8430] [129CDA4F]
06 97,2 [81B8A920] [8D4F418D]
07 98,8 [DE9588ED] [A7D22E3D]
08 78,4 [E1658BA5] [B4183687]
09 98,8 [0DFD5E48] [2A239E9E]
10 98,8 [17E24819] [7C5FDAA0]
11 98,8 [7B311617] [AAC61652]
12 98,8 [7AA5CC5E] [4C252689]
13 98,8 [0C53BCE7] [12C9A409]
14 98,8 [EFC6DBC3] [662EC4C8]
15 74,0 [55B49213] [3A7BE277]
16 94,6 [1B80A1EC] [FA764580]

foobar2000 1.2 / Dynamic Range Meter 1.1.1
log date: 2018-05-15 21:41:33

––––––––––––––––––––––––––––––––––––––––
Analyzed: Rod Stewart / The Rod Stewart Sessions (CD 2)
––––––––––––––––––––––––––––––––––––––––

DR Peak RMS Duration Track
––––––––––––––––––––––––––––––––––––––––
DR13 -2.24 dB -18.99 dB 4:48 01-The First Cut Is The Deepest (Alternate Version)
DR10 -2.19 dB -15.93 dB 3:59 02-Rosie (Acoustic Version)
DR11 -0.60 dB -13.55 dB 6:39 03-Innocent (The Killing Of Georgie Part 3)
DR10 -0.10 dB -11.56 dB 5:16 04-Hot Legs (Early Take)
DR13 -2.16 dB -18.76 dB 4:36 05-You're In My Heart (The Final Acclaim) (Acoustic Version)
DR12 -0.25 dB -15.75 dB 6:34 06-I Was Only Joking (Early Take)
DR12 -0.10 dB -15.21 dB 5:48 07-Scarred & Scared (Early Take)
DR8 -2.11 dB -11.97 dB 4:19 08-When I'm Away From You
DR11 -0.10 dB -12.71 dB 5:39 09-Oh God, I Wish I Was Home Tonight (Early Version)
DR12 -0.10 dB -14.13 dB 5:27 10-Time Of My Life
DR10 -0.10 dB -12.75 dB 5:00 11-TV Mama
DR11 -0.10 dB -12.89 dB 3:17 12-Mabybe Baby
DR11 -0.10 dB -12.79 dB 4:35 13-Stupid
DR11 -0.10 dB -12.83 dB 5:08 14-Guess I'll Always Love You
DR11 -2.61 dB -18.67 dB 2:57 15-The Great Pretender
DR11 -0.48 dB -16.20 dB 3:41 16-It's Coming Out Your Royalties
––––––––––––––––––––––––––––––––––––––––

Number of tracks: 16
Official DR value: DR11

Samplerate: 44100 Hz
Channels: 2
Bits per sample: 16
Bitrate: 838 kbps
Codec: FLAC
================================================================================


Exact Audio Copy V0.99 prebeta 5 from 4. May 2009

EAC extraction logfile from 25. September 2009, 18:34

Rod Stewart / The Rod Stewart Sessions 1971-1998 (CD 3)

Used drive : DVDRW DRW-6S160P Adapter: 1 ID: 0

Read mode : Secure
Utilize accurate stream : Yes
Defeat audio cache : Yes
Make use of C2 pointers : No

Read offset correction : 6
Overread into Lead-In and Lead-Out : No
Fill up missing offset samples with silence : Yes
Delete leading and trailing silent blocks : No
Null samples used in CRC calculations : Yes
Used interface : Native Win32 interface for Win NT & 2000

Used output format : Monkey's Audio Lossless Encoder
Selected bitrate : High Lossless Compression
Quality : High
Add ID3 tag : No
Command line compressor : C:\Program Files\Monkey's Audio\MAC.exe
Additional command line options : -v


TOC of the extracted CD

Track | Start | Length | Start sector | End sector
––––––––––––––––––––––––––––-
1 | 0:00.00 | 6:55.25 | 0 | 31149
2 | 6:55.25 | 5:06.61 | 31150 | 54160
3 | 12:02.11 | 4:04.09 | 54161 | 72469
4 | 16:06.20 | 4:56.45 | 72470 | 94714
5 | 21:02.65 | 4:37.42 | 94715 | 115531
6 | 25:40.32 | 4:29.27 | 115532 | 135733
7 | 30:09.59 | 4:28.27 | 135734 | 155860
8 | 34:38.11 | 6:35.16 | 155861 | 185501
9 | 41:13.27 | 7:46.29 | 185502 | 220480
10 | 48:59.56 | 2:03.41 | 220481 | 229746
11 | 51:03.22 | 3:46.12 | 229747 | 246708
12 | 54:49.34 | 4:31.38 | 246709 | 267071
13 | 59:20.72 | 5:51.49 | 267072 | 293445
14 | 65:12.46 | 3:55.63 | 293446 | 311133
15 | 69:08.34 | 6:41.14 | 311134 | 341222
16 | 75:49.48 | 1:00.55 | 341223 | 345777


Range status and errors

Selected range

Filename D:\My Documents\Rod Stewart - The Rod Stewart Sessions 1971-1998 (CD 3).wav

Peak level 98.8 %
Range quality 99.9 %
Copy CRC 490C260E
Copy OK

No errors occurred


AccurateRip summary

Track 1 not present in database
Track 2 not present in database
Track 3 not present in database
Track 4 not present in database
Track 5 not present in database
Track 6 not present in database
Track 7 not present in database
Track 8 not present in database
Track 9 not present in database
Track 10 not present in database
Track 11 not present in database
Track 12 not present in database
Track 13 not present in database
Track 14 not present in database
Track 15 not present in database
Track 16 not present in database

None of the tracks are present in the AccurateRip database

End of status report

[CUETools log; Date: 15.05.2018 19:34:23; Version: 2.1.4]
[CTDB TOCID: YDiRASIR.QNAOWq3Py93Ousx9Vk-] found.
Track | CTDB Status
1 | (29/29) Accurately ripped
2 | (29/29) Accurately ripped
3 | (29/29) Accurately ripped
4 | (29/29) Accurately ripped
5 | (29/29) Accurately ripped
6 | (29/29) Accurately ripped
7 | (29/29) Accurately ripped
8 | (29/29) Accurately ripped
9 | (29/29) Accurately ripped
10 | (29/29) Accurately ripped
11 | (29/29) Accurately ripped
12 | (29/29) Accurately ripped
13 | (29/29) Accurately ripped
14 | (29/29) Accurately ripped
15 | (29/29) Accurately ripped
16 | (29/29) Accurately ripped
[AccurateRip ID: 002f502b-0231e996-d9120210] found.
Track [ CRC | V2 ] Status
01 [73960f2e|bf245ddb] (13+13/39) Accurately ripped
02 [fe8bbd81|400e8fee] (13+13/39) Accurately ripped
03 [cecf2ca4|e5b413e4] (13+13/39) Accurately ripped
04 [b381110a|a576d42f] (13+13/39) Accurately ripped
05 [7880845c|df279afa] (13+13/38) Accurately ripped
06 [4822e9af|e502e628] (13+13/39) Accurately ripped
07 [2b1ce77e|7dcbd04a] (13+13/39) Accurately ripped
08 [3d472af8|6c466c84] (13+13/39) Accurately ripped
09 [a54d4812|5f9cedba] (13+13/38) Accurately ripped
10 [c449255e|7648071b] (13+13/39) Accurately ripped
11 [c65fc4a2|8378aee7] (13+13/39) Accurately ripped
12 [5644900e|66f45a59] (13+13/40) Accurately ripped
13 [246c38c8|67b84d2f] (13+13/39) Accurately ripped
14 [8a2ccd4e|7f1e51f1] (13+13/39) Accurately ripped
15 [3020fb1d|125c3e9f] (13+13/39) Accurately ripped
16 [a25a8bef|68742369] (13+12/38) Accurately ripped
Offsetted by -6:
01 [44a52020] (07/39) Accurately ripped
02 [1e94f1b7] (07/39) Accurately ripped
03 [9f54642c] (07/39) Accurately ripped
04 [2246ccd2] (07/39) Accurately ripped
05 [eeb73bf8] (07/38) Accurately ripped
06 [19e4d611] (07/39) Accurately ripped
07 [565ddbba] (07/39) Accurately ripped
08 [72438ca0] (07/39) Accurately ripped
09 [85e14ae0] (07/38) Accurately ripped
10 [32d44852] (07/39) Accurately ripped
11 [76d4eb32] (07/39) Accurately ripped
12 [0753cc62] (08/40) Accurately ripped
13 [b734b7ca] (07/39) Accurately ripped
14 [807314d2] (07/39) Accurately ripped
15 [3224c05b] (07/39) Accurately ripped
16 [46f1d27d] (07/38) Accurately ripped

Track Peak [ CRC32 ] [W/O NULL] [ LOG ]
– 98,8 [490C260E] [AD240BF6] CRC32
01 93,4 [75501C51] [41AA391B]
02 98,8 [217E283F] [109D7DDF]
03 98,8 [15A0697E] [26B7DB73]
04 87,0 [05389DF6] [ED888C77]
05 98,8 [E9C91C54] [095B26D9]
06 97,6 [7B9E8789] [45A706F9]
07 95,0 [C9AEAB9C] [6E2CAA14]
08 92,4 [2C4A1F7D] [FCA3B85C]
09 98,8 [ED78BF35] [CCCB2BD1]
10 98,6 [E5A9BC29] [251009FB]
11 96,4 [7F216F2A] [BC1CDA6D]
12 98,8 [CA18BD6C] [3F9219BC]
13 98,8 [B2C49BF4] [D588E1A5]
14 97,2 [CFBDFC50] [96B8B36A]
15 98,8 [C3DF274F] [10529559]
16 98,8 [12595B79] [2AF38D91]

foobar2000 1.2 / Dynamic Range Meter 1.1.1
log date: 2018-05-15 21:42:07

––––––––––––––––––––––––––––––––––––––––
Analyzed: Rod Stewart / The Rod Stewart Sessions 1971-1998 (CD 3)
––––––––––––––––––––––––––––––––––––––––

DR Peak RMS Duration Track
––––––––––––––––––––––––––––––––––––––––
DR8 -0.59 dB -11.62 dB 6:55 01-Thunderbird
DR11 -0.10 dB -12.36 dB 5:07 02-Dancing Alone (Alternate Version)
DR9 -0.10 dB -11.10 dB 4:04 03-I Wish You Would
DR11 -1.21 dB -16.56 dB 4:57 04-Sweet Surrender (Alternate Version)
DR10 -0.10 dB -12.64 dB 4:38 05-Show Me
DR10 -0.21 dB -12.36 dB 4:29 06-Ghetto Blaster (Early Version)
DR11 -0.44 dB -14.58 dB 4:28 07-Satisfied (Alternate Version)
DR12 -0.69 dB -16.56 dB 6:35 08-Hard Lesson To Learn (Alternate Version)
DR9 -0.10 dB -10.86 dB 7:46 09-Heaven
DR10 -0.12 dB -13.95 dB 2:04 10-In My Life (Piano Version)
DR10 -0.31 dB -13.23 dB 3:46 11-Love Is A Four Letter Word
DR10 -0.10 dB -13.21 dB 4:32 12-Forever Young (Piano Version)
DR10 -0.10 dB -12.79 dB 5:52 13-My Heart Can't Tell You No (Alternate Version)
DR11 -0.25 dB -13.86 dB 3:56 14-I Go To Jail For You
DR10 -0.10 dB -12.90 dB 6:41 15-A Good Lover Is Hard To Find
DR7 -0.10 dB -12.55 dB 1:01 16-'E Or A'
––––––––––––––––––––––––––––––––––––––––

Number of tracks: 16
Official DR value: DR10

Samplerate: 44100 Hz
Channels: 2
Bits per sample: 16
Bitrate: 847 kbps
Codec: FLAC
================================================================================


Exact Audio Copy V0.99 prebeta 5 from 4. May 2009

EAC extraction logfile from 25. September 2009, 22:37

Rod Stewart / The Rod Stewart Sessions 1971-1998 (CD 4)

Used drive : DVDRW DRW-6S160P Adapter: 1 ID: 0

Read mode : Secure
Utilize accurate stream : Yes
Defeat audio cache : Yes
Make use of C2 pointers : No

Read offset correction : 6
Overread into Lead-In and Lead-Out : No
Fill up missing offset samples with silence : Yes
Delete leading and trailing silent blocks : No
Null samples used in CRC calculations : Yes
Used interface : Native Win32 interface for Win NT & 2000

Used output format : Monkey's Audio Lossless Encoder
Selected bitrate : High Lossless Compression
Quality : High
Add ID3 tag : No
Command line compressor : C:\Program Files\Monkey's Audio\MAC.exe
Additional command line options : -v


TOC of the extracted CD

Track | Start | Length | Start sector | End sector
––––––––––––––––––––––––––––-
1 | 0:00.00 | 4:44.70 | 0 | 21369
2 | 4:44.70 | 4:03.18 | 21370 | 39612
3 | 8:48.13 | 4:26.37 | 39613 | 59599
4 | 13:14.50 | 5:26.03 | 59600 | 84052
5 | 18:40.53 | 5:00.12 | 84053 | 106564
6 | 23:40.65 | 5:08.28 | 106565 | 129692
7 | 28:49.18 | 3:59.22 | 129693 | 147639
8 | 32:48.40 | 4:23.46 | 147640 | 167410
9 | 37:12.11 | 3:56.33 | 167411 | 185143
10 | 41:08.44 | 5:11.16 | 185144 | 208484
11 | 46:19.60 | 4:36.42 | 208485 | 229226
12 | 50:56.27 | 4:35.69 | 229227 | 249920
13 | 55:32.21 | 4:22.50 | 249921 | 269620
14 | 59:54.71 | 4:30.63 | 269621 | 289933
15 | 64:25.59 | 2:35.60 | 289934 | 301618
16 | 67:01.44 | 4:11.38 | 301619 | 320481
17 | 71:13.07 | 3:49.08 | 320482 | 337664
18 | 75:02.15 | 1:32.33 | 337665 | 344597
19 | 76:34.48 | 1:49.66 | 344598 | 352838


Range status and errors

Selected range

Filename D:\My Documents\Rod Stewart - The Rod Stewart Sessions 1971-1998 (CD 4).wav

Peak level 98.8 %
Range quality 100.0 %
Copy CRC F7B72854
Copy OK

No errors occurred


AccurateRip summary

Track 1 not present in database
Track 2 not present in database
Track 3 not present in database
Track 4 not present in database
Track 5 not present in database
Track 6 not present in database
Track 7 not present in database
Track 8 not present in database
Track 9 not present in database
Track 10 not present in database
Track 11 not present in database
Track 12 not present in database
Track 13 not present in database
Track 14 not present in database
Track 15 not present in database
Track 16 not present in database
Track 17 not present in database
Track 18 not present in database
Track 19 not present in database

None of the tracks are present in the AccurateRip database

End of status report

[CUETools log; Date: 15.05.2018 19:34:43; Version: 2.1.4]
[CTDB TOCID: 6_2LGVkaeG8NXZXHs5IoALt19TI-] found.
Track | CTDB Status
1 | (27/27) Accurately ripped
2 | (27/27) Accurately ripped
3 | (27/27) Accurately ripped
4 | (27/27) Accurately ripped
5 | (27/27) Accurately ripped
6 | (27/27) Accurately ripped
7 | (27/27) Accurately ripped
8 | (27/27) Accurately ripped
9 | (27/27) Accurately ripped
10 | (27/27) Accurately ripped
11 | (27/27) Accurately ripped
12 | (27/27) Accurately ripped
13 | (27/27) Accurately ripped
14 | (27/27) Accurately ripped
15 | (27/27) Accurately ripped
16 | (27/27) Accurately ripped
17 | (26/27) Accurately ripped
18 | (27/27) Accurately ripped
19 | (26/27) Accurately ripped
[AccurateRip ID: 003aad68-032cfbcb-13126013] found.
Track [ CRC | V2 ] Status
01 [ad3705fa|3b67fdf1] (13+13/39) Accurately ripped
02 [64831e08|5ce94d57] (13+13/39) Accurately ripped
03 [139c35ad|ca69e4c0] (13+13/39) Accurately ripped
04 [8ca5e315|a14840c4] (13+13/40) Accurately ripped
05 [b002435c|7f47a8b2] (13+13/38) Accurately ripped
06 [2ecc113c|1eff9f8f] (13+13/38) Accurately ripped
07 [25ea6abd|05cb1095] (13+13/39) Accurately ripped
08 [b029bb4e|f636d2a7] (13+13/39) Accurately ripped
09 [59527af0|44e8cdc4] (13+14/40) Accurately ripped
10 [a3fd83a3|66d00f32] (13+13/38) Accurately ripped
11 [1b73f1f6|45d1c3c6] (13+13/39) Accurately ripped
12 [651e8f0c|4619677c] (13+13/39) Accurately ripped
13 [a3b0bc41|11747a78] (13+13/39) Accurately ripped
14 [d537a70a|34312fff] (13+13/40) Accurately ripped
15 [9e7bd32e|ecd98bfd] (13+13/39) Accurately ripped
16 [d9f3d8d5|589e707f] (13+13/40) Accurately ripped
17 [b80d0773|a8e70560] (13+12/38) Accurately ripped
18 [a733d432|d9427884] (13+13/38) Accurately ripped
19 [17575507|1b555fdc] (13+12/37) Accurately ripped
Offsetted by -6:
01 [7443eba6] (07/39) Accurately ripped
02 [120a04f0] (07/39) Accurately ripped
03 [11e9eb01] (07/39) Accurately ripped
04 [3e133a4d] (08/40) Accurately ripped
05 [be567a04] (07/38) Accurately ripped
06 [a904ec80] (07/38) Accurately ripped
07 [ef7fa4d5] (07/39) Accurately ripped
08 [4420b502] (07/39) Accurately ripped
09 [e00d233e] (07/40) Accurately ripped
10 [4e8f56cd] (07/38) Accurately ripped
11 [582b0fba] (07/39) Accurately ripped
12 [c42f4050] (07/39) Accurately ripped
13 [fc1ea2e1] (07/39) Accurately ripped
14 [a7222d8a] (08/40) Accurately ripped
15 [7f8c33e8] (07/39) Accurately ripped
16 [99d01619] (08/40) Accurately ripped
17 [639b4992] (07/38) Accurately ripped
18 [df20f38f] (07/38) Accurately ripped
19 [b6948635] (07/37) Accurately ripped

Track Peak [ CRC32 ] [W/O NULL] [ LOG ]
– 98,8 [F7B72854] [2534B984] CRC32
01 98,8 [A3606182] [0A781D27]
02 98,8 [B5B31DB7] [C457DB80]
03 86,3 [16A0DAD0] [E5268BD0]
04 93,8 [5648A1E7] [89DA22E8]
05 98,8 [D9159730] [984BDE19]
06 98,8 [D48550B3] [B274895A]
07 94,6 [95D2CABC] [18B29E93]
08 98,8 [C34964DD] [400D25C4]
09 98,8 [BE0A4FB4] [AC456196]
10 97,5 [FCE5D79B] [F3985740]
11 98,8 [A885C351] [FE3AE2A5]
12 87,8 [E312003A] [2C7D3951]
13 95,3 [809CE7E0] [EAC9E8D8]
14 96,9 [842988F1] [E988771E]
15 94,8 [9F3ACB43] [1DE97AF9]
16 98,8 [FA281FE6] [07CC43FE]
17 85,9 [72B69A17] [5166FF3B]
18 27,7 [FE97F20D] [0B2AEBFD]
19 62,7 [078D4A3E] [C8B88C4B]

foobar2000 1.2 / Dynamic Range Meter 1.1.1
log date: 2018-05-15 21:42:46

––––––––––––––––––––––––––––––––––––––––
Analyzed: Rod Stewart / The Rod Stewart Sessions 1971-1998 (CD 4)
––––––––––––––––––––––––––––––––––––––––

DR Peak RMS Duration Track
––––––––––––––––––––––––––––––––––––––––
DR10 -0.10 dB -11.88 dB 4:45 01-Let The Day Begin (Alternate Version)
DR10 -0.10 dB -11.22 dB 4:03 02-The Grooms Still Waiting At The Altar (Alternate Version)
DR12 -1.28 dB -16.33 dB 4:26 03-Windy Town (Piano Version)
DR10 -0.55 dB -13.51 dB 5:26 04-In A Broken Dream (1992)
DR10 -0.10 dB -11.51 dB 5:00 05-This Wheel's On Fire
DR11 -0.10 dB -14.11 dB 5:08 06-I Wanna Stay Home
DR11 -0.48 dB -14.66 dB 3:59 07-I'm A King Bee
DR12 -0.10 dB -13.64 dB 4:24 08-Looking For Love
DR12 -0.10 dB -14.54 dB 3:56 09-Kiss Her For Me
DR12 -0.22 dB -15.82 dB 5:11 10-The Long Journey Home
DR11 -0.10 dB -13.03 dB 4:37 11-Now That You're On Your Own
DR12 -1.13 dB -15.86 dB 4:36 12-Dylan's Day Off
DR11 -0.41 dB -14.55 dB 4:23 13-On And On
DR10 -0.27 dB -12.78 dB 4:31 14-Rockin' Chair
DR13 -0.46 dB -16.43 dB 2:36 15-Sugar Lips
DR10 -0.10 dB -11.65 dB 4:12 16-The Changgingman
DR14 -1.32 dB -19.47 dB 3:49 17-May You Never
DR21 -11.14 dB -41.96 dB 1:32 18-Studio Chatter (Hidden Track)
DR14 -4.05 dB -23.54 dB 1:50 19-Rod Plays Guitar (Hidden trackj)
––––––––––––––––––––––––––––––––––––––––

Number of tracks: 19
Official DR value: DR12

Samplerate: 44100 Hz
Channels: 2
Bits per sample: 16
Bitrate: 843 kbps
Codec: FLAC
================================================================================

Rod Stewart - The Rod Stewart Sessions 1971-1998 (2009) 4CD Box Set

All thanks to original releaser - London

More interesting music in My Blog