Tags
Language
Tags

Roxy Music - Avalon (1982) [2015, Universal Music Japan, UICY-40129]

Posted By: v3122
Roxy Music - Avalon (1982) [2015, Universal Music Japan, UICY-40129]

Roxy Music - Avalon (1982)
EAC | Flac(Image) + Cue + Log & MP3 CBR 320Kbps
Universal Music Japan, UICY-40129 | ~ 255 or 107 Mb | Scans(png) -> 180 Mb
Pop Rock / Art Rock / Synth-Pop

Flesh + Blood suggested that Roxy Music were at the end of the line, but they regrouped and recorded the lovely Avalon, one of their finest albums. Certainly, the lush, elegant soundscapes of Avalon are far removed from the edgy avant-pop of their early records, yet it represents another landmark in their career. With its stylish, romantic washes of synthesizers and Bryan Ferry's elegant, seductive croon, Avalon simultaneously functioned as sophisticated make-out music for yuppies and as the maturation of synth pop. Ferry was never this romantic or seductive, either with Roxy or as a solo artist, and Avalon shimmers with elegance in both its music and its lyrics. "More Than This," "Take a Chance with Me," "While My Heart Is Still Beating," and the title track are immaculately crafted and subtle songs, where the shifting synthesizers and murmured vocals gradually reveal the melodies. It's a rich, textured album and a graceful way to end the band's career.

by Stephen Thomas Erlewine, AMG
Roxy Music - Avalon (1982):

Roxy Music - Avalon (1982) [2015, Universal Music Japan, UICY-40129]

Tracklist:

01. More Than This 04:31
02. The Space Between 04:30
03. Avalon 04:17
04. India 01:45
05. While My Heart Is Still Beating 03:29
06. The Main Thing 03:54
07. Take A Chance With Me 04:43
08. To Turn You On 04:16
09. True To Life 04:26
10. Tara 01:45

Exact Audio Copy V1.0 beta 4 from 7. December 2014

EAC extraction logfile from 14. February 2015, 10:42

Roxy Music / Avalon PT-SHM

Used drive : PLEXTOR BD-R PX-B950SA Adapter: 1 ID: 1

Read mode : Secure
Utilize accurate stream : Yes
Defeat audio cache : Yes
Make use of C2 pointers : No

Read offset correction : 6
Overread into Lead-In and Lead-Out : No
Fill up missing offset samples with silence : Yes
Delete leading and trailing silent blocks : No
Null samples used in CRC calculations : Yes
Used interface : Native Win32 interface for Win NT & 2000

Used output format : Internal WAV Routines
Sample format : 44.100 Hz; 16 Bit; Stereo


TOC of the extracted CD

Track | Start | Length | Start sector | End sector
––––––––––––––––––––––––––––-
1 | 0:00.00 | 4:31.22 | 0 | 20346
2 | 4:31.22 | 4:30.33 | 20347 | 40629
3 | 9:01.55 | 4:17.22 | 40630 | 59926
4 | 13:19.02 | 1:45.15 | 59927 | 67816
5 | 15:04.17 | 3:29.13 | 67817 | 83504
6 | 18:33.30 | 3:54.17 | 83505 | 101071
7 | 22:27.47 | 4:43.03 | 101072 | 122299
8 | 27:10.50 | 4:16.70 | 122300 | 141569
9 | 31:27.45 | 4:26.47 | 141570 | 161566
10 | 35:54.17 | 1:45.18 | 161567 | 169459


Range status and errors

Selected range

Filename C:\Users\Meijin\Desktop\ALLexxess\Roxy Music\1982 Avalon (Mini LP PT-SHM Universal Japan 2015)\Roxy Music - Avalon PT-SHM.wav

Peak level 96.5 %
Extraction speed 6.5 X
Range quality 100.0 %
Test CRC B17AAC4B
Copy CRC B17AAC4B
Copy OK

No errors occurred


AccurateRip summary

Track 1 not present in database
Track 2 not present in database
Track 3 not present in database
Track 4 not present in database
Track 5 not present in database
Track 6 not present in database
Track 7 not present in database
Track 8 not present in database
Track 9 not present in database
Track 10 not present in database

None of the tracks are present in the AccurateRip database

End of status report

–– CUETools DB Plugin V2.1.4

[CTDB TOCID: qXMap3OrUpR.4tSHBKx_.66UZF4-] disk not present in database
Submit result: qXMap3OrUpR.4tSHBKx_.66UZF4- has been uploaded


==== Log checksum A5DD605BDF6042E6F1AD1B3E58A7CD88D55081E296BAC7D0F93D3D410E7D0DD5 ====

foobar2000 1.2.9 / Dynamic Range Meter 1.1.1
log date: 2015-03-01 15:33:29

––––––––––––––––––––––––––––––––––––––––
Analyzed: Roxy Music / Avalon PT-SHM
––––––––––––––––––––––––––––––––––––––––

DR Peak RMS Duration Track
––––––––––––––––––––––––––––––––––––––––
DR13 -1.02 dB -16.46 dB 4:31 01-More Than This
DR15 -0.50 dB -17.53 dB 4:30 02-The Space Between
DR13 -1.07 dB -16.74 dB 4:17 03-Avalon
DR13 -1.36 dB -17.85 dB 1:45 04-India
DR14 -1.59 dB -18.30 dB 3:29 05-While My Heart Is Still Beating
DR13 -0.30 dB -15.47 dB 3:54 06-The Main Thing
DR13 -1.32 dB -16.83 dB 4:43 07-Take A Chance With Me
DR12 -2.93 dB -17.75 dB 4:17 08-To Turn You On
DR13 -0.63 dB -15.07 dB 4:27 09-True To Life
DR10 -6.61 dB -21.23 dB 1:45 10-Tara
––––––––––––––––––––––––––––––––––––––––

Number of tracks: 10
Official DR value: DR13

Samplerate: 44100 Hz
Channels: 2
Bits per sample: 16
Bitrate: 808 kbps
Codec: FLAC

[CUETools log; Date: 21.02.2015 19:44:36; Version: 2.1.4]
[CTDB TOCID: qXMap3OrUpR.4tSHBKx_.66UZF4-] found.
Track | CTDB Status
1 | (2/2) Accurately ripped
2 | (2/2) Accurately ripped
3 | (2/2) Accurately ripped
4 | (2/2) Accurately ripped
5 | (2/2) Accurately ripped
6 | (2/2) Accurately ripped
7 | (2/2) Accurately ripped
8 | (2/2) Accurately ripped
9 | (2/2) Accurately ripped
10 | (2/2) Accurately ripped
[AccurateRip ID: 000ec603-0075387c-7f08d30a] disk not present in database.

Track Peak [ CRC32 ] [W/O NULL] [ LOG ]
– 96,5 [B17AAC4B] [497EDFFE] CRC32
01 88,8 [DEA125D1] [0D7424CC]
02 94,4 [1F26643B] [7A7EC50B]
03 88,3 [88176F96] [AED8E61F]
04 85,5 [3DF8FB14] [AD6BEED4]
05 83,2 [E5423673] [014A03EF]
06 96,5 [D7CD3088] [93E44EC7]
07 85,9 [66106979] [274702E8]
08 71,3 [E02B605F] [637DE5B8]
09 92,9 [0FD12589] [A1B06F2C]
10 46,7 [D92A3BD9] [E86CB58A]

Roxy Music - Avalon (1982) [2015, Universal Music Japan, UICY-40129]

All thanks go to ALLexxess

Download Roxy Music - Avalon (1982):