Tags
Language
Tags

Roxy Music - Flesh + Blood (1980) [2015, Universal Music Japan, UICY-40128]

Posted By: v3122
Roxy Music - Flesh + Blood (1980) [2015, Universal Music Japan, UICY-40128]

Roxy Music - Flesh + Blood (1980)
EAC | Flac(Image) + Cue + Log & MP3 CBR 320Kbps
Universal Music Japan, UICY-40128 | ~ 256 or 104 Mb | Scans(png) -> 186 Mb
Pop Rock / Art Rock / Synth-Pop

Flesh + Blood is the seventh studio album by the English art rock band Roxy Music. Released in late May 1980, it was an immediate commercial success peaking at No. 1 in the UK for one week in June and then returned to the summit in August for another three weeks, in total spending 60 weeks on the albums chart in the United Kingdom. The album also peaked at No. 35 in the United States and No. 10 in Australia.

The album was preceded by the single "Over You", a No. 5 UK hit that also provided the band with a rare US chart entry at No. 80. Two more hit singles followed: "Oh Yeah" (UK #5) and "Same Old Scene" (UK No. 12, AUS #35). Flesh + Blood also included two cover versions: The Byrds' "Eight Miles High" and Wilson Pickett's "In the Midnight Hour". The latter was released as a single in some territories. In addition, the album's title track along with the aforementioned "Over You" and "Eight Miles High" peaked at number forty-six on the Billboard dance charts.

The album was made after their drummer Paul Thompson had left the band, essentially making Roxy Music a three-piece band consisting of Bryan Ferry, Andy Mackay and Phil Manzanera

~ wiki
Roxy Music - Flesh + Blood (1980):

Roxy Music - Flesh + Blood (1980) [2015, Universal Music Japan, UICY-40128]

Tracklist:

01. The Midnight Hour 03:13
02. Oh Yeah 04:51
03. Same Old Scene 03:57
04. Flesh And Blood 03:13
05. My Only Love 05:19
06. Over You 03:26
07. Eight Miles High 04:54
08. Rain Rain Rain 03:21
09. No Strange Delight 04:45
10. Running Wild 05:03

Exact Audio Copy V1.0 beta 4 from 7. December 2014

EAC extraction logfile from 14. February 2015, 11:13

Roxy Music / Flesh + Blood PT-SHM

Used drive : PLEXTOR BD-R PX-B950SA Adapter: 1 ID: 1

Read mode : Secure
Utilize accurate stream : Yes
Defeat audio cache : Yes
Make use of C2 pointers : No

Read offset correction : 6
Overread into Lead-In and Lead-Out : No
Fill up missing offset samples with silence : Yes
Delete leading and trailing silent blocks : No
Null samples used in CRC calculations : Yes
Used interface : Native Win32 interface for Win NT & 2000

Used output format : Internal WAV Routines
Sample format : 44.100 Hz; 16 Bit; Stereo


TOC of the extracted CD

Track | Start | Length | Start sector | End sector
––––––––––––––––––––––––––––-
1 | 0:00.00 | 3:13.37 | 0 | 14511
2 | 3:13.37 | 4:51.45 | 14512 | 36381
3 | 8:05.07 | 3:57.68 | 36382 | 54224
4 | 12:03.00 | 3:13.55 | 54225 | 68754
5 | 15:16.55 | 5:19.62 | 68755 | 92741
6 | 20:36.42 | 3:26.63 | 92742 | 108254
7 | 24:03.30 | 4:54.50 | 108255 | 130354
8 | 28:58.05 | 3:21.17 | 130355 | 145446
9 | 32:19.22 | 4:45.35 | 145447 | 166856
10 | 37:04.57 | 5:03.45 | 166857 | 189626


Range status and errors

Selected range

Filename C:\Users\Meijin\Desktop\ALLexxess\Roxy Music\1980 Flesh + Blood (Mini LP PT-SHM Universal Japan 2015)\Roxy Music - Flesh + Blood PT-SHM.wav

Peak level 98.8 %
Extraction speed 6.6 X
Range quality 100.0 %
Test CRC 8A0FC94A
Copy CRC 8A0FC94A
Copy OK

No errors occurred


AccurateRip summary

Track 1 not present in database
Track 2 not present in database
Track 3 not present in database
Track 4 not present in database
Track 5 not present in database
Track 6 not present in database
Track 7 not present in database
Track 8 not present in database
Track 9 not present in database
Track 10 not present in database

None of the tracks are present in the AccurateRip database

End of status report

–– CUETools DB Plugin V2.1.4

[CTDB TOCID: cik4bPJ0idmEWCUEfrEXCOYUIGY-] disk not present in database
Submit result: cik4bPJ0idmEWCUEfrEXCOYUIGY- has been uploaded


==== Log checksum 1D60241BC0FE831DE19D55F7EECBEA50FA97257A89940A0164A330A15BC6EFC3 ====

foobar2000 1.2.9 / Dynamic Range Meter 1.1.1
log date: 2015-02-27 20:05:18

––––––––––––––––––––––––––––––––––––––––
Analyzed: Roxy Music / Flesh + Blood PT-SHM
––––––––––––––––––––––––––––––––––––––––

DR Peak RMS Duration Track
––––––––––––––––––––––––––––––––––––––––
DR14 -0.10 dB -16.66 dB 3:13 01-In The Midnight Hour
DR14 -1.07 dB -18.88 dB 4:52 02-Oh Yeah
DR13 -0.55 dB -15.39 dB 3:58 03-Same Old Scene
DR13 -1.69 dB -16.83 dB 3:14 04-Flesh and Blood
DR13 -2.30 dB -17.76 dB 5:20 05-My Only Love
DR11 -0.23 dB -14.91 dB 3:27 06-Over You
DR15 -0.12 dB -17.30 dB 4:55 07-Eight Miles High
DR14 -0.37 dB -17.05 dB 3:21 08-Rain, Rain, Rain
DR15 -0.70 dB -18.70 dB 4:45 09-No Strange Delight
DR12 -1.39 dB -16.54 dB 5:04 10-Running Wild
––––––––––––––––––––––––––––––––––––––––

Number of tracks: 10
Official DR value: DR13

Samplerate: 44100 Hz
Channels: 2
Bits per sample: 16
Bitrate: 798 kbps
Codec: FLAC

[CUETools log; Date: 21.02.2015 19:44:02; Version: 2.1.4]
[CTDB TOCID: cik4bPJ0idmEWCUEfrEXCOYUIGY-] found.
Track | CTDB Status
1 | (1/1) Accurately ripped
2 | (1/1) Accurately ripped
3 | (1/1) Accurately ripped
4 | (1/1) Accurately ripped
5 | (1/1) Accurately ripped
6 | (1/1) Accurately ripped
7 | (1/1) Accurately ripped
8 | (1/1) Accurately ripped
9 | (1/1) Accurately ripped
10 | (1/1) Accurately ripped
[AccurateRip ID: 000f5e35-007be475-8709e00a] disk not present in database.

Track Peak [ CRC32 ] [W/O NULL] [ LOG ]
– 98,8 [8A0FC94A] [37059CBF] CRC32
01 98,8 [5C69DE93] [58D14F96]
02 88,3 [503C653B] [3048BFBF]
03 93,8 [9EA930D5] [79F3F9EC]
04 82,3 [25A8BEAE] [02F3C7C7]
05 76,7 [66031AB1] [712A36DF]
06 97,3 [92343684] [2D6AD500]
07 98,6 [8AD32368] [193E0588]
08 95,8 [0F82916A] [881A5AD1]
09 92,2 [ECF5F92D] [60CA0619]
10 85,2 [9EE13342] [5A3A2A96]

Roxy Music - Flesh + Blood (1980) [2015, Universal Music Japan, UICY-40128]

All thanks go to ALLexxess

Download Roxy Music - Flesh + Blood (1980):