Subcategories

Roy Budd - Get Carter: Original Motion Picture Soundtrack (1971) 2CD Special Edition includes The Remix Album, 2000 [Re-Up]

Posted By: Efgrapha
Roy Budd - Get Carter: Original Motion Picture Soundtrack (1971) 2CD Special Edition includes The Remix Album, 2000 [Re-Up]

Roy Budd - Get Carter: Original Motion Picture Soundtrack (1971)
2CD Special Edition includes The Remix Album, 2000
EAC | FLAC (Tracks) + cue.+log ~ 571 Mb | Mp3, CBR320 kbps ~ 242 Mb | Scans ~ 95 Mb
Soundtrack, Score, Jazz Fusion, Rock | Label: Cinephile | # CMEDD017 | 01:45:33

Remastered special edition soundtrack to the British gangster film, a cult favorite and arguably Roy Budd's finest work, it was originally released in 1971 and stars Michael Caine. Includes enhanced dialogue plus a bonus disc of remixes, 'Breakneck' (7' Edit, Rob's Old School Mix, Deadly Avenger Remix), 'Dope On A Rope' (12' Remix and Gentleman Thief Remix), 'De Few' ('2 Smoking Barrels Remix'-12' and Full Vision Remix-'Carter Express'), 'Lionrock' (Justin Robertson Remix, Andy H. & Full Vision Remix)-'Just Call Me Full' and 'Breakneck' ('Dirtbox Remix'-featuring Phil Dirtbox).

This double-disc special edition soundtrack summarizes everything that made Mike Hodges' groundbreaking 70's revenge film a cult classic. This soundtrack is mandatory for any fan of the film or of talented composer Roy Budd whose haunting theme is highlighted throughout the album with dialogue samples from the film selectively placed between music cues capturing the gritty atmosphere of Michael Cain's uber-cool Jack Carter. In addition, this album includes a bonus remix CD featuring 10 tracks remixed by some of the most talented techno DJ's world wide and take Roy Budd's main theme to a new level, eclipsing Tyler Bates electronic reworking for the disappointing Stallone remake. This special edition import CD is beautifully packaged in a glossy gatefold sleeve featuring liner notes booklet with stunning cover artwork and photographs capturing the essence of the quintessential film. It is worth every penny (or shilling) to purchase this import version instead of the standard version which includes 28 tracks, 3 more than the standard edition which are basically just additional dialogue samples from the film, however the instrumental version of Getting Nowhere In A Hurry is absent from this edition. I own both versions and the special edition is by far the best, the rarest, and geared for the collector so go get yourself some Carter!

Review by Dave Cordes

Excepting only the work of the great Lalo Schifrin, Roy Budd's Get Carter was the best theme in the lucrative world of spy/gangster/heist soundtracks from the late '60s and early '70s. Underpinning the tense strength of director Mike Hodges' film about a hit man turned avenging angel, the film's main theme ("Carter Takes a Train") is a paranoid, hallucinatory title that deftly played up the menace of Michael Caine's character. Interested parties who've only heard the legend of Get Carter, however, may not find much else to interest them; those who've seen it can carry a bit more, but most of these tracks are titles to a film, and don't escape the period feel. The fine collections Rebirth of the Budd or Buddism are both better purchases toward understanding the brilliance of Roy Budd.

Review by John Bush, Allmusic.com

~ Roy Budd at Allmusic
~ Roy Budd at Wiki

~ Film at IMDB
~ Film at Wiki

Tracklist:

CD1: Get Carter - Original Motion Picture Soundtrack:

01. Intro (00:35)
02. Dialogue (00:17)
03. Main Theme - Carter Takes A Train (02:57)
04. Dialogue (00:36)
05. Looking For Someone (02:32)
06. Dialogue - The Race Track (01:29)
07. Something On My Mind (04:13)
08. Dialogue (00:51)
09. Getting Nowhere In A Hurry (03:09)
10. Dialogue (01:03)
11. The Girl In The Car (02:25)
12. Dialogue (02:14)
13. Love Is A Four Letter Word (02:39)
14. Dialogue (00:58)
15. Livin' Should Be This Way (03:15)
16. Dialogue (00:18)
17. Manhunt (02:50)
18. Dialogue (01:20)
19. Goodbye Eric! (00:48)
20. Dialogue (00:05)
21. Hallucinations (04:30)
22. Dialogue (00:40)
23. Plaything (02:32)
24. Dialogue (00:09)
25. Goodbye Carter! (03:40)
26. Dialogue (00:03)
27. Hallucinations - Snoitanicullah (Instrumental) (04:23)
28. Dialogue (00:51)

CD2: Get Carter - The Remix Album:

01. Breakneck - 7' Edit (03:59)
02. Rob's Old School Mix (06:31)
03. Deadly Avenger Remix (04:52)
04. Dope On A Rope - 12' Remix (06:02)
05. Gentleman Thief Remix (05:11)
06. De Few - 2' Smoking Barrels Remix' (06:03)
07. Full Vision Remix - 'Carter Express' (05:00)
08. Lionrock (Justin Robertson) Remix (03:55)
09. Andy H. & Full Vision Remix - 'Just Call Me Full' (04:50)
10. Breakneck - 'Dirtbox Remix' - featuring Phil Dirtbox (07:44)


Exact Audio Copy V1.0 beta 3 from 29. August 2011

EAC extraction logfile from 16. May 2012, 12:41

Roy Budd / Get Carter

Used drive : PLEXTOR DVDR PX-L890SA Adapter: 1 ID: 1

Read mode : Secure
Utilize accurate stream : Yes
Defeat audio cache : Yes
Make use of C2 pointers : No

Read offset correction : 6
Overread into Lead-In and Lead-Out : No
Fill up missing offset samples with silence : Yes
Delete leading and trailing silent blocks : No
Null samples used in CRC calculations : Yes
Used interface : Installed external ASPI interface
Gap handling : Appended to previous track

Used output format : User Defined Encoder
Selected bitrate : 1024 kBit/s
Quality : High
Add ID3 tag : No
Command line compressor : C:\Program Files\Exact Audio Copy\Flac\flac.exe
Additional command line options : -V -8 -T "Genre=%genre%" -T "Artist=%artist%" -T "Title=%title%" -T "Album=%albumtitle%" -T "Date=%year%" -T "Tracknumber=%tracknr%" -T "Comment=%comment%" %source%


TOC of the extracted CD

Track | Start | Length | Start sector | End sector
––––––––––––––––––––––––––––-
1 | 0:00.00 | 0:35.53 | 0 | 2677
2 | 0:35.53 | 0:17.34 | 2678 | 3986
3 | 0:53.12 | 2:57.55 | 3987 | 17316
4 | 3:50.67 | 0:36.39 | 17317 | 20055
5 | 4:27.31 | 2:32.13 | 20056 | 31468
6 | 6:59.44 | 1:29.54 | 31469 | 38197
7 | 8:29.23 | 4:13.35 | 38198 | 57207
8 | 12:42.58 | 0:51.06 | 57208 | 61038
9 | 13:33.64 | 3:09.23 | 61039 | 75236
10 | 16:43.12 | 1:03.13 | 75237 | 79974
11 | 17:46.25 | 2:25.30 | 79975 | 90879
12 | 20:11.55 | 2:14.02 | 90880 | 100931
13 | 22:25.57 | 2:39.44 | 100932 | 112900
14 | 25:05.26 | 0:58.10 | 112901 | 117260
15 | 26:03.36 | 3:15.07 | 117261 | 131892
16 | 29:18.43 | 0:18.34 | 131893 | 133276
17 | 29:37.02 | 2:50.62 | 133277 | 146088
18 | 32:27.64 | 1:20.42 | 146089 | 152130
19 | 33:48.31 | 0:48.17 | 152131 | 155747
20 | 34:36.48 | 0:05.57 | 155748 | 156179
21 | 34:42.30 | 4:30.62 | 156180 | 176491
22 | 39:13.17 | 0:40.34 | 176492 | 179525
23 | 39:53.51 | 2:32.45 | 179526 | 190970
24 | 42:26.21 | 0:09.67 | 190971 | 191712
25 | 42:36.13 | 3:40.46 | 191713 | 208258
26 | 46:16.59 | 0:03.01 | 208259 | 208484
27 | 46:19.60 | 4:23.50 | 208485 | 228259
28 | 50:43.35 | 0:51.26 | 228260 | 232110


Track 1

Filename F:\torrent\Get Carter_2000_2CD\CD1\01 Intro.wav

Pre-gap length 0:00:02.00

Peak level 51.9 %
Extraction speed 2.6 X
Track quality 100.0 %
Test CRC 4C8839D7
Copy CRC 4C8839D7
Cannot be verified as accurate (confidence 2) [2CD15219], AccurateRip returned [100AF24B] (AR v2)
Copy OK

Track 2

Filename F:\torrent\Get Carter_2000_2CD\CD1\02 Dialogue.wav

Pre-gap length 0:00:01.74

Peak level 81.6 %
Extraction speed 1.7 X
Track quality 100.0 %
Test CRC 14638A5B
Copy CRC 14638A5B
Cannot be verified as accurate (confidence 2) [76A08854], AccurateRip returned [39339D62] (AR v2)
Copy OK

Track 3

Filename F:\torrent\Get Carter_2000_2CD\CD1\03 Main Theme - Carter Takes A Train.wav

Pre-gap length 0:00:01.72

Peak level 97.7 %
Extraction speed 4.7 X
Track quality 100.0 %
Test CRC 209E8986
Copy CRC 209E8986
Cannot be verified as accurate (confidence 2) [A36880CF], AccurateRip returned [3747C11C] (AR v2)
Copy OK

Track 4

Filename F:\torrent\Get Carter_2000_2CD\CD1\04 Dialogue.wav

Pre-gap length 0:00:01.73

Peak level 74.1 %
Extraction speed 1.9 X
Track quality 99.7 %
Test CRC AB37EEE3
Copy CRC AB37EEE3
Cannot be verified as accurate (confidence 2) [FF6EC7F1], AccurateRip returned [E9BEF5A0] (AR v2)
Copy OK

Track 5

Filename F:\torrent\Get Carter_2000_2CD\CD1\05 Looking For Someone.wav

Pre-gap length 0:00:01.74

Peak level 96.2 %
Extraction speed 5.0 X
Track quality 100.0 %
Test CRC E1AE3048
Copy CRC E1AE3048
Cannot be verified as accurate (confidence 2) [3D077CE2], AccurateRip returned [867CAAD4] (AR v2)
Copy OK

Track 6

Filename F:\torrent\Get Carter_2000_2CD\CD1\06 Dialogue - The Race Track.wav

Pre-gap length 0:00:01.72

Peak level 57.1 %
Extraction speed 4.6 X
Track quality 100.0 %
Test CRC C5D3F896
Copy CRC C5D3F896
Cannot be verified as accurate (confidence 2) [AC07C160], AccurateRip returned [02ED3091] (AR v2)
Copy OK

Track 7

Filename F:\torrent\Get Carter_2000_2CD\CD1\07 Something On My Mind.wav

Pre-gap length 0:00:01.73

Peak level 97.5 %
Extraction speed 6.1 X
Track quality 100.0 %
Test CRC F2141A80
Copy CRC F2141A80
Cannot be verified as accurate (confidence 2) [173A7EF3], AccurateRip returned [21180ACD] (AR v2)
Copy OK

Track 8

Filename F:\torrent\Get Carter_2000_2CD\CD1\08 Dialogue.wav

Pre-gap length 0:00:01.74

Peak level 75.2 %
Extraction speed 4.1 X
Track quality 100.0 %
Test CRC 50D235C4
Copy CRC 50D235C4
Cannot be verified as accurate (confidence 2) [B369DCBF], AccurateRip returned [D96169BD] (AR v2)
Copy OK

Track 9

Filename F:\torrent\Get Carter_2000_2CD\CD1\09 Getting Nowhere In A Hurry.wav

Pre-gap length 0:00:02.00

Peak level 100.0 %
Extraction speed 6.3 X
Track quality 100.0 %
Test CRC 807F14D5
Copy CRC 807F14D5
Cannot be verified as accurate (confidence 2) [BBACB09C], AccurateRip returned [660EF0C7] (AR v2)
Copy OK

Track 10

Filename F:\torrent\Get Carter_2000_2CD\CD1\10 Dialogue.wav

Pre-gap length 0:00:02.00

Peak level 90.1 %
Extraction speed 4.8 X
Track quality 100.0 %
Test CRC 99450813
Copy CRC 99450813
Cannot be verified as accurate (confidence 2) [75C1570E], AccurateRip returned [4CEAC9A1] (AR v2)
Copy OK

Track 11

Filename F:\torrent\Get Carter_2000_2CD\CD1\11 The Girl In The Car.wav

Pre-gap length 0:00:02.00

Peak level 100.0 %
Extraction speed 5.3 X
Track quality 99.9 %
Test CRC A397CBC3
Copy CRC A397CBC3
Cannot be verified as accurate (confidence 2) [93819AC2], AccurateRip returned [F432D6FB] (AR v2)
Copy OK

Track 12

Filename F:\torrent\Get Carter_2000_2CD\CD1\12 Dialogue.wav

Pre-gap length 0:00:02.00

Peak level 70.3 %
Extraction speed 6.4 X
Track quality 100.0 %
Test CRC 76EC9D82
Copy CRC 76EC9D82
Cannot be verified as accurate (confidence 2) [CF85B7F1], AccurateRip returned [8F3F8313] (AR v2)
Copy OK

Track 13

Filename F:\torrent\Get Carter_2000_2CD\CD1\13 Love Is A Four Letter Word.wav

Pre-gap length 0:00:02.00

Peak level 100.0 %
Extraction speed 6.8 X
Track quality 100.0 %
Test CRC E59B7945
Copy CRC E59B7945
Cannot be verified as accurate (confidence 2) [0EA742A1], AccurateRip returned [1ADB8902] (AR v2)
Copy OK

Track 14

Filename F:\torrent\Get Carter_2000_2CD\CD1\14 Dialogue.wav

Pre-gap length 0:00:01.72

Peak level 81.2 %
Extraction speed 5.2 X
Track quality 100.0 %
Test CRC 6777A2D5
Copy CRC 6777A2D5
Cannot be verified as accurate (confidence 2) [CE228A0A], AccurateRip returned [C99BC0E7] (AR v2)
Copy OK

Track 15

Filename F:\torrent\Get Carter_2000_2CD\CD1\15 Livin' Should Be This Way.wav

Pre-gap length 0:00:01.74

Peak level 97.7 %
Extraction speed 7.4 X
Track quality 100.0 %
Test CRC 7E8FB07E
Copy CRC 7E8FB07E
Cannot be verified as accurate (confidence 2) [18A63FED], AccurateRip returned [0B53B088] (AR v2)
Copy OK

Track 16

Filename F:\torrent\Get Carter_2000_2CD\CD1\16 Dialogue.wav

Pre-gap length 0:00:02.00

Peak level 90.6 %
Extraction speed 2.9 X
Track quality 100.0 %
Test CRC 3B388272
Copy CRC 3B388272
Cannot be verified as accurate (confidence 2) [78BC5E09], AccurateRip returned [F83A211B] (AR v2)
Copy OK

Track 17

Filename F:\torrent\Get Carter_2000_2CD\CD1\17 Manhunt.wav

Pre-gap length 0:00:01.74

Peak level 99.1 %
Extraction speed 7.6 X
Track quality 100.0 %
Test CRC 8237F734
Copy CRC 8237F734
Cannot be verified as accurate (confidence 2) [1EFA8DC8], AccurateRip returned [472381B3] (AR v2)
Copy OK

Track 18

Filename F:\torrent\Get Carter_2000_2CD\CD1\18 Dialogue.wav

Pre-gap length 0:00:01.74

Peak level 96.8 %
Extraction speed 6.3 X
Track quality 100.0 %
Test CRC 88BED971
Copy CRC 88BED971
Cannot be verified as accurate (confidence 2) [ABC6B462], AccurateRip returned [BB1FE72D] (AR v2)
Copy OK

Track 19

Filename F:\torrent\Get Carter_2000_2CD\CD1\19 Goodbye Eric!.wav

Pre-gap length 0:00:01.73

Peak level 100.0 %
Extraction speed 5.0 X
Track quality 100.0 %
Test CRC 99516B95
Copy CRC 99516B95
Cannot be verified as accurate (confidence 2) [C5CFC01D], AccurateRip returned [44140D42] (AR v2)
Copy OK

Track 20

Filename F:\torrent\Get Carter_2000_2CD\CD1\20 Dialogue.wav

Pre-gap length 0:00:01.73

Peak level 35.3 %
Extraction speed 1.2 X
Track quality 100.0 %
Test CRC 94F30779
Copy CRC 94F30779
Track not present in AccurateRip database
Copy OK

Track 21

Filename F:\torrent\Get Carter_2000_2CD\CD1\21 Hallucinations.wav

Pre-gap length 0:00:02.00

Peak level 100.0 %
Extraction speed 8.6 X
Track quality 100.0 %
Test CRC 5A5D6406
Copy CRC 5A5D6406
Cannot be verified as accurate (confidence 2) [88D2CFF7], AccurateRip returned [0D1899BE] (AR v2)
Copy OK

Track 22

Filename F:\torrent\Get Carter_2000_2CD\CD1\22 Dialogue.wav

Pre-gap length 0:00:01.74

Peak level 46.1 %
Extraction speed 3.4 X
Track quality 99.7 %
Test CRC 38A42A4E
Copy CRC 38A42A4E
Cannot be verified as accurate (confidence 2) [09EB6CCF], AccurateRip returned [9D97C400] (AR v2)
Copy OK

Track 23

Filename F:\torrent\Get Carter_2000_2CD\CD1\23 Plaything.wav

Pre-gap length 0:00:02.00

Peak level 98.3 %
Extraction speed 8.0 X
Track quality 100.0 %
Test CRC CE25182A
Copy CRC CE25182A
Cannot be verified as accurate (confidence 2) [7F054FB5], AccurateRip returned [49D46A94] (AR v2)
Copy OK

Track 24

Filename F:\torrent\Get Carter_2000_2CD\CD1\24 Dialogue.wav

Pre-gap length 0:00:01.72

Peak level 40.9 %
Extraction speed 2.0 X
Track quality 100.0 %
Test CRC 6D7EB327
Copy CRC 6D7EB327
Cannot be verified as accurate (confidence 2) [4EADD0D6], AccurateRip returned [87C994EC] (AR v2)
Copy OK

Track 25

Filename F:\torrent\Get Carter_2000_2CD\CD1\25 Goodbye Carter!.wav

Pre-gap length 0:00:01.72

Peak level 97.7 %
Extraction speed 8.6 X
Track quality 100.0 %
Test CRC 645396D2
Copy CRC 645396D2
Cannot be verified as accurate (confidence 2) [47B58CD1], AccurateRip returned [7BE14414] (AR v2)
Copy OK

Track 26

Filename F:\torrent\Get Carter_2000_2CD\CD1\26 Dialogue.wav

Pre-gap length 0:00:02.00

Peak level 14.3 %
Extraction speed 0.7 X
Track quality 100.0 %
Test CRC 4E741F94
Copy CRC 4E741F94
Track not present in AccurateRip database
Copy OK

Track 27

Filename F:\torrent\Get Carter_2000_2CD\CD1\27 Hallucinations - Snoitanicullah (Instrumental).wav

Pre-gap length 0:00:01.73

Peak level 100.0 %
Extraction speed 9.3 X
Track quality 100.0 %
Test CRC F52A95BF
Copy CRC F52A95BF
Cannot be verified as accurate (confidence 3) [143C8F77], AccurateRip returned [8023EB20] (AR v2)
Copy OK

Track 28

Filename F:\torrent\Get Carter_2000_2CD\CD1\28 Dialogue.wav

Pre-gap length 0:00:02.00

Peak level 25.5 %
Extraction speed 6.3 X
Track quality 100.0 %
Test CRC ED44C6F2
Copy CRC ED44C6F2
Track not present in AccurateRip database
Copy OK


25 трек(и) не удалось проверить на точность
3 трек(и) не содержатся в базе AccurateRip

No tracks could be verified as accurate
You may have a different pressing from the one(s) in the database

No errors occurred

End of status report

==== Log checksum 8D3DFE24BA78E6201A3DCE262543DABB851774CC4D47D50E1EC43310DDF78745 ====

foobar2000 1.2 / Dynamic Range Meter 1.1.1
log date: 2013-11-19 15:08:54

––––––––––––––––––––––––––––––––––––––––
Analyzed: Roy Budd / Get Carter
––––––––––––––––––––––––––––––––––––––––

DR Peak RMS Duration Track
––––––––––––––––––––––––––––––––––––––––
DR10 -5.69 dB -26.89 dB 0:36 01-Intro
DR14 -1.76 dB -21.95 dB 0:17 02-Dialogue
DR11 -0.20 dB -13.91 dB 2:58 03-Main Theme - Carter Takes A Train
DR14 -2.60 dB -21.91 dB 0:37 04-Dialogue
DR10 -0.33 dB -12.76 dB 2:32 05-Looking For Someone
DR16 -4.86 dB -25.22 dB 1:30 06-Dialogue - The Race Track
DR11 -0.22 dB -13.07 dB 4:13 07-Something On My Mind
DR17 -2.47 dB -23.07 dB 0:51 08-Dialogue
DR11 0.00 dB -12.93 dB 3:09 09-Getting Nowhere In A Hurry
DR11 -0.91 dB -19.16 dB 1:03 10-Dialogue
DR11 0.00 dB -15.79 dB 2:25 11-The Girl In The Car
DR19 -3.05 dB -28.47 dB 2:14 12-Dialogue
DR12 0.00 dB -13.30 dB 2:40 13-Love Is A Four Letter Word
DR16 -1.80 dB -24.18 dB 0:58 14-Dialogue
DR11 -0.20 dB -12.45 dB 3:15 15-Livin' Should Be This Way
DR19 -0.85 dB -24.35 dB 0:18 16-Dialogue
DR13 -0.07 dB -18.85 dB 2:51 17-Manhunt
DR12 -0.28 dB -18.35 dB 1:21 18-Dialogue
DR12 0.00 dB -16.94 dB 0:48 19-Goodbye Eric!
DR19 -9.02 dB -31.81 dB 0:06 20-Dialogue
DR12 0.00 dB -15.60 dB 4:31 21-Hallucinations
DR15 -6.71 dB -26.01 dB 0:40 22-Dialogue
DR10 -0.14 dB -11.98 dB 2:33 23-Plaything
DR14 -7.76 dB -24.65 dB 0:10 24-Dialogue
DR11 -0.20 dB -14.92 dB 3:41 25-Goodbye Carter!
DR22 -16.83 dB -39.17 dB 0:03 26-Dialogue
DR11 0.00 dB -13.88 dB 4:24 27-Hallucinations - Snoitanicullah (Instrumental)
DR18 -11.85 dB -42.87 dB 0:51 28-Dialogue
––––––––––––––––––––––––––––––––––––––––

Number of tracks: 28
Official DR value: DR14

Samplerate: 44100 Hz
Channels: 2
Bits per sample: 16
Bitrate: 46 kbps
Codec: FLAC
================================================================================


Exact Audio Copy V1.0 beta 3 from 29. August 2011

EAC extraction logfile from 16. May 2012, 13:12

Roy Budd / Get Carter [The Remix Album]

Used drive : PLEXTOR DVDR PX-L890SA Adapter: 1 ID: 1

Read mode : Secure
Utilize accurate stream : Yes
Defeat audio cache : Yes
Make use of C2 pointers : No

Read offset correction : 6
Overread into Lead-In and Lead-Out : No
Fill up missing offset samples with silence : Yes
Delete leading and trailing silent blocks : No
Null samples used in CRC calculations : Yes
Used interface : Installed external ASPI interface
Gap handling : Appended to previous track

Used output format : User Defined Encoder
Selected bitrate : 1024 kBit/s
Quality : High
Add ID3 tag : No
Command line compressor : C:\Program Files\Exact Audio Copy\Flac\flac.exe
Additional command line options : -V -8 -T "Genre=%genre%" -T "Artist=%artist%" -T "Title=%title%" -T "Album=%albumtitle%" -T "Date=%year%" -T "Tracknumber=%tracknr%" -T "Comment=%comment%" %source%


TOC of the extracted CD

Track | Start | Length | Start sector | End sector
––––––––––––––––––––––––––––-
1 | 0:00.00 | 3:59.55 | 0 | 17979
2 | 3:59.55 | 6:31.04 | 17980 | 47308
3 | 10:30.59 | 4:52.25 | 47309 | 69233
4 | 15:23.09 | 6:02.26 | 69234 | 96409
5 | 21:25.35 | 5:11.60 | 96410 | 119794
6 | 26:37.20 | 6:03.40 | 119795 | 147059
7 | 32:40.60 | 5:00.15 | 147060 | 169574
8 | 37:41.00 | 3:55.58 | 169575 | 187257
9 | 41:36.58 | 4:50.35 | 187258 | 209042
10 | 46:27.18 | 7:44.13 | 209043 | 243855


Track 1

Filename F:\torrent\Get Carter_2000_2CD\CD2\01 Breakneck - 7'' Edit.wav

Pre-gap length 0:00:02.00

Peak level 98.8 %
Extraction speed 4.9 X
Track quality 100.0 %
Test CRC D02A9000
Copy CRC D02A9000
Cannot be verified as accurate (confidence 2) [3E27F908], AccurateRip returned [4B276F12] (AR v2)
Copy OK

Track 2

Filename F:\torrent\Get Carter_2000_2CD\CD2\02 Rob's Old School Mix.wav

Pre-gap length 0:00:02.00

Peak level 99.0 %
Extraction speed 5.9 X
Track quality 100.0 %
Test CRC 87948BFB
Copy CRC 87948BFB
Cannot be verified as accurate (confidence 2) [AC9A7111], AccurateRip returned [0007DC00] (AR v2)
Copy OK

Track 3

Filename F:\torrent\Get Carter_2000_2CD\CD2\03 Deadly Avenger Remix.wav

Pre-gap length 0:00:02.00

Peak level 98.8 %
Extraction speed 6.4 X
Track quality 100.0 %
Test CRC B5E28D00
Copy CRC B5E28D00
Cannot be verified as accurate (confidence 2) [A6D6F1B4], AccurateRip returned [217A8803] (AR v2)
Copy OK

Track 4

Filename F:\torrent\Get Carter_2000_2CD\CD2\04 Dope On A Rope - 12'' Remix.wav

Pre-gap length 0:00:02.00

Peak level 99.0 %
Extraction speed 7.2 X
Track quality 100.0 %
Test CRC D8C3B9A2
Copy CRC D8C3B9A2
Cannot be verified as accurate (confidence 2) [9971CBA5], AccurateRip returned [EAF83365] (AR v2)
Copy OK

Track 5

Filename F:\torrent\Get Carter_2000_2CD\CD2\05 Gentleman Thief Remix.wav

Pre-gap length 0:00:02.00

Peak level 98.8 %
Extraction speed 7.7 X
Track quality 100.0 %
Test CRC B6C53B89
Copy CRC B6C53B89
Cannot be verified as accurate (confidence 2) [97813D47], AccurateRip returned [5442773D] (AR v2)
Copy OK

Track 6

Filename F:\torrent\Get Carter_2000_2CD\CD2\06 De Few - 2'' Smoking Barrels Remix''.wav

Pre-gap length 0:00:02.00

Peak level 100.0 %
Extraction speed 7.5 X
Track quality 99.9 %
Test CRC A41CECEF
Copy CRC A41CECEF
Cannot be verified as accurate (confidence 2) [810524C8], AccurateRip returned [1E5A05AE] (AR v2)
Copy OK

Track 7

Filename F:\torrent\Get Carter_2000_2CD\CD2\07 Full Vision Remix - ''Carter Express''.wav

Pre-gap length 0:00:02.00

Peak level 98.8 %
Extraction speed 8.6 X
Track quality 100.0 %
Test CRC 1F9EC69D
Copy CRC 1F9EC69D
Cannot be verified as accurate (confidence 2) [1B5D1B2B], AccurateRip returned [6E7D8B7C] (AR v2)
Copy OK

Track 8

Filename F:\torrent\Get Carter_2000_2CD\CD2\08 Lionrock (Justin Robertson) Remix.wav

Pre-gap length 0:00:02.00

Peak level 98.8 %
Extraction speed 8.6 X
Track quality 100.0 %
Test CRC 65240A23
Copy CRC 65240A23
Cannot be verified as accurate (confidence 2) [9C7B5891], AccurateRip returned [FE3CD685] (AR v2)
Copy OK

Track 9

Filename F:\torrent\Get Carter_2000_2CD\CD2\09 Andy H. & Full Vision Remix - ''Just Call Me Full''.wav

Pre-gap length 0:00:02.00

Peak level 98.8 %
Extraction speed 8.2 X
Track quality 99.9 %
Test CRC CB709BCA
Copy CRC CB709BCA
Cannot be verified as accurate (confidence 2) [B015A1A6], AccurateRip returned [AAF27AEE] (AR v2)
Copy OK

Track 10

Filename F:\torrent\Get Carter_2000_2CD\CD2\10 Breakneck - ''Dirtbox Remix'' - featuring Phil Dirtbox.wav

Pre-gap length 0:00:02.00

Peak level 99.0 %
Extraction speed 9.2 X
Track quality 99.9 %
Test CRC E221F7EE
Copy CRC E221F7EE
Cannot be verified as accurate (confidence 2) [9D4CDC4B], AccurateRip returned [33D4B017] (AR v2)
Copy OK


No tracks could be verified as accurate
You may have a different pressing from the one(s) in the database

No errors occurred

End of status report

==== Log checksum B725A7F99D24FFCCB208410FAD1561CE6687A1508F87879FE0843287E373EB19 ====

foobar2000 1.2 / Dynamic Range Meter 1.1.1
log date: 2013-11-19 15:09:09

––––––––––––––––––––––––––––––––––––––––
Analyzed: Roy Budd / Get Carter [The Remix Album]
––––––––––––––––––––––––––––––––––––––––

DR Peak RMS Duration Track
––––––––––––––––––––––––––––––––––––––––
DR9 -0.10 dB -10.84 dB 4:00 01-Breakneck - 7' Edit
DR12 -0.08 dB -13.83 dB 6:31 02-Rob's Old School Mix
DR8 -0.10 dB -10.20 dB 4:52 03-Deadly Avenger Remix
DR8 -0.08 dB -9.63 dB 6:02 04-Dope On A Rope - 12' Remix
DR7 -0.10 dB -9.05 dB 5:12 05-Gentleman Thief Remix
DR8 0.00 dB -9.22 dB 6:04 06-De Few - 2' Smoking Barrels Remix'
DR7 -0.10 dB -8.66 dB 5:00 07-Full Vision Remix - 'Carter Express'
DR7 -0.10 dB -8.20 dB 3:56 08-Lionrock (Justin Robertson) Remix
DR7 -0.10 dB -9.25 dB 4:50 09-Andy H. & Full Vision Remix - 'Just Call Me Full'
DR10 -0.08 dB -11.09 dB 7:44 10-Breakneck - 'Dirtbox Remix' - featuring Phil Dirtbox
––––––––––––––––––––––––––––––––––––––––

Number of tracks: 10
Official DR value: DR8

Samplerate: 44100 Hz
Channels: 2
Bits per sample: 16
Bitrate: 897 kbps
Codec: FLAC
================================================================================

Roy Budd - Get Carter: Original Motion Picture Soundtrack (1971) 2CD Special Edition includes The Remix Album, 2000 [Re-Up]

Roy Budd - Get Carter: Original Motion Picture Soundtrack (1971) 2CD Special Edition includes The Remix Album, 2000 [Re-Up]