Subcategories

The Choir of the Dormition Church of the Novodevichy Convent - Russian Orthodox Chants (1989)

Posted By: Designol
The Choir of the Dormition Church of the Novodevichy Convent - Russian Orthodox Chants (1989)

Russian Orthodox Chants (1989)
The Choir of the Dormition Church of the Novodevichy Convent
under the direction of Hegumen Petr Polyakov

EAC | FLAC | Tracks (Cue&Log) ~ 347 Mb | Mp3 (CBR320) ~ 195 Mb | Scans included
Genre: Sacral, Choral, Ethnic | Label: Auvidis | # D 8301 | Time: 01:14:52

The Russian Orthodox Novodevichy Convent, dedicated to the Smolensk Icon of the Mother of God, was founded in 1524. According to UNESCO, Novodevichy is the best known convent in Moscow, and in 2004 was proclaimed to be a UNESCO World Heritage Site. This 1989 recording features the choir of the Dormition Church of the Novodevichy Convent under the direction of Hegumen Petr Polyakov. The album is dedicated to the great jubilee of the Millennium of Baptism of Russia, which celebrated a thousand years of Christianity in Russia.

The Choir of the Dormition Church of the Novodevichy Convent - Russian Orthodox Chants (1989)

Novodevichy Convent


Tracklist:

01. Bells of the Novodevichy Convent (01:12)
02. My Soul Doth Magnify the Lord (06:45)
03. The King of Heaven, Dogmatik, tone 8 (Znamenny chant) (02:24)
04. Who Is So Great a God as Our God? (The Great Gradual) (02:45)
05. The Magnificat (Znamenny chant) (02:22)
06. Hymn to the Birth-Giver of God from the Service to All the Saints Who Glorified In the Land of Russia (01:51)
07. It Is Meet (Athonite chant) (02:44)
08. Gradual, tone 2 (03:45)
09. O, Now Bless the Lord (04:55)
10. I Will Open My Mouth (Theme-songs. Canticles 1, 3, 6, 8, 9) (04:13)
11. Establish, O Lord (02:00)
12. The Hymn for St. Daniel, Prince of Moscow (Chant of the Sedmiezernaya Hermitage) (01:43)
13. Queen of Heavenly Host (01:29)

HYMNS FOR THE FEAST OF THE SMOLENSK ICON OF THE MOTHER OF GOD (HODEGETRIA):

14. The Hymn for the Hodegetria, tone 4 (Traditional chant) (01:13)
15. Thou Dost Intercede for All, O Good One (The Stanza, tone 2. Chant of the Optina Hermitage) (01:34)
16. Thou, the Guide of Those Who Stray… (The Stanza for the Lauds, tone 4. Chant of the Optina Hermitage) (01:47)

HYMNS FOR THE DORMITION OF THE MOST HOLY BIRTH-GIVER OF GOD:

17. The Hymn for the Day, tone 1 (Traditional chant) (01:08)
18. O Marvel Wonderful! (The Stanza for: "Lord, I have cried", tone 1. Chant of the Kievo-Pecherskaya Lavra) (01:20)
19. At the Soverign Command of God… (The Stanza at the Entrance) (03:47)
20. …The Birth-Giver of God Constant in Supplication… (Collect-Hymn for the Dormition. Chant of the Kievo-Pecherskaya Lavra) (02:17)
21. Adorned With the Divine Glory… (Theme-song of the canon for the Dormition) (00:51)
22. Megalynarion for the Dormition (02:22)
23. O, Ye Apostles… (Protogogicon for the Dormition. Greek chant) (02:26)

HYMNS OF THE DIVINE LITURGY:

24. Litany of Fervent Supplication (05:44)
25. The Beatitudes With the Hymns for the Hodegetria (Chant of the Kievo-Pecherskaya Lavra) (02:48)
26. A Mercy of Peace (Op. 10, n. 4) (04:35)
27. The Angel Cried (Megalynarion to Holy Easter) (03:01)
28. Bells of the Novodevichy Convent (01:39)


Exact Audio Copy V1.0 beta 3 from 29. August 2011

EAC extraction logfile from 18. March 2014, 0:56

The Choir of the Dormition Church of the Novodevichy Covent, Hegumen Petr Polyakov / Russian Orthodox Chants

Used drive : TSSTcorpCDDVDW SN-208BB Adapter: 0 ID: 1

Read mode : Secure
Utilize accurate stream : Yes
Defeat audio cache : Yes
Make use of C2 pointers : No

Read offset correction : 6
Overread into Lead-In and Lead-Out : No
Fill up missing offset samples with silence : Yes
Delete leading and trailing silent blocks : No
Null samples used in CRC calculations : Yes
Used interface : Native Win32 interface for Win NT & 2000
Gap handling : Appended to previous track

Used output format : User Defined Encoder
Selected bitrate : 320 kBit/s
Quality : High
Add ID3 tag : No
Command line compressor : C:\Program Files (x86)\Exact Audio Copy\Flac\flac.exe
Additional command line options : -8 -V -T "ARTIST=%artist%" -T "TITLE=%title%" -T "ALBUM=%albumtitle%" -T "DATE=%year%" -T "TRACKNUMBER=%tracknr%" -T "GENRE=%genre%" -T "PERFORMER=%albuminterpret%" -T "COMPOSER=%composer%" %haslyrics%–tag-from-file=LYRICS="%lyricsfile%"%haslyrics% -T "ALBUMARTIST=%albumartist%" -T "DISCNUMBER=%cdnumber%" -T "TOTALDISCS=%totalcds%" -T "TOTALTRACKS=%numtracks%" -T "COMMENT=%comment%" %source% -o %dest%


TOC of the extracted CD

Track | Start | Length | Start sector | End sector
––––––––––––––––––––––––––––-
1 | 0:00.32 | 1:12.68 | 32 | 5499
2 | 1:13.25 | 6:45.60 | 5500 | 35934
3 | 7:59.10 | 2:24.52 | 35935 | 46786
4 | 10:23.62 | 2:45.60 | 46787 | 59221
5 | 13:09.47 | 2:22.45 | 59222 | 69916
6 | 15:32.17 | 1:51.23 | 69917 | 78264
7 | 17:23.40 | 2:44.47 | 78265 | 90611
8 | 20:08.12 | 3:45.13 | 90612 | 107499
9 | 23:53.25 | 4:55.20 | 107500 | 129644
10 | 28:48.45 | 4:13.47 | 129645 | 148666
11 | 33:02.17 | 2:00.40 | 148667 | 157706
12 | 35:02.57 | 1:43.23 | 157707 | 165454
13 | 36:46.05 | 1:29.37 | 165455 | 172166
14 | 38:15.42 | 1:13.20 | 172167 | 177661
15 | 39:28.62 | 1:34.15 | 177662 | 184726
16 | 41:03.02 | 1:47.00 | 184727 | 192751
17 | 42:50.02 | 1:08.35 | 192752 | 197886
18 | 43:58.37 | 1:20.65 | 197887 | 203951
19 | 45:19.27 | 3:47.03 | 203952 | 220979
20 | 49:06.30 | 2:17.22 | 220980 | 231276
21 | 51:23.52 | 0:51.00 | 231277 | 235101
22 | 52:14.52 | 2:22.45 | 235102 | 245796
23 | 54:37.22 | 2:26.25 | 245797 | 256771
24 | 57:03.47 | 5:44.50 | 256772 | 282621
25 | 62:48.22 | 2:48.00 | 282622 | 295221
26 | 65:36.22 | 4:35.48 | 295222 | 315894
27 | 70:11.70 | 3:01.67 | 315895 | 329536
28 | 73:13.62 | 1:39.05 | 329537 | 336966


Track 1

Filename D:\Flac\Russian Orthodox Chants (1989) [FLAC]\01 Bells of the Convent.wav

Pre-gap length 0:00:02.42

Peak level 58.6 %
Extraction speed 2.2 X
Track quality 100.0 %
Test CRC 92969EFE
Copy CRC 92969EFE
Track not present in AccurateRip database
Copy OK

Track 2

Filename D:\Flac\Russian Orthodox Chants (1989) [FLAC]\02 My Soul Doth Magnify the Lord.wav

Peak level 82.8 %
Extraction speed 3.4 X
Track quality 100.0 %
Test CRC 455F4F7B
Copy CRC 455F4F7B
Track not present in AccurateRip database
Copy OK

Track 3

Filename D:\Flac\Russian Orthodox Chants (1989) [FLAC]\03 The King of Heaven.wav

Pre-gap length 0:00:01.10

Peak level 79.9 %
Extraction speed 3.2 X
Track quality 100.0 %
Test CRC 5AFE5790
Copy CRC 5AFE5790
Track not present in AccurateRip database
Copy OK

Track 4

Filename D:\Flac\Russian Orthodox Chants (1989) [FLAC]\04 Who Is So Great a God as Our God.wav

Pre-gap length 0:00:03.02

Peak level 95.0 %
Extraction speed 3.4 X
Track quality 100.0 %
Test CRC C5944C6E
Copy CRC C5944C6E
Track not present in AccurateRip database
Copy OK

Track 5

Filename D:\Flac\Russian Orthodox Chants (1989) [FLAC]\05 The Magnificat.wav

Pre-gap length 0:00:01.36

Peak level 53.9 %
Extraction speed 3.5 X
Track quality 100.0 %
Test CRC F5F38669
Copy CRC F5F38669
Track not present in AccurateRip database
Copy OK

Track 6

Filename D:\Flac\Russian Orthodox Chants (1989) [FLAC]\06 Hymn to the Birth-Giver of God.wav

Pre-gap length 0:00:00.46

Peak level 92.1 %
Extraction speed 3.4 X
Track quality 100.0 %
Test CRC 838C9FE5
Copy CRC 838C9FE5
Track not present in AccurateRip database
Copy OK

Track 7

Filename D:\Flac\Russian Orthodox Chants (1989) [FLAC]\07 It Is Meet.wav

Pre-gap length 0:00:01.93

Peak level 61.0 %
Extraction speed 3.8 X
Track quality 100.0 %
Test CRC FC8E24A2
Copy CRC FC8E24A2
Track not present in AccurateRip database
Copy OK

Track 8

Filename D:\Flac\Russian Orthodox Chants (1989) [FLAC]\08 Gradual.wav

Pre-gap length 0:00:00.76

Peak level 75.6 %
Extraction speed 4.1 X
Track quality 100.0 %
Test CRC 4F9B597D
Copy CRC 4F9B597D
Track not present in AccurateRip database
Copy OK

Track 9

Filename D:\Flac\Russian Orthodox Chants (1989) [FLAC]\09 O, Now Bless the Lord.wav

Pre-gap length 0:00:02.77

Peak level 84.0 %
Extraction speed 4.5 X
Track quality 100.0 %
Test CRC 4214D661
Copy CRC 4214D661
Track not present in AccurateRip database
Copy OK

Track 10

Filename D:\Flac\Russian Orthodox Chants (1989) [FLAC]\10 I Will Open My Mouth.wav

Pre-gap length 0:00:02.57

Peak level 87.2 %
Extraction speed 3.8 X
Track quality 99.9 %
Test CRC B932AE6E
Copy CRC B932AE6E
Track not present in AccurateRip database
Copy OK

Track 11

Filename D:\Flac\Russian Orthodox Chants (1989) [FLAC]\11 Establish, O Lord.wav

Pre-gap length 0:00:01.28

Peak level 83.3 %
Extraction speed 4.1 X
Track quality 100.0 %
Test CRC 2D636EE4
Copy CRC 2D636EE4
Track not present in AccurateRip database
Copy OK

Track 12

Filename D:\Flac\Russian Orthodox Chants (1989) [FLAC]\12 The Hymn of St. Daniel.wav

Pre-gap length 0:00:02.02

Peak level 65.0 %
Extraction speed 4.1 X
Track quality 100.0 %
Test CRC 7C2FDD54
Copy CRC 7C2FDD54
Track not present in AccurateRip database
Copy OK

Track 13

Filename D:\Flac\Russian Orthodox Chants (1989) [FLAC]\13 Queen If Heavenly Host.wav

Pre-gap length 0:00:01.44

Peak level 75.3 %
Extraction speed 4.0 X
Track quality 100.0 %
Test CRC 720EB552
Copy CRC 720EB552
Track not present in AccurateRip database
Copy OK

Track 14

Filename D:\Flac\Russian Orthodox Chants (1989) [FLAC]\14 The Hymn of the Hodegetria.wav

Pre-gap length 0:00:04.06

Peak level 74.0 %
Extraction speed 3.8 X
Track quality 100.0 %
Test CRC AA567C44
Copy CRC AA567C44
Track not present in AccurateRip database
Copy OK

Track 15

Filename D:\Flac\Russian Orthodox Chants (1989) [FLAC]\15 Thou Dost Intercede for All, O Good One.wav

Pre-gap length 0:00:01.56

Peak level 84.8 %
Extraction speed 4.1 X
Track quality 100.0 %
Test CRC 6DC4CE96
Copy CRC 6DC4CE96
Track not present in AccurateRip database
Copy OK

Track 16

Filename D:\Flac\Russian Orthodox Chants (1989) [FLAC]\16 Thou, the Guide of Those Who Stray.wav

Pre-gap length 0:00:01.36

Peak level 96.1 %
Extraction speed 4.3 X
Track quality 100.0 %
Test CRC BE03E364
Copy CRC BE03E364
Track not present in AccurateRip database
Copy OK

Track 17

Filename D:\Flac\Russian Orthodox Chants (1989) [FLAC]\17 The Hymn for the Day.wav

Pre-gap length 0:00:01.40

Peak level 65.6 %
Extraction speed 3.8 X
Track quality 100.0 %
Test CRC A1317581
Copy CRC A1317581
Track not present in AccurateRip database
Copy OK

Track 18

Filename D:\Flac\Russian Orthodox Chants (1989) [FLAC]\18 O Marvel Wonderful.wav

Pre-gap length 0:00:02.13

Peak level 88.7 %
Extraction speed 4.0 X
Track quality 100.0 %
Test CRC A4134EB1
Copy CRC A4134EB1
Track not present in AccurateRip database
Copy OK

Track 19

Filename D:\Flac\Russian Orthodox Chants (1989) [FLAC]\19 At the Soverign Command of God.wav

Pre-gap length 0:00:02.53

Peak level 97.7 %
Extraction speed 4.2 X
Track quality 99.9 %
Test CRC 98276605
Copy CRC 98276605
Track not present in AccurateRip database
Copy OK

Track 20

Filename D:\Flac\Russian Orthodox Chants (1989) [FLAC]\20 The Birth-Giver of God Constant in Supplication.wav

Pre-gap length 0:00:01.84

Peak level 47.4 %
Extraction speed 4.9 X
Track quality 100.0 %
Test CRC FD54F5F3
Copy CRC FD54F5F3
Track not present in AccurateRip database
Copy OK

Track 21

Filename D:\Flac\Russian Orthodox Chants (1989) [FLAC]\21 Adorned With the Divine Glory.wav

Pre-gap length 0:00:03.93

Peak level 40.3 %
Extraction speed 3.5 X
Track quality 100.0 %
Test CRC 4BFDDDBF
Copy CRC 4BFDDDBF
Track not present in AccurateRip database
Copy OK

Track 22

Filename D:\Flac\Russian Orthodox Chants (1989) [FLAC]\22 Megalynarion for the Dormition.wav

Pre-gap length 0:00:03.42

Peak level 49.3 %
Extraction speed 5.0 X
Track quality 100.0 %
Test CRC 883D0C18
Copy CRC 883D0C18
Track not present in AccurateRip database
Copy OK

Track 23

Filename D:\Flac\Russian Orthodox Chants (1989) [FLAC]\23 O, Ye Apostles.wav

Pre-gap length 0:00:02.89

Peak level 55.2 %
Extraction speed 5.1 X
Track quality 100.0 %
Test CRC 2F013D8B
Copy CRC 2F013D8B
Track not present in AccurateRip database
Copy OK

Track 24

Filename D:\Flac\Russian Orthodox Chants (1989) [FLAC]\24 Litany of Fervent Supplication.wav

Pre-gap length 0:00:03.46

Peak level 97.7 %
Extraction speed 6.0 X
Track quality 100.0 %
Test CRC 334E5DB2
Copy CRC 334E5DB2
Track not present in AccurateRip database
Copy OK

Track 25

Filename D:\Flac\Russian Orthodox Chants (1989) [FLAC]\25 The Beatitudes With the Hymns for the Hodegetria.wav

Pre-gap length 0:00:01.56

Peak level 97.7 %
Extraction speed 4.1 X
Track quality 99.9 %
Test CRC 09027A9D
Copy CRC 09027A9D
Track not present in AccurateRip database
Copy OK

Track 26

Filename D:\Flac\Russian Orthodox Chants (1989) [FLAC]\26 A Mercy of Peace.wav

Pre-gap length 0:00:02.06

Peak level 79.1 %
Extraction speed 6.1 X
Track quality 100.0 %
Test CRC 7B44739B
Copy CRC 7B44739B
Track not present in AccurateRip database
Copy OK

Track 27

Filename D:\Flac\Russian Orthodox Chants (1989) [FLAC]\27 The Angel Cried.wav

Pre-gap length 0:00:04.00

Peak level 97.7 %
Extraction speed 4.1 X
Track quality 99.9 %
Test CRC CCC27381
Copy CRC CCC27381
Track not present in AccurateRip database
Copy OK

Track 28

Filename D:\Flac\Russian Orthodox Chants (1989) [FLAC]\28 Bells of the Convent.wav

Peak level 64.8 %
Extraction speed 4.2 X
Track quality 100.0 %
Test CRC 1AF88E71
Copy CRC 1AF88E71
Track not present in AccurateRip database
Copy OK


None of the tracks are present in the AccurateRip database

No errors occurred

End of status report

–– CUETools DB Plugin V2.1.4

[CTDB TOCID: P1X6tu4pjILpCSE1jxRCTTMcRz4-] disk not present in database
Submit result: P1X6tu4pjILpCSE1jxRCTTMcRz4- has been uploaded


==== Log checksum 0B19F93B5826382308786D300CC722DAE012500D0C7552971AC97A98AE3B10A3 ====

[CUETools log; Date: 02.05.2016 12:39:54; Version: 2.1.4]
Pregap length 00:00:32.
[CTDB TOCID: P1X6tu4pjILpCSE1jxRCTTMcRz4-] found.
Track | CTDB Status
1 | (1/1) Accurately ripped
2 | (1/1) Accurately ripped
3 | (1/1) Accurately ripped
4 | (1/1) Accurately ripped
5 | (1/1) Accurately ripped
6 | (1/1) Accurately ripped
7 | (1/1) Accurately ripped
8 | (1/1) Accurately ripped
9 | (1/1) Accurately ripped
10 | (1/1) Accurately ripped
11 | (1/1) Accurately ripped
12 | (1/1) Accurately ripped
13 | (1/1) Accurately ripped
14 | (1/1) Accurately ripped
15 | (1/1) Accurately ripped
16 | (1/1) Accurately ripped
17 | (1/1) Accurately ripped
18 | (1/1) Accurately ripped
19 | (1/1) Accurately ripped
20 | (1/1) Accurately ripped
21 | (1/1) Accurately ripped
22 | (1/1) Accurately ripped
23 | (1/1) Accurately ripped
24 | (1/1) Accurately ripped
25 | (1/1) Accurately ripped
26 | (1/1) Accurately ripped
27 | (1/1) Accurately ripped
28 | (1/1) Accurately ripped
[AccurateRip ID: 004be7e2-05cff952-90118c1c] found.
Track [ CRC | V2 ] Status
01 [39f01fe5|f54cfb46] (0+1/2) Accurately ripped
02 [e01a63a7|290ca73b] (0+1/2) Accurately ripped
03 [7df0ec66|4b01292a] (0+1/2) Accurately ripped
04 [2e368955|d27da983] (0+1/2) Accurately ripped
05 [70628cc2|47891d07] (0+1/2) Accurately ripped
06 [66b72df8|0d57d954] (0+1/2) Accurately ripped
07 [516d9806|91813702] (0+1/2) Accurately ripped
08 [a761b99d|085445ac] (0+1/2) Accurately ripped
09 [620097fc|89539a93] (0+1/2) Accurately ripped
10 [d7878f27|3b28ce19] (0+1/2) Accurately ripped
11 [f3bb4dd3|46d2b854] (0+1/2) Accurately ripped
12 [aa79c435|ced742e7] (0+1/2) Accurately ripped
13 [bc83194c|cdf97263] (0+1/2) Accurately ripped
14 [cd1ccd24|d252716c] (0+1/2) Accurately ripped
15 [1f8471db|f8fcaf7c] (0+1/2) Accurately ripped
16 [22d379dd|17ef335c] (0+1/2) Accurately ripped
17 [6e26e447|0265c5e7] (0+1/2) Accurately ripped
18 [250c1b71|96d595ef] (0+1/2) Accurately ripped
19 [2eb4e17b|652e01c7] (0+1/2) Accurately ripped
20 [16469e0b|36191cd9] (0+1/2) Accurately ripped
21 [725600a0|fd630910] (0+1/2) Accurately ripped
22 [86bd6fec|fd63c733] (0+1/2) Accurately ripped
23 [a3776788|a4fab021] (0+1/2) Accurately ripped
24 [c9cfd312|4df01623] (0+1/2) Accurately ripped
25 [e519ea4f|085f4145] (0+1/2) Accurately ripped
26 [37dce1f2|b5a32ab1] (0+1/2) Accurately ripped
27 [d7e761c9|13bd43a4] (0+1/2) Accurately ripped
28 [2c28fba8|1b1e3e5d] (0+1/2) Accurately ripped

Track Peak [ CRC32 ] [W/O NULL] [ LOG ]
– 97,7 [86080D62] [2045636C]
01 58,6 [92969EFE] [3A00BA39] CRC32
02 82,8 [455F4F7B] [EF7C8C43] CRC32
03 79,9 [5AFE5790] [7C51B824] CRC32
04 95,0 [C5944C6E] [F1F5DBB7] CRC32
05 53,9 [F5F38669] [E7837ACE] CRC32
06 92,1 [838C9FE5] [09C8CAF0] CRC32
07 61,0 [FC8E24A2] [6309E4D5] CRC32
08 75,6 [4F9B597D] [91351896] CRC32
09 84,0 [4214D661] [D2E7BA4B] CRC32
10 87,2 [B932AE6E] [A4CC24BD] CRC32
11 83,3 [2D636EE4] [7FBD426F] CRC32
12 65,0 [7C2FDD54] [79E74343] CRC32
13 75,3 [720EB552] [A572888E] CRC32
14 74,0 [AA567C44] [A8F5B55E] CRC32
15 84,8 [6DC4CE96] [88C789B8] CRC32
16 96,1 [BE03E364] [91EEB926] CRC32
17 65,6 [A1317581] [3398A9C4] CRC32
18 88,7 [A4134EB1] [210F64D0] CRC32
19 97,7 [98276605] [1D3A0F4F] CRC32
20 47,4 [FD54F5F3] [C10F9881] CRC32
21 40,3 [4BFDDDBF] [FD0625C7] CRC32
22 49,3 [883D0C18] [A9B99FBC] CRC32
23 55,2 [2F013D8B] [23DEE53B] CRC32
24 97,7 [334E5DB2] [6C50D654] CRC32
25 97,7 [09027A9D] [9A0DB38C] CRC32
26 79,1 [7B44739B] [687BE7D6] CRC32
27 97,7 [CCC27381] [3A430430] CRC32
28 64,8 [1AF88E71] [7CA9D591] CRC32

foobar2000 1.2 / Dynamic Range Meter 1.1.1
log date: 2016-05-02 12:59:50

––––––––––––––––––––––––––––––––––––––––
Analyzed: Protodeacon Sergy Strigunov / Russian Orthodox Chants / Chants Orthodoxes Russes (1)
solo: Nataliya Alexandrova, Protodeacon Sergy Strigunov / Russian Orthodox Chants / Chants Orthodoxes Russes (2)
solo: Nina Ogneva / Russian Orthodox Chants / Chants Orthodoxes Russes (3)
solo: Protodeacon Sergy Strigunov / Russian Orthodox Chants / Chants Orthodoxes Russes (4-5)
solo: Svetlana Erastova / Russian Orthodox Chants / Chants Orthodoxes Russes (6)
solo: Valeriya Kiseleva / Russian Orthodox Chants / Chants Orthodoxes Russes (7)
The Choir of the Dormition Church of the Novodevichy Covent, Hegumen Petr Polyakov / Russian Orthodox Chants / Chants Orthodoxes Russes (8-28)
––––––––––––––––––––––––––––––––––––––––

DR Peak RMS Duration Track
––––––––––––––––––––––––––––––––––––––––
DR13 -0.20 dB -19.49 dB 5:45 24-Litany of Fervent Supplication
DR13 -1.63 dB -20.83 dB 6:46 02-My Soul Doth Magnify the Lord
DR12 -0.20 dB -16.46 dB 3:02 27-The Angel Cried (Megalynarion to Holy Easter)
DR12 -0.44 dB -17.88 dB 2:46 04-Who Is So Great a God as Our God? (The Great Gradual)
DR11 -1.58 dB -17.90 dB 2:01 11-Establish, O Lord
DR13 -2.43 dB -22.72 dB 3:45 08-Gradual, tone 2
DR13 -1.51 dB -20.26 dB 4:55 09-O, Now Bless the Lord
DR12 -4.64 dB -19.84 dB 1:13 01-Bells of the Novodevichy Convent
DR12 -1.94 dB -22.62 dB 2:25 03-The King of Heaven, Dogmatik, tone 8 (Znamenny chant)
DR13 -5.36 dB -23.51 dB 2:23 05-The Magnificat (Znamenny chant)
DR11 -0.71 dB -18.39 dB 1:51 06-Hymn to the Birth-Giver of God from the Service to All the Saints Who Glorified In the Land of Russia
DR13 -4.29 dB -22.42 dB 2:45 07-It Is Meet (Athonite chant)
DR13 -1.18 dB -18.46 dB 4:14 10-I Will Open My Mouth (Theme-songs. Canticles 1, 3, 6, 8, 9)
DR11 -3.74 dB -20.12 dB 1:43 12-The Hymn for St. Daniel, Prince of Moscow (Chant of the Sedmiezernaya Hermitage)
DR11 -2.46 dB -18.11 dB 1:29 13-Queen of Heavenly Host
DR11 -2.61 dB -18.84 dB 1:13 14-The Hymn for the Hodegetria, tone 4 (Traditional chant)
DR11 -1.43 dB -18.67 dB 1:34 15-Thou Dost Intercede for All, O Good One (The Stanza, tone 2. Chant of the Optina Hermitage)
DR12 -0.34 dB -17.71 dB 1:47 16-Thou, the Guide of Those Who Stray… (The Stanza for the Lauds, tone 4. Chant of the Optina Hermitage)
DR11 -3.66 dB -17.98 dB 1:08 17-The Hymn for the Day, tone 1 (Traditional chant)
DR12 -1.04 dB -19.54 dB 1:21 18-O Marvel Wonderful! (The Stanza for: "Lord, I have cried", tone 1. Chant of the Kievo-Pecherskaya Lavra)
DR12 -0.20 dB -16.45 dB 3:47 19-At the Soverign Command of God… (The Stanza at the Entrance)
DR12 -6.48 dB -24.25 dB 2:17 20-…The Birth-Giver of God Constant in Supplication… (Collect-Hymn for the Dormition. Chant of the Kievo-Pecherskaya Lavra)
DR12 -7.88 dB -24.45 dB 0:51 21-Adorned With the Divine Glory… (Theme-song of the canon for the Dormition)
DR13 -6.14 dB -23.45 dB 2:23 22-Megalynarion for the Dormition
DR13 -5.16 dB -23.09 dB 2:26 23-O, Ye Apostles… (Protogogicon for the Dormition. Greek chant)
DR12 -0.20 dB -14.79 dB 2:48 25-The Beatitudes With the Hymns for the Hodegetria (Chant of the Kievo-Pecherskaya Lavra)
DR13 -2.03 dB -20.25 dB 4:36 26-A Mercy of Peace (Op. 10, n. 4)
DR13 -3.76 dB -19.88 dB 1:39 28-Bells of the Novodevichy Convent
––––––––––––––––––––––––––––––––––––––––

Number of tracks: 28
Official DR value: DR12

Samplerate: 44100 Hz
Channels: 2
Bits per sample: 16
Bitrate: 607 kbps
Codec: FLAC
================================================================================

The Choir of the Dormition Church of the Novodevichy Convent - Russian Orthodox Chants (1989)

All thanks to original releaser - Dmnik

More interesting music in My Blog