Tags
Language
Tags

Santana - Santana (1969) [Non-Remastered] Re-Up

Posted By: Designol
Santana - Santana (1969) [Non-Remastered] Re-Up

Santana - Santana (1969)
EAC | FLAC | Tracks (Cue&Log) ~ 239 Mb | Scans included
Label: CBS | # CDCBS 32003 | Time: 00:37:01
Psychedelic Rock, Classic Rock, Latin Rock, Fusion

Before the arrival of Carlos Santana's eponymous band, the San Francisco rock scene drew the inspiration for its jam-oriented music mainly from blues, rock, and Eastern modalities. Santana added Latin music to the mix, forever changing the course of rock & roll history. On their groundbreaking debut album, the group mix Latin percussion with driving rock grooves. Santana's unique guitar style, alternately biting and liquid, vies with the multiple percussionists for the sonic focus. Unlike later efforts, Santana's first album features an abundance of loose, collective compositions based on a couple of simple riffs ("Jingo," "Soul Sacrifice"). This approach allows for Santana and his bandmates to flex their improvisational muscles to fine effect. The high-energy level on Santana is infectious – the laid-back feel of other '60s San Francisco groups was clearly not for Carlos and co.

Review by Rovi Staff, Allmusic.com

Santana - Santana (1969) [Non-Remastered] Re-Up



Tracklist:

01. Waiting (04:05)
02. Evil Ways (03:58)
03. Shades Of Time (03:13)
04. Savor (02:47)
05. Jin-Go-Lo-Ba (04:20)
06. Persuasion (02:37)
07. Treat (04:44)
08. You Just Don't Care (04:37)
09. Soul Sacrifice (06:36)


Exact Audio Copy V1.0 beta 4 from 7. December 2014

EAC extraction logfile from 25. March 2016, 20:36

Santana / Santana

Used drive : TSSTcorpCDDVDW SH-224DB Adapter: 1 ID: 0

Read mode : Secure
Utilize accurate stream : Yes
Defeat audio cache : Yes
Make use of C2 pointers : No

Read offset correction : 6
Overread into Lead-In and Lead-Out : No
Fill up missing offset samples with silence : Yes
Delete leading and trailing silent blocks : No
Null samples used in CRC calculations : Yes
Used interface : Native Win32 interface for Win NT & 2000
Gap handling : Appended to previous track

Used output format : User Defined Encoder
Selected bitrate : 896 kBit/s
Quality : High
Add ID3 tag : No
Command line compressor : C:\Program Files\Exact Audio Copy\Flac\flac.exe
Additional command line options : -6 -V -T "ARTIST=%artist%" -T "TITLE=%title%" -T "ALBUM=%albumtitle%" -T "DATE=%year%" -T "TRACKNUMBER=%tracknr%" -T "GENRE=%genre%" -T "COMMENT=%comment%" %source% -o %dest%


TOC of the extracted CD

Track | Start | Length | Start sector | End sector
––––––––––––––––––––––––––––-
1 | 0:00.00 | 4:05.47 | 0 | 18421
2 | 4:05.47 | 3:58.40 | 18422 | 36311
3 | 8:04.12 | 3:13.35 | 36312 | 50821
4 | 11:17.47 | 2:47.08 | 50822 | 63354
5 | 14:04.55 | 4:20.65 | 63355 | 82919
6 | 18:25.45 | 2:37.57 | 82920 | 94751
7 | 21:03.27 | 4:44.40 | 94752 | 116091
8 | 25:47.67 | 4:37.35 | 116092 | 136901
9 | 30:25.27 | 6:36.43 | 136902 | 166644


Track 1

Filename C:\New Folder\01 - Waiting.wav

Pre-gap length 0:00:02.00

Peak level 94.9 %
Extraction speed 1.7 X
Track quality 100.0 %
Test CRC 08F00299
Copy CRC 08F00299
Accurately ripped (confidence 62) [20E9A677] (AR v2)
Copy OK

Track 2

Filename C:\New Folder\02 - Evil Ways.wav

Pre-gap length 0:00:03.07

Peak level 97.2 %
Extraction speed 1.9 X
Track quality 100.0 %
Test CRC B3DAE93A
Copy CRC B3DAE93A
Accurately ripped (confidence 62) [D242E4D4] (AR v2)
Copy OK

Track 3

Filename C:\New Folder\03 - Shades Of Time.wav

Pre-gap length 0:00:02.67

Peak level 98.0 %
Extraction speed 2.0 X
Track quality 100.0 %
Test CRC 0C05711B
Copy CRC 0C05711B
Accurately ripped (confidence 61) [AD377950] (AR v2)
Copy OK

Track 4

Filename C:\New Folder\04 - Savor.wav

Peak level 78.0 %
Extraction speed 2.0 X
Track quality 100.0 %
Test CRC B96EA039
Copy CRC B96EA039
Accurately ripped (confidence 62) [AC78C656] (AR v2)
Copy OK

Track 5

Filename C:\New Folder\05 - Jin-Go-Lo-Ba.wav

Peak level 85.4 %
Extraction speed 2.3 X
Track quality 100.0 %
Test CRC 602D6879
Copy CRC 602D6879
Accurately ripped (confidence 62) [70162594] (AR v2)
Copy OK

Track 6

Filename C:\New Folder\06 - Persuasion.wav

Pre-gap length 0:00:02.08

Peak level 92.4 %
Extraction speed 2.2 X
Track quality 100.0 %
Test CRC 082EAF93
Copy CRC 082EAF93
Accurately ripped (confidence 61) [1E13A774] (AR v2)
Copy OK

Track 7

Filename C:\New Folder\07 - Treat.wav

Pre-gap length 0:00:03.12

Peak level 100.0 %
Extraction speed 2.2 X
Track quality 99.9 %
Test CRC 3A5B1CFC
Copy CRC 3A5B1CFC
Accurately ripped (confidence 62) [525EEE47] (AR v2)
Copy OK

Track 8

Filename C:\New Folder\08 - You Just Don't Care.wav

Pre-gap length 0:00:02.62

Peak level 100.0 %
Extraction speed 2.7 X
Track quality 100.0 %
Test CRC 7845226C
Copy CRC 7845226C
Accurately ripped (confidence 61) [828806A0] (AR v2)
Copy OK

Track 9

Filename C:\New Folder\09 - Soul Sacrifice.wav

Pre-gap length 0:00:03.50

Peak level 97.5 %
Extraction speed 3.0 X
Track quality 100.0 %
Test CRC 40040B94
Copy CRC 40040B94
Accurately ripped (confidence 62) [FE5EC5A1] (AR v2)
Copy OK


All tracks accurately ripped

No errors occurred

End of status report

–– CUETools DB Plugin V2.1.4

[CTDB TOCID: aNwgERDRewYkCujRQRyX.JTTDZ0-] found
Submit result: aNwgERDRewYkCujRQRyX.JTTDZ0- has been confirmed, aNwgERDRewYkCujRQRyX.JTTDZ0- has been confirmed
Track | CTDB Status
1 | (173/177) Accurately ripped
2 | (173/177) Accurately ripped
3 | (173/177) Accurately ripped
4 | (175/177) Accurately ripped
5 | (175/177) Accurately ripped
6 | (176/177) Accurately ripped
7 | (175/177) Accurately ripped
8 | (173/177) Accurately ripped
9 | (172/177) Accurately ripped


==== Log checksum D441B6782E71829866B2E3DA67A7755F3668BA1AAFBA88C7BB1BBC6D3A6504A3 ====

foobar2000 1.2 / Dynamic Range Meter 1.1.1
log date: 2016-07-19 20:05:23

––––––––––––––––––––––––––––––––––––––––
Analyzed: Santana / Santana
––––––––––––––––––––––––––––––––––––––––

DR Peak RMS Duration Track
––––––––––––––––––––––––––––––––––––––––
DR12 -0.45 dB -15.43 dB 4:06 01-Waiting
DR12 -0.25 dB -15.50 dB 3:59 02-Evil Ways
DR13 -0.18 dB -15.18 dB 3:13 03-Shades Of Time
DR11 -2.16 dB -15.50 dB 2:47 04-Savor
DR11 -1.36 dB -15.51 dB 4:21 05-Jin-Go-Lo-Ba
DR13 -0.68 dB -15.23 dB 2:38 06-Persuasion
DR14 0.00 dB -18.45 dB 4:45 07-Treat
DR13 0.00 dB -14.26 dB 4:37 08-You Just Don't Care
DR12 -0.22 dB -14.54 dB 6:37 09-Soul Sacrifice
––––––––––––––––––––––––––––––––––––––––

Number of tracks: 9
Official DR value: DR12

Samplerate: 44100 Hz
Channels: 2
Bits per sample: 16
Bitrate: 761 kbps
Codec: FLAC
================================================================================

Santana - Santana (1969) [Non-Remastered] Re-Up

Santana - Santana (1969) [Non-Remastered] Re-Up

All thanks to original releaser - alekow

More interesting music in My Blog