Subcategories

Sergio Mendes Trio - Bossa Nova York (1964) Remastered 2004

Posted By: Designol
Sergio Mendes Trio - Bossa Nova York (1964) Remastered 2004

Sérgio Mendes Trio - Bossa Nova York (1964) Remastered 2004
Special Guests: Antonio Carlos Jobim, Art Farmer, Phil Woods, Hubert Laws

EAC | FLAC | Tracks (Cue&Log) ~ 169 Mb (incl 5%) | Mp3 (CBR320) ~ 98 Mb (incl 5%) | Scans included
Latin Jazz, Bossa Nova, Samba Jazz | Label: Elenco/Universal | # MEV-2, 0731452695321 | 00:38:47

Digitally re-mastered reissue of Sergio's debut album with his trio. Initially, Sergio moved from Brazil to New York to work as pianist with Antonio Carlos Jobim and Art Farmer (amongst others). He recorded this album plus a second album entitled Girl from Ipanema before forming the band that would eventually become Brasil '66. Bossa Nova York is closer to authentic Brazilian music than his later, more commercial recordings and these early sides are adored by Jazz purists. Originally recorded in New York and released in 1964.


Sergio Mendes at Allmusic
Sergio Mendes Website
Sergio Mendes at Wiki

Sérgio Mendes Trio:
Piano - Sérgio Mendes
Bass - Sebastião Neto
Drums - Chico Batera

Guests:
Acoustic Guitar - Antonio Carlos Jobim
Alto Saxophone - Phil Woods
Flugelhorn - Art Farmer
Flute - Hubert Laws


Tracklist:

01. Maria Moita (03:28)
02. So Tinha De Ser Com Voce (03:11)
03. Batida Diferente (03:46)
04. So Danco Samba (03:10)
05. Pau Brasil (03:12)
06. Garota De Ipanema (02:51)
07. Inutil Paisagem (03:25)
08. Vivo Sonhando (04:14)
09. Primavera (02:45)
10. Consolacao (03:20)
11. O Morro Nao Tem Vez (05:19)


EAC extraction logfile from 22. December 2007, 16:06 for CD
Sergio Mendes Trio / Bossa Nova York

Used drive : PLEXTOR CD-R PREMIUM2 Adapter: 1 ID: 1
Read mode : Secure with NO C2, accurate stream, disable cache
Read offset correction : 30
Overread into Lead-In and Lead-Out : No

Used output format : C:\Programmi\Eac\flac.exe (User Defined Encoder)
32 kBit/s
Additional command line options : -8 -V -T "artist=%a" -T "title=%t" -T "album=%g" -T "date=%y" -T "tracknumber=%n" -T "genre=%m" -T "comment=Exact Audio Copy 0.95b4, Flac 1.1.4.a -8" %s

Other options :
Fill up missing offset samples with silence : Yes
Delete leading and trailing silent blocks : No
Installed external ASPI interface


Track 1
Filename C:\Eac\Sergio Mendes Trio - Bossa Nova York (1964) [FLAC]\01 - Maria Moita.wav

Pre-gap length 0:00:02.00

Peak level 73.8 %
Track quality 100.0 %
Test CRC 2D6D4639
Copy CRC 2D6D4639
Copy OK

Track 2
Filename C:\Eac\Sergio Mendes Trio - Bossa Nova York (1964) [FLAC]\02 - So Tinha De Ser Com Voce.wav

Pre-gap length 0:00:03.00

Peak level 58.4 %
Track quality 100.0 %
Test CRC ABC97CD6
Copy CRC ABC97CD6
Copy OK

Track 3
Filename C:\Eac\Sergio Mendes Trio - Bossa Nova York (1964) [FLAC]\03 - Batida Diferente.wav

Pre-gap length 0:00:03.00

Peak level 72.5 %
Track quality 100.0 %
Test CRC FFB59AC9
Copy CRC FFB59AC9
Copy OK

Track 4
Filename C:\Eac\Sergio Mendes Trio - Bossa Nova York (1964) [FLAC]\04 - So Danco Samba.wav

Pre-gap length 0:00:03.00

Peak level 73.8 %
Track quality 100.0 %
Test CRC 987DC2C9
Copy CRC 987DC2C9
Copy OK

Track 5
Filename C:\Eac\Sergio Mendes Trio - Bossa Nova York (1964) [FLAC]\05 - Pau Brasil.wav

Pre-gap length 0:00:03.00

Peak level 66.4 %
Track quality 99.9 %
Test CRC 64512C6A
Copy CRC 64512C6A
Copy OK

Track 6
Filename C:\Eac\Sergio Mendes Trio - Bossa Nova York (1964) [FLAC]\06 - Garota De Ipanema.wav

Pre-gap length 0:00:03.00

Peak level 59.2 %
Track quality 100.0 %
Test CRC ED3FF93A
Copy CRC ED3FF93A
Copy OK

Track 7
Filename C:\Eac\Sergio Mendes Trio - Bossa Nova York (1964) [FLAC]\07 - Inutil Paisagem.wav

Pre-gap length 0:00:03.00

Peak level 52.0 %
Track quality 100.0 %
Test CRC 362A5A55
Copy CRC 362A5A55
Copy OK

Track 8
Filename C:\Eac\Sergio Mendes Trio - Bossa Nova York (1964) [FLAC]\08 - Vivo Sonhando.wav

Pre-gap length 0:00:03.00

Peak level 73.2 %
Track quality 100.0 %
Test CRC FE09448B
Copy CRC FE09448B
Copy OK

Track 9
Filename C:\Eac\Sergio Mendes Trio - Bossa Nova York (1964) [FLAC]\09 - Primavera.wav

Pre-gap length 0:00:03.00

Peak level 66.7 %
Track quality 100.0 %
Test CRC 583CF3E3
Copy CRC 583CF3E3
Copy OK

Track 10
Filename C:\Eac\Sergio Mendes Trio - Bossa Nova York (1964) [FLAC]\10 - Consolacao.wav

Pre-gap length 0:00:03.00

Peak level 64.0 %
Track quality 100.0 %
Test CRC 5BB4F771
Copy CRC 5BB4F771
Copy OK

Track 11
Filename C:\Eac\Sergio Mendes Trio - Bossa Nova York (1964) [FLAC]\11 - O Morro Nao Tem Vez.wav

Pre-gap length 0:00:03.00

Peak level 71.5 %
Track quality 99.9 %
Test CRC 9FB4B86A
Copy CRC 9FB4B86A
Copy OK

No errors occured


End of status report

[CUETools log; Date: 06.01.2017 0:22:54; Version: 2.1.4]
[CTDB TOCID: I_Mq20bs.tKgXxii.Rd8GRZl714-] found.
Track | CTDB Status
1 | (5/5) Accurately ripped
2 | (5/5) Accurately ripped
3 | (5/5) Accurately ripped
4 | (5/5) Accurately ripped
5 | (5/5) Accurately ripped
6 | (5/5) Accurately ripped
7 | (5/5) Accurately ripped
8 | (5/5) Accurately ripped
9 | (5/5) Accurately ripped
10 | (5/5) Accurately ripped
11 | (5/5) Accurately ripped
[AccurateRip ID: 000f5a4d-008553d3-7c09170b] found.
Track [ CRC | V2 ] Status
01 [36dfc8bc|34febcb6] (0+8/8) Accurately ripped
02 [3217e62a|10c9f245] (0+8/8) Accurately ripped
03 [f839bb0c|91a5c083] (0+8/8) Accurately ripped
04 [9ed875b6|22f11dc8] (0+8/8) Accurately ripped
05 [9125033d|d3d5966e] (0+8/8) Accurately ripped
06 [f5d41962|eeb8f141] (0+8/8) Accurately ripped
07 [71f47109|9f223eb1] (0+8/8) Accurately ripped
08 [44cdef90|04c33e5a] (0+8/8) Accurately ripped
09 [7c010148|29e3fd03] (0+8/8) Accurately ripped
10 [599c5b93|2ae66a15] (0+8/8) Accurately ripped
11 [d548efca|77f70792] (0+8/8) Accurately ripped

Track Peak [ CRC32 ] [W/O NULL] [ LOG ]
– 73,8 [DDC9E645] [FF9F8B2E]
01 73,8 [2D6D4639] [1CECAA2E] CRC32
02 58,4 [ABC97CD6] [6B81F7C8] CRC32
03 72,5 [FFB59AC9] [2091305E] CRC32
04 73,8 [987DC2C9] [D2F92D8B] CRC32
05 66,4 [64512C6A] [A5A37A40] CRC32
06 59,2 [ED3FF93A] [140BC7BB] CRC32
07 52,0 [362A5A55] [0BBCD85D] CRC32
08 73,2 [FE09448B] [2FD5F2ED] CRC32
09 66,7 [583CF3E3] [09D44E1D] CRC32
10 64,0 [5BB4F771] [CBB9BF09] CRC32
11 71,5 [9FB4B86A] [C570947D] CRC32

foobar2000 1.2 / Dynamic Range Meter 1.1.1
log date: 2017-01-06 00:25:59

––––––––––––––––––––––––––––––––––––––––
Analyzed: Sergio Mendes Trio / Bossa Nova York
––––––––––––––––––––––––––––––––––––––––

DR Peak RMS Duration Track
––––––––––––––––––––––––––––––––––––––––
DR10 -2.64 dB -14.84 dB 3:29 01-Maria Moita
DR13 -4.66 dB -20.90 dB 3:11 02-So Tinha De Ser Com Voce
DR13 -2.78 dB -17.91 dB 3:46 03-Batida Diferente
DR10 -2.63 dB -15.02 dB 3:11 04-So Danco Samba
DR11 -3.56 dB -18.01 dB 3:13 05-Pau Brasil
DR12 -4.54 dB -20.19 dB 2:52 06-Garota De Ipanema
DR11 -5.68 dB -20.82 dB 3:26 07-Inutil Paisagem
DR11 -2.70 dB -16.20 dB 4:15 08-Vivo Sonhando
DR12 -3.52 dB -18.63 dB 2:45 09-Primavera
DR13 -3.87 dB -18.24 dB 3:20 10-Consolacao
DR14 -2.90 dB -19.72 dB 5:20 11-O Morro Nao Tem Vez
––––––––––––––––––––––––––––––––––––––––

Number of tracks: 11
Official DR value: DR12

Samplerate: 44100 Hz
Channels: 2
Bits per sample: 16
Bitrate: 561 kbps
Codec: FLAC
================================================================================

Sergio Mendes Trio - Bossa Nova York (1964) Remastered 2004

Sergio Mendes Trio - Bossa Nova York (1964) Remastered 2004

All thanks to original releaser

More interesting music in My Blog

Password: designol