Tags
Language
Tags

Shakira - The Sun Comes Out (2010) [Japanese Edition]

Posted By: Designol
Shakira - The Sun Comes Out (2010) [Japanese Edition]

Shakira - The Sun Comes Out (2010) [Japanese Edition]
EAC | FLAC | Image (Cue&Log) ~ 376 Mb | Mp3 (CBR320) ~ 129 Mb | Scans ~ 135 Mb
Latin Pop, Dance Pop | Label: Sony Music Japan | # EICP 1435 | Time: 00:56:25

The English-titled version of Shakira's seventh studio album, The Sun Comes Out/Sale el Sol, features exactly the same 15 tracks as the Spanish edition, but with a different running order, as the collaborations with Dominican rapper El Cata ("Rabiosa", "Loca") are reduced to bonus track status in favor of the more well-known hookups with Pitbull and Dizzee Rascal, respectively, while the official 2010 World Cup theme, "Waka Waka (This Time for Africa)," swaps places on the track list with the "Esto Es África" version.

Review by Jon O'Brien, Allmusic.com

Shakira - The Sun Comes Out (2010) [Japanese Edition]



Tracklist:

01. Sale El Sol (03:20)
02. Loca [feat. Dizzee Rascal] (03:13)
03. Antes De Las Seis (02:55)
04. Gordita [feat. Residente Calle13] (03:26)
05. Addicted To You (02:27)
06. Lo Que Mas (02:27)
07. Mariposas (03:47)
08. Rabiosa [feat. Pitbull] (02:50)
09. Devocion (03:30)
10. Islands (02:43)
11. Tu Boca (03:26)
12. Waka Waka (This Time For Africa) (K-Mix) (03:03)
13. Loca [feat. El Cata] (03:04)
14. Rabiosa [feat. El Cata] (02:50)
15. Waka Waka (Esto Es Africa) (K-Mix) (03:04)
16. Give It Up To Me [feat. Lil Wayne] (03:03)
17. Did It Again [feat. Kid Cudi] (03:47)
18. Waka Waka (This Time For Africa) [feat. Freshlyground] (03:22)


Exact Audio Copy V1.0 beta 3 from 29. August 2011

Отчёт EAC об извлечении, выполненном 1. октября 2014, 22:20

Shakira / The Sun Comes Out (Japan)

Дисковод: TSSTcorpCDDVDW TS-L632H Adapter: 1 ID: 0

Режим чтения : Достоверность
Использование точного потока : Да
Отключение кэша аудио : Да
Использование указателей C2 : Нет

Коррекция смещения при чтении : 6
Способность читать области Lead-in и Lead-out : Нет
Заполнение пропущенных сэмплов тишиной : Да
Удаление блоков с тишиной в начале и конце : Нет
При вычислениях CRC использовались нулевые сэмплы : Да
Интерфейс : Встроенный Win32-интерфейс для Win NT/2000

Выходной формат : Пользовательский кодировщик
Выбранный битрейт : 128 kBit/s
Качество : Высокий
Добавление ID3-тега : Нет
Утилита сжатия : C:\Program Files\Exact Audio Copy\Flac\flac.exe
Дополнительные параметры : -V -8 -T "Date=%year%" -T "Genre=%genre%" %source%


TOC извлечённого CD

Трек | Старт | Длительность | Начальный сектор | Конечный сектор
––––––––––––––––––––––––––––––––––-
1 | 0:00.00 | 3:20.20 | 0 | 15019
2 | 3:20.20 | 3:13.55 | 15020 | 29549
3 | 6:34.00 | 2:55.51 | 29550 | 42725
4 | 9:29.51 | 3:26.36 | 42726 | 58211
5 | 12:56.12 | 2:27.65 | 58212 | 69301
6 | 15:24.02 | 2:27.10 | 69302 | 80336
7 | 17:51.12 | 3:47.05 | 80337 | 97366
8 | 21:38.17 | 2:50.40 | 97367 | 110156
9 | 24:28.57 | 3:30.08 | 110157 | 125914
10 | 27:58.65 | 2:43.33 | 125915 | 138172
11 | 30:42.23 | 3:26.22 | 138173 | 153644
12 | 34:08.45 | 3:03.72 | 153645 | 167441
13 | 37:12.42 | 3:04.64 | 167442 | 181305
14 | 40:17.31 | 2:50.22 | 181306 | 194077
15 | 43:07.53 | 3:04.23 | 194078 | 207900
16 | 46:12.01 | 3:03.36 | 207901 | 221661
17 | 49:15.37 | 3:47.09 | 221662 | 238695
18 | 53:02.46 | 3:22.34 | 238696 | 253879


Характеристики диапазона извлечения и сообщения об ошибках

Выбранный диапазон

Имя файла C:\My Rips\Shakira - The Sun Comes Out (Japan) (2010)\Shakira - The Sun Comes Out (Japan).wav

Пиковый уровень 99.8 %
Скорость извлечения 4.1 X
Качество диапазона 99.9 %
CRC теста 9F6FB525
CRC копии 9F6FB525
Копирование… OK

Ошибок не произошло


AccurateRip: сводка

Трек 1 : извлечено точно (доверие 2) [20C40533] (AR v2)
Трек 2 : извлечено точно (доверие 2) [C1C96192] (AR v2)
Трек 3 : извлечено точно (доверие 2) [A35E30F3] (AR v2)
Трек 4 : извлечено точно (доверие 2) [63CB3109] (AR v2)
Трек 5 : извлечено точно (доверие 2) [3AE00009] (AR v2)
Трек 6 : извлечено точно (доверие 2) [E7C81832] (AR v2)
Трек 7 : извлечено точно (доверие 2) [BEE89303] (AR v2)
Трек 8 : извлечено точно (доверие 2) [A41563BE] (AR v2)
Трек 9 : извлечено точно (доверие 2) [49BC4EB8] (AR v2)
Трек 10 : извлечено точно (доверие 2) [11DB4EA4] (AR v2)
Трек 11 : извлечено точно (доверие 2) [70AD91D9] (AR v2)
Трек 12 : извлечено точно (доверие 2) [AE309F02] (AR v2)
Трек 13 : извлечено точно (доверие 2) [1EE4FD79] (AR v2)
Трек 14 : извлечено точно (доверие 2) [862D14F2] (AR v2)
Трек 15 : извлечено точно (доверие 2) [9A6C3593] (AR v2)
Трек 16 : извлечено точно (доверие 2) [EA119D83] (AR v2)
Трек 17 : извлечено точно (доверие 2) [544C5E20] (AR v2)
Трек 18 : извлечено точно (доверие 2) [C19C3911] (AR v2)

Все треки извлечены точно

Конец отчёта

==== Контрольная сумма отчёта 84BE10134C7953DFAF7AAEFC4D39476C551CA61B9CBE2A703C0FF14C9E2C0E69 ====

foobar2000 1.2 / Dynamic Range Meter 1.1.1
log date: 2015-02-05 00:41:38

––––––––––––––––––––––––––––––––––––––––
Analyzed: Shakira / The Sun Comes Out (Japan)
––––––––––––––––––––––––––––––––––––––––

DR Peak RMS Duration Track
––––––––––––––––––––––––––––––––––––––––
DR6 -0.11 dB -9.47 dB 3:20 01-Sale El Sol
DR6 -0.02 dB -7.91 dB 3:14 02-Loca [feat. Dizzee Rascal]
DR7 -0.11 dB -10.23 dB 2:56 03-Antes De Las Seis
DR7 -0.02 dB -8.74 dB 3:26 04-Gordita [feat. Residente Calle13]
DR8 -0.11 dB -9.30 dB 2:28 05-Addicted To You
DR7 -0.11 dB -10.75 dB 2:27 06-Lo Que Mas
DR6 -0.11 dB -8.07 dB 3:47 07-Mariposas
DR6 -0.31 dB -7.72 dB 2:51 08-Rabiosa [feat. Pitbull]
DR4 -0.11 dB -5.94 dB 3:30 09-Devocion
DR6 -0.41 dB -8.38 dB 2:43 10-Islands
DR5 -0.21 dB -6.67 dB 3:26 11-Tu Boca
DR5 -0.11 dB -7.15 dB 3:04 12-Waka Waka (This Time For Africa) (K-Mix)
DR7 -0.01 dB -8.43 dB 3:05 13-Loca [feat. El Cata]
DR6 -0.01 dB -7.97 dB 2:50 14-Rabiosa [feat. El Cata]
DR5 -0.11 dB -7.09 dB 3:04 15-Waka Waka (Esto Es Africa) (K-Mix)
DR5 -0.61 dB -7.06 dB 3:03 16-Give It Up To Me [feat. Lil Wayne]
DR5 -0.21 dB -8.24 dB 3:47 17-Did It Again [feat. Kid Cudi]
DR6 -0.20 dB -7.68 dB 3:22 18-Waka Waka (This Time For Africa) [feat. Freshlyground]
––––––––––––––––––––––––––––––––––––––––

Number of tracks: 18
Official DR value: DR6

Samplerate: 44100 Hz
Channels: 2
Bits per sample: 16
Bitrate: 932 kbps
Codec: FLAC
================================================================================

Shakira - The Sun Comes Out (2010) [Japanese Edition]

Shakira - The Sun Comes Out (2010) [Japanese Edition]

All thanks to original releaser - serg-82

More interesting music in My Blog