Tags
Language
Tags

Shocking Blue - The Blue Box (2017) [13CD Box Set]

Posted By: v3122
Shocking Blue - The Blue Box (2017) [13CD Box Set]

Shocking Blue - The Blue Box (2017)
EAC | Flac(Image) + Cue + Log & MP3 CBR 320Kbps
13CD | Red Bullet, RB 66.305 | ~ 3351 or 1293 Mb | Scans(png) -> 563 Mb
Classic Rock / Pop Rock / Psychedelic Rock

Shocking Blue - The Blue Box (2017) [13CD Box Set]

All albums in this CD box are the original Dutch Shocking Blue album releases from the sixties and seventies, housed in their original covers and with original artwork, representing the band at the time. For a long time Shocking Blue was believed only to be a hit singles band but their albums have well proven to stand the test of time, not only in the Netherlands but also internationally. So here they are! Nine studio albums, a live album, a comprehensive compilation album and a bonus CD. Enjoy Shocking Blue's music at its heyday and after.

~ amazon
Shocking Blue - The Blue Box (2017) [13CD Box Set]


Shocking Blue - The Blue Box (2017):

Shocking Blue - The Blue Box (2017) [13CD Box Set]

Tracklist CD1 - 1967 Shocking Blue:

01 Love Is In The Air
02 Ooh Wee There's Music In Me
03 What You Gonna Do
04 Whisky Don't Wash My Brains
05 Little Maggie
06 Jail My Second Home
07 What's Wrong Bertha
08 League Of Angels
09 Rockin' Pneumonia And The Boogiewoogie Flu
10 That's Allright
11 Crazy Drunken Man Dreams
12 Beggarman
13 Hold Me, Hug Me, Rock Me
14 Where My Baby's Gone

Exact Audio Copy V1.1 from 23. June 2015

EAC extraction logfile from 22. May 2017, 18:33

Shocking Blue / Shocking Blue

Used drive : PLEXTOR BD-R PX-B950SA Adapter: 1 ID: 1

Read mode : Secure
Utilize accurate stream : Yes
Defeat audio cache : Yes
Make use of C2 pointers : No

Read offset correction : 6
Overread into Lead-In and Lead-Out : No
Fill up missing offset samples with silence : Yes
Delete leading and trailing silent blocks : No
Null samples used in CRC calculations : Yes
Used interface : Native Win32 interface for Win NT & 2000

Used output format : Internal WAV Routines
Sample format : 44.100 Hz; 16 Bit; Stereo


TOC of the extracted CD

Track | Start | Length | Start sector | End sector
––––––––––––––––––––––––––––-
1 | 0:00.00 | 2:39.11 | 0 | 11935
2 | 2:39.11 | 2:34.10 | 11936 | 23495
3 | 5:13.21 | 2:18.44 | 23496 | 33889
4 | 7:31.65 | 1:00.67 | 33890 | 38456
5 | 8:32.57 | 2:49.03 | 38457 | 51134
6 | 11:21.60 | 2:25.07 | 51135 | 62016
7 | 13:46.67 | 2:27.01 | 62017 | 73042
8 | 16:13.68 | 2:08.30 | 73043 | 82672
9 | 18:22.23 | 2:01.07 | 82673 | 91754
10 | 20:23.30 | 2:24.49 | 91755 | 102603
11 | 22:48.04 | 2:53.61 | 102604 | 115639
12 | 25:41.65 | 2:33.13 | 115640 | 127127
13 | 28:15.03 | 2:03.02 | 127128 | 136354
14 | 30:18.05 | 5:02.03 | 136355 | 159007


Range status and errors

Selected range

Filename C:\Users\Meijin\Desktop\ALLexxess\Shocking Blue\2017 The Blue Box (13CD Box Set Red Bullet)\1967 Shocking Blue\Shocking Blue - Shocking Blue.wav

Peak level 99.9 %
Extraction speed 6.4 X
Range quality 100.0 %
Test CRC CF2B7347
Copy CRC CF2B7347
Copy OK

No errors occurred


AccurateRip summary

Track 1 not present in database
Track 2 not present in database
Track 3 not present in database
Track 4 not present in database
Track 5 not present in database
Track 6 not present in database
Track 7 not present in database
Track 8 not present in database
Track 9 not present in database
Track 10 not present in database
Track 11 not present in database
Track 12 not present in database
Track 13 not present in database
Track 14 not present in database

None of the tracks are present in the AccurateRip database

End of status report

–– CUETools DB Plugin V2.1.6

[CTDB TOCID: rqpVMOXT2chytGGKszR1H0kE_iI-] found
Submit result: rqpVMOXT2chytGGKszR1H0kE_iI- has been confirmed
Track | CTDB Status
1 | (1/1) Accurately ripped
2 | (1/1) Accurately ripped
3 | (1/1) Accurately ripped
4 | (1/1) Accurately ripped
5 | (1/1) Accurately ripped
6 | (1/1) Accurately ripped
7 | (1/1) Accurately ripped
8 | (1/1) Accurately ripped
9 | (1/1) Accurately ripped
10 | (1/1) Accurately ripped
11 | (1/1) Accurately ripped
12 | (1/1) Accurately ripped
13 | (1/1) Accurately ripped
14 | (1/1) Accurately ripped


==== Log checksum 089C9BD49D7933F267050C7076AA518B716FFA2D6131CE24E12CD7B7287BFD09 ====


foobar2000 1.2.9 / Dynamic Range Meter 1.1.1
log date: 2017-05-26 16:05:24

––––––––––––––––––––––––––––––––––––––––
Analyzed: Shocking Blue / Shocking Blue
––––––––––––––––––––––––––––––––––––––––

DR Peak RMS Duration Track
––––––––––––––––––––––––––––––––––––––––
DR10 -0.01 dB -12.17 dB 2:39 01-Love Is In The Air
DR11 -0.04 dB -12.55 dB 2:34 02-Ooh Wee There's Music In Me
DR10 -0.04 dB -12.09 dB 2:19 03-What You Gonna Do
DR11 -0.05 dB -13.01 dB 1:01 04-Whisky Don't Wash My Brains
DR9 -0.05 dB -12.25 dB 2:49 05-Little Maggie
DR10 -0.06 dB -12.08 dB 2:25 06-Jail My Second Home
DR10 -0.04 dB -11.90 dB 2:27 07-What's Wrong Bertha
DR10 -0.04 dB -11.96 dB 2:08 08-League Of Angels
DR11 -0.05 dB -12.17 dB 2:01 09-Rockin' Pneumonia And The Boogiewoogie Flu
DR10 -0.05 dB -12.32 dB 2:25 10-That's Allright
DR11 -0.05 dB -12.26 dB 2:54 11-Crazy Drunken Man Dreams
DR10 -0.55 dB -12.58 dB 2:33 12-Beggarman
DR10 -0.05 dB -11.79 dB 2:03 13-Hold Me, Hug Me, Rock Me
DR10 -0.04 dB -11.74 dB 5:02 14-Where My Baby's Gone
––––––––––––––––––––––––––––––––––––––––

Number of tracks: 14
Official DR value: DR10

Samplerate: 44100 Hz
Channels: 2
Bits per sample: 16
Bitrate: 877 kbps
Codec: FLAC
================================================================================



[CUETools log; Date: 26.05.2017 16:05:18; Version: 2.1.4]
[CTDB TOCID: rqpVMOXT2chytGGKszR1H0kE_iI-] found.
Track | CTDB Status
1 | (2/2) Accurately ripped
2 | (2/2) Accurately ripped
3 | (2/2) Accurately ripped
4 | (2/2) Accurately ripped
5 | (2/2) Accurately ripped
6 | (2/2) Accurately ripped
7 | (2/2) Accurately ripped
8 | (2/2) Accurately ripped
9 | (2/2) Accurately ripped
10 | (2/2) Accurately ripped
11 | (2/2) Accurately ripped
12 | (2/2) Accurately ripped
13 | (2/2) Accurately ripped
14 | (2/2) Accurately ripped
[AccurateRip ID: 0010ec91-00b527a4-ab08480e] disk not present in database.

Track Peak [ CRC32 ] [W/O NULL] [ LOG ]
– 99,9 [CF2B7347] [677E909B] CRC32
01 99,9 [54724FA8] [2777424F]
02 99,4 [1B07CD9D] [A9BC045B]
03 99,5 [586B0FE5] [3011CDD0]
04 99,4 [0D4BD82C] [A28743CB]
05 99,4 [E0E30C85] [375D5D00]
06 99,3 [70617BE2] [C265475E]
07 99,5 [FDEBB438] [37577F24]
08 99,5 [917392C0] [831F705E]
09 99,4 [C0B9A4B1] [343FD08D]
10 99,4 [89EC012E] [28DAEEFA]
11 99,4 [417FCE37] [E4CFEB5C]
12 93,8 [4D5F6318] [785105F6]
13 99,3 [DD8E71DE] [9F961225]
14 99,5 [06548424] [2756E5FC]


Shocking Blue - The Blue Box (2017) [13CD Box Set]

Tracklist CD2 - 1969 At Home:

01 Boll Weevil
02 I'll Write Your Name Through The Fire
03 Acka Raga
04 Love Machine
05 I'm A Woman
06 California Here I Come
07 Poor Boy
08 Love Buzz
09 The Butterfly And I

Exact Audio Copy V1.1 from 23. June 2015

EAC extraction logfile from 22. May 2017, 18:08

Shocking Blue / At Home

Used drive : PLEXTOR BD-R PX-B950SA Adapter: 1 ID: 1

Read mode : Secure
Utilize accurate stream : Yes
Defeat audio cache : Yes
Make use of C2 pointers : No

Read offset correction : 6
Overread into Lead-In and Lead-Out : No
Fill up missing offset samples with silence : Yes
Delete leading and trailing silent blocks : No
Null samples used in CRC calculations : Yes
Used interface : Native Win32 interface for Win NT & 2000

Used output format : Internal WAV Routines
Sample format : 44.100 Hz; 16 Bit; Stereo


TOC of the extracted CD

Track | Start | Length | Start sector | End sector
––––––––––––––––––––––––––––-
1 | 0:00.00 | 2:40.56 | 0 | 12055
2 | 2:40.56 | 2:56.41 | 12056 | 25296
3 | 5:37.22 | 3:06.60 | 25297 | 39306
4 | 8:44.07 | 3:19.45 | 39307 | 54276
5 | 12:03.52 | 3:00.45 | 54277 | 67821
6 | 15:04.22 | 3:16.19 | 67822 | 82540
7 | 18:20.41 | 2:28.09 | 82541 | 93649
8 | 20:48.50 | 3:44.44 | 93650 | 110493
9 | 24:33.19 | 4:02.45 | 110494 | 128688


Range status and errors

Selected range

Filename C:\Users\Meijin\Desktop\ALLexxess\Shocking Blue\2017 The Blue Box (13CD Box Set Red Bullet)\1969 At Home\Shocking Blue - At Home.wav

Peak level 99.6 %
Extraction speed 6.1 X
Range quality 100.0 %
Test CRC C4FDBD2A
Copy CRC C4FDBD2A
Copy OK

No errors occurred


AccurateRip summary

Track 1 not present in database
Track 2 not present in database
Track 3 not present in database
Track 4 not present in database
Track 5 not present in database
Track 6 not present in database
Track 7 not present in database
Track 8 not present in database
Track 9 not present in database

None of the tracks are present in the AccurateRip database

End of status report

–– CUETools DB Plugin V2.1.6

[CTDB TOCID: F_TOZlmh_OQuIL0WRfJhx6siUMo-] found
Submit result: F_TOZlmh_OQuIL0WRfJhx6siUMo- has been confirmed
Track | CTDB Status
1 | (1/1) Accurately ripped
2 | (1/1) Accurately ripped
3 | (1/1) Accurately ripped
4 | (1/1) Accurately ripped
5 | (1/1) Accurately ripped
6 | (1/1) Accurately ripped
7 | (1/1) Accurately ripped
8 | (1/1) Accurately ripped
9 | (1/1) Accurately ripped


==== Log checksum 0B15DA8ACD14E9C27BEB5987208DD2B51C4C9606C10DDF8E4F7D575F7A5EB44C ====


foobar2000 1.2.9 / Dynamic Range Meter 1.1.1
log date: 2017-05-26 16:05:41

––––––––––––––––––––––––––––––––––––––––
Analyzed: Shocking Blue / At Home
––––––––––––––––––––––––––––––––––––––––

DR Peak RMS Duration Track
––––––––––––––––––––––––––––––––––––––––
DR10 -0.10 dB -12.12 dB 2:41 01-Boll Weevil
DR12 -0.10 dB -13.18 dB 2:57 02-I'll Write Your Name Through The Fire
DR10 -0.35 dB -12.06 dB 3:07 03-Acka Raga
DR10 -0.10 dB -11.84 dB 3:20 04-Love Machine
DR11 -0.10 dB -13.46 dB 3:01 05-I'm A Woman
DR10 -0.10 dB -11.25 dB 3:16 06-California Here I Come
DR9 -0.10 dB -10.97 dB 2:28 07-Poor Boy
DR11 -0.03 dB -12.47 dB 3:45 08-Love Buzz
DR10 -0.05 dB -12.08 dB 4:03 09-The Butterfly And I
––––––––––––––––––––––––––––––––––––––––

Number of tracks: 9
Official DR value: DR10

Samplerate: 44100 Hz
Channels: 2
Bits per sample: 16
Bitrate: 864 kbps
Codec: FLAC
================================================================================



[CUETools log; Date: 26.05.2017 16:05:29; Version: 2.1.4]
[CTDB TOCID: F_TOZlmh_OQuIL0WRfJhx6siUMo-] found.
Track | CTDB Status
1 | (2/2) Accurately ripped
2 | (2/2) Accurately ripped
3 | (2/2) Accurately ripped
4 | (2/2) Accurately ripped
5 | (2/2) Accurately ripped
6 | (2/2) Accurately ripped
7 | (2/2) Accurately ripped
8 | (2/2) Accurately ripped
9 | (2/2) Accurately ripped
[AccurateRip ID: 00095ef5-00455580-6106b309] disk not present in database.

Track Peak [ CRC32 ] [W/O NULL] [ LOG ]
– 99,6 [C4FDBD2A] [E5E3CF0F] CRC32
01 98,8 [B3ABB7D6] [C16E6A56]
02 98,8 [C257349C] [306063D5]
03 96,0 [AD36036B] [A5A41413]
04 98,8 [C5D78BEC] [CEB2F02E]
05 98,8 [E0367C69] [995FC770]
06 98,8 [948FE465] [F2211A31]
07 98,8 [BDFDAB3D] [5D5A0B53]
08 99,6 [3C0F987C] [4A6C1990]
09 99,3 [F4AC5C75] [F85AB62C]


Shocking Blue - The Blue Box (2017) [13CD Box Set]

Tracklist CD3 - 1970 Scorpio’s Dance:

01 Scorpio's Dance (First Movement)
03 Alaska Country
03 Sally Was A Good Old Girl
04 Deamon Lover
05 Scorpio's Dance
06 Little Cooling Planet
07 I Love Voodoo Music
08 Seven Is A Number In Magic
09 Keep It If You Want It
10 Water Boy

Exact Audio Copy V1.1 from 23. June 2015

EAC extraction logfile from 22. May 2017, 17:48

Shocking Blue / Scropio's Dance

Used drive : PLEXTOR BD-R PX-B950SA Adapter: 1 ID: 1

Read mode : Secure
Utilize accurate stream : Yes
Defeat audio cache : Yes
Make use of C2 pointers : No

Read offset correction : 6
Overread into Lead-In and Lead-Out : No
Fill up missing offset samples with silence : Yes
Delete leading and trailing silent blocks : No
Null samples used in CRC calculations : Yes
Used interface : Native Win32 interface for Win NT & 2000

Used output format : Internal WAV Routines
Sample format : 44.100 Hz; 16 Bit; Stereo


TOC of the extracted CD

Track | Start | Length | Start sector | End sector
––––––––––––––––––––––––––––-
1 | 0:00.00 | 0:40.74 | 0 | 3073
2 | 0:40.74 | 3:53.07 | 3074 | 20555
3 | 4:34.06 | 3:28.55 | 20556 | 36210
4 | 8:02.61 | 6:03.19 | 36211 | 63454
5 | 14:06.05 | 3:43.23 | 63455 | 80202
6 | 17:49.28 | 4:00.68 | 80203 | 98270
7 | 21:50.21 | 4:01.67 | 98271 | 116412
8 | 25:52.13 | 2:58.44 | 116413 | 129806
9 | 28:50.57 | 2:53.50 | 129807 | 142831
10 | 31:44.32 | 2:31.50 | 142832 | 154206


Range status and errors

Selected range

Filename C:\Users\Meijin\Desktop\ALLexxess\Shocking Blue\2017 The Blue Box (13CD Box Set Red Bullet)\1970 Scorpio's Dance\Shocking Blue - Scropio's Dance.wav

Peak level 99.9 %
Extraction speed 6.2 X
Range quality 99.9 %
Test CRC 6001CC99
Copy CRC 6001CC99
Copy OK

No errors occurred


AccurateRip summary

Track 1 not present in database
Track 2 not present in database
Track 3 not present in database
Track 4 not present in database
Track 5 not present in database
Track 6 not present in database
Track 7 not present in database
Track 8 not present in database
Track 9 not present in database
Track 10 not present in database

None of the tracks are present in the AccurateRip database

End of status report

–– CUETools DB Plugin V2.1.6

[CTDB TOCID: xrLDusx40FfkmP6UqHtbzoSESPs-] found
Submit result: xrLDusx40FfkmP6UqHtbzoSESPs- has been confirmed
Track | CTDB Status
1 | (1/1) Accurately ripped
2 | (1/1) Accurately ripped
3 | (1/1) Accurately ripped
4 | (1/1) Accurately ripped
5 | (1/1) Accurately ripped
6 | (1/1) Accurately ripped
7 | (1/1) Accurately ripped
8 | (1/1) Accurately ripped
9 | (1/1) Accurately ripped
10 | (1/1) Accurately ripped


==== Log checksum 10F16B04B3375C5275BD7BBCF65B85BE79943CDEA86DC2FEFA8D0BC4497E7DC0 ====


foobar2000 1.2.9 / Dynamic Range Meter 1.1.1
log date: 2017-05-26 16:06:03

––––––––––––––––––––––––––––––––––––––––
Analyzed: Shocking Blue / Scropio's Dance
––––––––––––––––––––––––––––––––––––––––

DR Peak RMS Duration Track
––––––––––––––––––––––––––––––––––––––––
DR11 -2.77 dB -19.32 dB 0:41 01-Scorpio's Dance (First Movement)
DR9 -1.89 dB -12.52 dB 3:53 02-Alaska Country
DR11 -0.37 dB -12.34 dB 3:29 03-Sally Was A Good Old Girl
DR10 -1.74 dB -14.15 dB 6:03 04-Deamon Lover
DR11 -1.10 dB -14.23 dB 3:43 05-Scorpio's Dance
DR10 0.00 dB -12.46 dB 4:01 06-Little Cooling Planet
DR12 -0.72 dB -15.28 dB 4:02 07-I Love Voodoo Music
DR9 -0.80 dB -11.56 dB 2:59 08-Seven Is A Number In Magic
DR10 -1.33 dB -13.19 dB 2:54 09-Keep It If You Want It
DR11 -1.23 dB -13.90 dB 2:32 10-Water Boy
––––––––––––––––––––––––––––––––––––––––

Number of tracks: 10
Official DR value: DR10

Samplerate: 44100 Hz
Channels: 2
Bits per sample: 16
Bitrate: 877 kbps
Codec: FLAC
================================================================================



[CUETools log; Date: 26.05.2017 16:05:58; Version: 2.1.4]
[CTDB TOCID: xrLDusx40FfkmP6UqHtbzoSESPs-] found.
Track | CTDB Status
1 | (2/2) Accurately ripped
2 | (2/2) Accurately ripped
3 | (2/2) Accurately ripped
4 | (2/2) Accurately ripped
5 | (2/2) Accurately ripped
6 | (2/2) Accurately ripped
7 | (2/2) Accurately ripped
8 | (2/2) Accurately ripped
9 | (2/2) Accurately ripped
10 | (2/2) Accurately ripped
[AccurateRip ID: 000ce4e5-0069a3cf-7708080a] disk not present in database.

Track Peak [ CRC32 ] [W/O NULL] [ LOG ]
– 99,9 [6001CC99] [5461F99B] CRC32
01 72,7 [4D389A83] [EFFAE133]
02 80,4 [31C6C4E5] [4F83E002]
03 95,8 [F9038A5E] [747E4B56]
04 81,8 [FC10EE8C] [A801FE07]
05 88,1 [A67ED4C9] [5EE665F2]
06 99,9 [B03FA7D4] [D2C9B8BC]
07 92,0 [E82F650F] [71E9C824]
08 91,1 [1166CE53] [0C13D481]
09 85,7 [4635144E] [70BB888D]
10 86,8 [2A2ED3F6] [AE7988F5]


Shocking Blue - The Blue Box (2017) [13CD Box Set]

Tracklist CD4 - 1971 3rd Album:

01 Shocking You
02 Velvet Heaven
03 Love Sweet Love
04 I Saw Your Face
05 Simon Lee And The Gang (Instrumental)
06 Serenade
07 Don't You See
08 The Bird Of Paradise
09 Moonlight Night
10 Sleepless At Midnight
11 I'll Follow The Sun

Exact Audio Copy V1.1 from 23. June 2015

EAC extraction logfile from 22. May 2017, 11:00

Shocking Blue / 3rd Album

Used drive : PLEXTOR BD-R PX-B950SA Adapter: 1 ID: 1

Read mode : Secure
Utilize accurate stream : Yes
Defeat audio cache : Yes
Make use of C2 pointers : No

Read offset correction : 6
Overread into Lead-In and Lead-Out : No
Fill up missing offset samples with silence : Yes
Delete leading and trailing silent blocks : No
Null samples used in CRC calculations : Yes
Used interface : Native Win32 interface for Win NT & 2000

Used output format : Internal WAV Routines
Sample format : 44.100 Hz; 16 Bit; Stereo


TOC of the extracted CD

Track | Start | Length | Start sector | End sector
––––––––––––––––––––––––––––-
1 | 0:00.00 | 3:00.35 | 0 | 13534
2 | 3:00.35 | 3:24.45 | 13535 | 28879
3 | 6:25.05 | 3:14.00 | 28880 | 43429
4 | 9:39.05 | 2:58.09 | 43430 | 56788
5 | 12:37.14 | 1:50.39 | 56789 | 65077
6 | 14:27.53 | 3:27.54 | 65078 | 80656
7 | 17:55.32 | 2:43.54 | 80657 | 92935
8 | 20:39.11 | 2:51.27 | 92936 | 105787
9 | 23:30.38 | 4:56.72 | 105788 | 128059
10 | 28:27.35 | 2:31.71 | 128060 | 139455
11 | 30:59.31 | 2:44.05 | 139456 | 151760


Range status and errors

Selected range

Filename C:\Users\Meijin\Desktop\ALLexxess\Shocking Blue\2017 The Blue Box (13CD Box Set Red Bullet)\1971 3rd Album\Shocking Blue - 3rd Album.wav

Peak level 97.2 %
Extraction speed 6.3 X
Range quality 100.0 %
Test CRC 2BABD9F4
Copy CRC 2BABD9F4
Copy OK

No errors occurred


AccurateRip summary

Track 1 not present in database
Track 2 not present in database
Track 3 not present in database
Track 4 not present in database
Track 5 not present in database
Track 6 not present in database
Track 7 not present in database
Track 8 not present in database
Track 9 not present in database
Track 10 not present in database
Track 11 not present in database

None of the tracks are present in the AccurateRip database

End of status report

–– CUETools DB Plugin V2.1.6

[CTDB TOCID: CwAUN4UUeXRXh4vDMPl1BiI53Lc-] found
Submit result: CwAUN4UUeXRXh4vDMPl1BiI53Lc- has been confirmed
Track | CTDB Status
1 | (2/2) Accurately ripped
2 | (2/2) Accurately ripped
3 | (2/2) Accurately ripped
4 | (2/2) Accurately ripped
5 | (2/2) Accurately ripped
6 | (2/2) Accurately ripped
7 | (2/2) Accurately ripped
8 | (2/2) Accurately ripped
9 | (2/2) Accurately ripped
10 | (2/2) Accurately ripped
11 | (2/2) Accurately ripped


==== Log checksum 2BE0B248CB80AC17349C3A927AB9180120F51C1D3FB163B3C17FC67D3B65AF2E ====


foobar2000 1.2.9 / Dynamic Range Meter 1.1.1
log date: 2017-05-26 16:06:18

––––––––––––––––––––––––––––––––––––––––
Analyzed: Shocking Blue / 3rd Album
––––––––––––––––––––––––––––––––––––––––

DR Peak RMS Duration Track
––––––––––––––––––––––––––––––––––––––––
DR8 -2.00 dB -10.93 dB 3:00 01-Shocking You
DR9 -0.29 dB -11.71 dB 3:25 02-Velvet Heaven
DR9 -0.94 dB -11.79 dB 3:14 03-Love Sweet Love
DR8 -0.37 dB -10.53 dB 2:58 04-I Saw Your Face
DR10 -0.29 dB -13.29 dB 1:51 05-Simon Lee And The Gang (Instrumental)
DR8 -1.08 dB -10.79 dB 3:28 06-Serenade
DR9 -0.72 dB -12.43 dB 2:44 07-Don't You See
DR8 -0.40 dB -10.11 dB 2:51 08-The Bird Of Paradise
DR8 -0.75 dB -10.49 dB 4:57 09-Moonlight Night
DR8 -0.24 dB -10.50 dB 2:32 10-Sleepless At Midnight
DR8 -0.24 dB -9.77 dB 2:44 11-I'll Follow The Sun
––––––––––––––––––––––––––––––––––––––––

Number of tracks: 11
Official DR value: DR9

Samplerate: 44100 Hz
Channels: 2
Bits per sample: 16
Bitrate: 883 kbps
Codec: FLAC
================================================================================



[CUETools log; Date: 26.05.2017 16:06:10; Version: 2.1.4]
[CTDB TOCID: CwAUN4UUeXRXh4vDMPl1BiI53Lc-] found.
Track | CTDB Status
1 | (3/3) Accurately ripped
2 | (3/3) Accurately ripped
3 | (3/3) Accurately ripped
4 | (3/3) Accurately ripped
5 | (3/3) Accurately ripped
6 | (3/3) Accurately ripped
7 | (3/3) Accurately ripped
8 | (3/3) Accurately ripped
9 | (3/3) Accurately ripped
10 | (3/3) Accurately ripped
11 | (3/3) Accurately ripped
[AccurateRip ID: 000dd482-0077e66b-9907e70b] disk not present in database.

Track Peak [ CRC32 ] [W/O NULL] [ LOG ]
– 97,2 [2BABD9F4] [ECF0DC38] CRC32
01 79,4 [A279FE31] [EBD26760]
02 96,6 [5D710D1E] [C003133B]
03 89,7 [A5B4E2F6] [749CF78E]
04 95,8 [B234BB01] [7FFC8547]
05 96,7 [2781C348] [A040B54D]
06 88,3 [4304E2E9] [83B77055]
07 92,0 [3FD95B59] [486A58C5]
08 95,4 [72FCB61D] [95343E19]
09 91,7 [E8BEF111] [C71912AD]
10 97,2 [2075EDBA] [E9D6597B]
11 97,2 [EC11B6FE] [6438E5D1]


Shocking Blue - The Blue Box (2017) [13CD Box Set]

Tracklist CD5 - 1972 Live In Japan:

01 Venus
02 I'm A Woman
03 Sally Was A Good Old Girl
04 Poor Boy
05 Tabacco Road
06 Classical Gas
07 Hot Sand
08 Long And Lonesome Road
09 Boll Weevil
10 Blossom Lady
11 Mighty Joe
12 Never Marry A Railroad Man
13 Shocking You
14 Venus

Exact Audio Copy V1.1 from 23. June 2015

EAC extraction logfile from 21. May 2017, 19:02

Shocking Blue / Live In Japan

Used drive : PLEXTOR BD-R PX-B950SA Adapter: 1 ID: 1

Read mode : Secure
Utilize accurate stream : Yes
Defeat audio cache : Yes
Make use of C2 pointers : No

Read offset correction : 6
Overread into Lead-In and Lead-Out : No
Fill up missing offset samples with silence : Yes
Delete leading and trailing silent blocks : No
Null samples used in CRC calculations : Yes
Used interface : Native Win32 interface for Win NT & 2000

Used output format : Internal WAV Routines
Sample format : 44.100 Hz; 16 Bit; Stereo


TOC of the extracted CD

Track | Start | Length | Start sector | End sector
––––––––––––––––––––––––––––-
1 | 0:00.00 | 3:37.66 | 0 | 16340
2 | 3:37.66 | 2:49.44 | 16341 | 29059
3 | 6:27.35 | 3:43.59 | 29060 | 45843
4 | 10:11.19 | 3:00.42 | 45844 | 59385
5 | 13:11.61 | 3:31.29 | 59386 | 75239
6 | 16:43.15 | 3:20.13 | 75240 | 90252
7 | 20:03.28 | 3:32.22 | 90253 | 106174
8 | 23:35.50 | 3:52.37 | 106175 | 123611
9 | 27:28.12 | 3:12.24 | 123612 | 138035
10 | 30:40.36 | 3:42.56 | 138036 | 154741
11 | 34:23.17 | 3:35.19 | 154742 | 170885
12 | 37:58.36 | 3:09.12 | 170886 | 185072
13 | 41:07.48 | 3:29.57 | 185073 | 200804
14 | 44:37.30 | 3:26.18 | 200805 | 216272


Range status and errors

Selected range

Filename C:\Users\Meijin\Desktop\ALLexxess\Shocking Blue\2017 The Blue Box (13CD Box Set Red Bullet)\1972 Live In Japan\Shocking Blue - Live In Japan.wav

Peak level 96.7 %
Extraction speed 7.0 X
Range quality 100.0 %
Test CRC A6FB29C4
Copy CRC A6FB29C4
Copy OK

No errors occurred


AccurateRip summary

Track 1 not present in database
Track 2 not present in database
Track 3 not present in database
Track 4 not present in database
Track 5 not present in database
Track 6 not present in database
Track 7 not present in database
Track 8 not present in database
Track 9 not present in database
Track 10 not present in database
Track 11 not present in database
Track 12 not present in database
Track 13 not present in database
Track 14 not present in database

None of the tracks are present in the AccurateRip database

End of status report

–– CUETools DB Plugin V2.1.6

[CTDB TOCID: orbJ4KvjdIBzYJ9_FpMME0yaQfA-] found
Submit result: orbJ4KvjdIBzYJ9_FpMME0yaQfA- has been confirmed
Track | CTDB Status
1 | (2/2) Accurately ripped
2 | (2/2) Accurately ripped
3 | (2/2) Accurately ripped
4 | (2/2) Accurately ripped
5 | (2/2) Accurately ripped
6 | (2/2) Accurately ripped
7 | (2/2) Accurately ripped
8 | (2/2) Accurately ripped
9 | (2/2) Accurately ripped
10 | (2/2) Accurately ripped
11 | (2/2) Accurately ripped
12 | (2/2) Accurately ripped
13 | (2/2) Accurately ripped
14 | (2/2) Accurately ripped


==== Log checksum 452D4D3B3D494A1BEC84AEC6D33482851BB50A62FD95CBA0874F969A6894A99E ====


foobar2000 1.2.9 / Dynamic Range Meter 1.1.1
log date: 2017-05-26 16:06:35

––––––––––––––––––––––––––––––––––––––––
Analyzed: Shocking Blue / Live In Japan
––––––––––––––––––––––––––––––––––––––––

DR Peak RMS Duration Track
––––––––––––––––––––––––––––––––––––––––
DR11 -0.39 dB -13.57 dB 3:38 01-Venus
DR11 -0.45 dB -13.03 dB 2:50 02-I'm A Woman
DR12 -0.43 dB -14.08 dB 3:44 03-Sally Was A Good Girl
DR12 -0.49 dB -14.20 dB 3:01 04-Poor Boy
DR10 -0.29 dB -14.05 dB 3:31 05-Tobacco Road
DR14 -0.50 dB -16.37 dB 3:20 06-Classical Gas
DR11 -0.46 dB -13.47 dB 3:32 07-Not Sand
DR10 -0.46 dB -12.52 dB 3:52 08-Long And Lonesome Road
DR12 -0.49 dB -14.09 dB 3:12 09-Boll Weevil
DR13 -0.49 dB -15.24 dB 3:43 10-Blossom Lady
DR12 -0.48 dB -14.25 dB 3:35 11-Mighty Joe
DR11 -0.43 dB -13.14 dB 3:09 12-Never Marry A Railroad Man
DR12 -0.48 dB -13.60 dB 3:30 13-Shocking You
DR12 -0.50 dB -13.90 dB 3:26 14-Venus
––––––––––––––––––––––––––––––––––––––––

Number of tracks: 14
Official DR value: DR12

Samplerate: 44100 Hz
Channels: 2
Bits per sample: 16
Bitrate: 853 kbps
Codec: FLAC
================================================================================



[CUETools log; Date: 26.05.2017 16:06:26; Version: 2.1.4]
[CTDB TOCID: orbJ4KvjdIBzYJ9_FpMME0yaQfA-] found.
Track | CTDB Status
1 | (3/3) Accurately ripped
2 | (3/3) Accurately ripped
3 | (3/3) Accurately ripped
4 | (3/3) Accurately ripped
5 | (3/3) Accurately ripped
6 | (3/3) Accurately ripped
7 | (3/3) Accurately ripped
8 | (3/3) Accurately ripped
9 | (3/3) Accurately ripped
10 | (3/3) Accurately ripped
11 | (3/3) Accurately ripped
12 | (3/3) Accurately ripped
13 | (3/3) Accurately ripped
14 | (3/3) Accurately ripped
[AccurateRip ID: 001897ce-01070ecc-bb0b430e] disk not present in database.

Track Peak [ CRC32 ] [W/O NULL] [ LOG ]
– 96,7 [A6FB29C4] [EF541F95] CRC32
01 95,5 [CDA107AD] [6EA07CE8]
02 94,9 [160C0A64] [9CE7FD6E]
03 95,1 [8C73CA57] [EC2CA2CD]
04 94,5 [A261F9A5] [5A888F28]
05 96,7 [21A212B4] [2C8C3BE5]
06 94,4 [333F051F] [23E048A3]
07 94,8 [B44DA79E] [044F2118]
08 94,8 [67C83813] [F5AF7FBE]
09 94,5 [15AAC1A9] [C4B5C23B]
10 94,5 [D959BEC1] [F7F55694]
11 94,6 [DCBA4D22] [4CB1C8B5]
12 95,2 [2AD74087] [0AC39F6C]
13 94,6 [AB90B74C] [A3CA9BF1]
14 94,4 [7A7975D4] [59149318]


Shocking Blue - The Blue Box (2017) [13CD Box Set]

Tracklist CD6 - 1972 Inkpot:

01 I Ain't Never
02 Navajo Tears
03 Shadows
04 Blue Jean
05 Jambalaya
06 Inkpot
07 Tobacco Road
08 Hey
09 Who Save My Soul
10 Red Leaves I + II
11 The Queen
12 I Melt Like Butter

Exact Audio Copy V1.1 from 23. June 2015

EAC extraction logfile from 21. May 2017, 18:33

Shocking Blue / Inkpot

Used drive : PLEXTOR BD-R PX-B950SA Adapter: 1 ID: 1

Read mode : Secure
Utilize accurate stream : Yes
Defeat audio cache : Yes
Make use of C2 pointers : No

Read offset correction : 6
Overread into Lead-In and Lead-Out : No
Fill up missing offset samples with silence : Yes
Delete leading and trailing silent blocks : No
Null samples used in CRC calculations : Yes
Used interface : Native Win32 interface for Win NT & 2000

Used output format : Internal WAV Routines
Sample format : 44.100 Hz; 16 Bit; Stereo


TOC of the extracted CD

Track | Start | Length | Start sector | End sector
––––––––––––––––––––––––––––-
1 | 0:00.00 | 2:15.05 | 0 | 10129
2 | 2:15.05 | 2:39.68 | 10130 | 22122
3 | 4:54.73 | 2:28.25 | 22123 | 33247
4 | 7:23.23 | 2:35.27 | 33248 | 44899
5 | 9:58.50 | 2:26.73 | 44900 | 55922
6 | 12:25.48 | 2:39.03 | 55923 | 67850
7 | 15:04.51 | 2:33.00 | 67851 | 79325
8 | 17:37.51 | 2:29.04 | 79326 | 90504
9 | 20:06.55 | 1:56.69 | 90505 | 99273
10 | 22:03.49 | 2:36.27 | 99274 | 111000
11 | 24:40.01 | 2:04.72 | 111001 | 120372
12 | 26:44.73 | 2:10.47 | 120373 | 130169


Range status and errors

Selected range

Filename C:\Users\Meijin\Desktop\ALLexxess\Shocking Blue\2017 The Blue Box (13CD Box Set Red Bullet)\1972 Inkpot\Shocking Blue - Inkpot.wav

Peak level 100.0 %
Extraction speed 6.2 X
Range quality 100.0 %
Test CRC 03C702CC
Copy CRC 03C702CC
Copy OK

No errors occurred


AccurateRip summary

Track 1 not present in database
Track 2 not present in database
Track 3 not present in database
Track 4 not present in database
Track 5 not present in database
Track 6 not present in database
Track 7 not present in database
Track 8 not present in database
Track 9 not present in database
Track 10 not present in database
Track 11 not present in database
Track 12 not present in database

None of the tracks are present in the AccurateRip database

End of status report

–– CUETools DB Plugin V2.1.6

[CTDB TOCID: RzooiqHyedtpBT05g3MwervxtkQ-] found
Submit result: RzooiqHyedtpBT05g3MwervxtkQ- has been confirmed
Track | CTDB Status
1 | (2/2) Accurately ripped
2 | (2/2) Accurately ripped
3 | (2/2) Accurately ripped
4 | (2/2) Accurately ripped
5 | (2/2) Accurately ripped
6 | (2/2) Accurately ripped
7 | (2/2) Accurately ripped
8 | (2/2) Accurately ripped
9 | (2/2) Accurately ripped
10 | (2/2) Accurately ripped
11 | (2/2) Accurately ripped
12 | (2/2) Accurately ripped


==== Log checksum EA96847ACC330E967BBE12BB886C13993B44B3B2B0DF48B39B8706FC6D145812 ====


foobar2000 1.2.9 / Dynamic Range Meter 1.1.1
log date: 2017-05-26 16:06:46

––––––––––––––––––––––––––––––––––––––––
Analyzed: Shocking Blue / Inkpot
––––––––––––––––––––––––––––––––––––––––

DR Peak RMS Duration Track
––––––––––––––––––––––––––––––––––––––––
DR10 0.00 dB -10.99 dB 2:15 01-I Ain't Never
DR11 0.00 dB -12.35 dB 2:40 02-Navajo Tears
DR11 0.00 dB -13.85 dB 2:28 03-Shadows
DR11 0.00 dB -12.63 dB 2:35 04-Blue Jean
DR12 0.00 dB -13.51 dB 2:27 05-Jambalaya
DR11 0.00 dB -12.27 dB 2:39 06-Inkpot
DR10 0.00 dB -12.18 dB 2:33 07-Tabacco Road
DR12 0.00 dB -12.79 dB 2:29 08-Hey
DR10 0.00 dB -10.87 dB 1:57 09-Who Save My Soul
DR10 0.00 dB -12.33 dB 2:36 10-Red Leaves I + II
DR10 0.00 dB -12.01 dB 2:05 11-The Queen
DR11 0.00 dB -13.12 dB 2:11 12-I Melt Like Butter
––––––––––––––––––––––––––––––––––––––––

Number of tracks: 12
Official DR value: DR11

Samplerate: 44100 Hz
Channels: 2
Bits per sample: 16
Bitrate: 940 kbps
Codec: FLAC
================================================================================



[CUETools log; Date: 26.05.2017 16:06:38; Version: 2.1.4]
[CTDB TOCID: RzooiqHyedtpBT05g3MwervxtkQ-] found.
Track | CTDB Status
1 | (3/3) Accurately ripped
2 | (3/3) Accurately ripped
3 | (3/3) Accurately ripped
4 | (3/3) Accurately ripped
5 | (3/3) Accurately ripped
6 | (3/3) Accurately ripped
7 | (3/3) Accurately ripped
8 | (3/3) Accurately ripped
9 | (3/3) Accurately ripped
10 | (3/3) Accurately ripped
11 | (3/3) Accurately ripped
12 | (3/3) Accurately ripped
[AccurateRip ID: 000d3238-007ae5bf-9306c70c] disk not present in database.

Track Peak [ CRC32 ] [W/O NULL] [ LOG ]
– 100,0 [03C702CC] [618CFAA6] CRC32
01 100,0 [019814BA] [DF65B7EE]
02 99,9 [6086E22D] [5F24864F]
03 99,9 [5BC1E5D3] [A504EF08]
04 99,9 [B168AE92] [3D8AB0CF]
05 99,9 [9D192E34] [4582E75B]
06 99,9 [C1BA53D5] [1ABC26D0]
07 99,9 [7BDDCD1E] [5FC41C97]
08 99,9 [DC1332BF] [5A307ACD]
09 99,9 [F518733E] [A6B9AD34]
10 99,9 [D281EDE9] [E26F1155]
11 99,9 [35B58329] [6453D8EA]
12 99,9 [5BD648D9] [BC897D74]


Shocking Blue - The Blue Box (2017) [13CD Box Set]

Tracklist CD7 - 1972 Attila:

01 Rattler
02 Never Release The One You Love
03 A Wast Of Time
04 Wait
05 The Devil And The Angel
06 Rock In The Sea
07 I've Spent My Money
08 Will The Circel Be Unbroken
09 Early In The Morning
10 I Built My World Around You
11 Don't Let Your Right Know
12 Broken Heart

Exact Audio Copy V1.1 from 23. June 2015

EAC extraction logfile from 21. May 2017, 18:06

Shocking Blue / Attila

Used drive : PLEXTOR BD-R PX-B950SA Adapter: 1 ID: 1

Read mode : Secure
Utilize accurate stream : Yes
Defeat audio cache : Yes
Make use of C2 pointers : No

Read offset correction : 6
Overread into Lead-In and Lead-Out : No
Fill up missing offset samples with silence : Yes
Delete leading and trailing silent blocks : No
Null samples used in CRC calculations : Yes
Used interface : Native Win32 interface for Win NT & 2000

Used output format : Internal WAV Routines
Sample format : 44.100 Hz; 16 Bit; Stereo


TOC of the extracted CD

Track | Start | Length | Start sector | End sector
––––––––––––––––––––––––––––-
1 | 0:00.00 | 2:47.29 | 0 | 12553
2 | 2:47.29 | 2:57.59 | 12554 | 25887
3 | 5:45.13 | 2:39.65 | 25888 | 37877
4 | 8:25.03 | 2:01.53 | 37878 | 47005
5 | 10:26.56 | 2:25.69 | 47006 | 57949
6 | 12:52.50 | 2:56.65 | 57950 | 71214
7 | 15:49.40 | 1:58.25 | 71215 | 80089
8 | 17:47.65 | 2:38.73 | 80090 | 92012
9 | 20:26.63 | 2:15.56 | 92013 | 102193
10 | 22:42.44 | 1:56.33 | 102194 | 110926
11 | 24:39.02 | 2:06.74 | 110927 | 120450
12 | 26:46.01 | 2:22.44 | 120451 | 131144


Range status and errors

Selected range

Filename C:\Users\Meijin\Desktop\ALLexxess\Shocking Blue\2017 The Blue Box (13CD Box Set Red Bullet)\1972 Attila\Shocking Blue - Attila.wav

Peak level 100.0 %
Extraction speed 6.2 X
Range quality 100.0 %
Test CRC 6CF71C94
Copy CRC 6CF71C94
Copy OK

No errors occurred


AccurateRip summary

Track 1 not present in database
Track 2 not present in database
Track 3 not present in database
Track 4 not present in database
Track 5 not present in database
Track 6 not present in database
Track 7 not present in database
Track 8 not present in database
Track 9 not present in database
Track 10 not present in database
Track 11 not present in database
Track 12 not present in database

None of the tracks are present in the AccurateRip database

End of status report

–– CUETools DB Plugin V2.1.6

[CTDB TOCID: SkZyTW6j8ZB_ElQYA30LLlmGjho-] found
Submit result: SkZyTW6j8ZB_ElQYA30LLlmGjho- has been confirmed
Track | CTDB Status
1 | (2/2) Accurately ripped
2 | (2/2) Accurately ripped
3 | (2/2) Accurately ripped
4 | (2/2) Accurately ripped
5 | (2/2) Accurately ripped
6 | (2/2) Accurately ripped
7 | (2/2) Accurately ripped
8 | (2/2) Accurately ripped
9 | (2/2) Accurately ripped
10 | (2/2) Accurately ripped
11 | (2/2) Accurately ripped
12 | (2/2) Accurately ripped


==== Log checksum DE40C34202E0D6E2C2D949382A625CA2C0FFAD3789DB7674F0F54C5526D199B0 ====


foobar2000 1.2.9 / Dynamic Range Meter 1.1.1
log date: 2017-05-26 16:07:01

––––––––––––––––––––––––––––––––––––––––
Analyzed: Shocking Blue / Attila
––––––––––––––––––––––––––––––––––––––––

DR Peak RMS Duration Track
––––––––––––––––––––––––––––––––––––––––
DR12 0.00 dB -13.12 dB 2:47 01-Rattler
DR11 -0.83 dB -12.89 dB 2:58 02-Never Release The One You Love
DR10 -0.83 dB -12.23 dB 2:40 03-A Wast Of Time
DR10 0.00 dB -11.67 dB 2:02 04-Wait
DR11 -0.50 dB -12.64 dB 2:26 05-The Devil And The Angel
DR10 0.00 dB -11.67 dB 2:57 06-Rock In The Sea
DR11 0.00 dB -12.67 dB 1:58 07-I've Spent My Money
DR11 0.00 dB -12.03 dB 2:39 08-Will The Circel Be Unbroken
DR11 0.00 dB -12.54 dB 2:16 09-Early In The Morning
DR11 0.00 dB -12.69 dB 1:56 10-I Built My World Around You
DR10 0.00 dB -11.86 dB 2:07 11-Don't Let Your Right Know
DR10 -0.17 dB -12.27 dB 2:23 12-Broken Heart
––––––––––––––––––––––––––––––––––––––––

Number of tracks: 12
Official DR value: DR11

Samplerate: 44100 Hz
Channels: 2
Bits per sample: 16
Bitrate: 1010 kbps
Codec: FLAC
================================================================================



[CUETools log; Date: 26.05.2017 16:06:52; Version: 2.1.4]
[CTDB TOCID: SkZyTW6j8ZB_ElQYA30LLlmGjho-] found.
Track | CTDB Status
1 | (3/3) Accurately ripped
2 | (3/3) Accurately ripped
3 | (3/3) Accurately ripped
4 | (3/3) Accurately ripped
5 | (3/3) Accurately ripped
6 | (3/3) Accurately ripped
7 | (3/3) Accurately ripped
8 | (3/3) Accurately ripped
9 | (3/3) Accurately ripped
10 | (3/3) Accurately ripped
11 | (3/3) Accurately ripped
12 | (3/3) Accurately ripped
[AccurateRip ID: 000d91df-007d12b7-a506d40c] disk not present in database.

Track Peak [ CRC32 ] [W/O NULL] [ LOG ]
– 99,9 [6CF71C94] [B718D975] CRC32
01 99,9 [0C6EA67A] [2ADB9B3A]
02 90,8 [9B0D5E0E] [B569108A]
03 90,8 [0DCFC9C5] [01189F32]
04 99,9 [45665947] [5A1CAE4E]
05 94,4 [74EA3F6A] [93CBCD11]
06 99,9 [4829CE47] [3D6C3DDE]
07 99,9 [53118CEF] [5A4D66E1]
08 99,9 [97EA3346] [E2C534E8]
09 99,9 [5D2AC557] [2AF5617E]
10 99,9 [B1AC4474] [C44778D0]
11 99,9 [4F2BEE4E] [BE210544]
12 98,0 [3443CA80] [521D2785]


Shocking Blue - The Blue Box (2017) [13CD Box Set]

Tracklist CD8 - 1973 Ham:

01 Oh Lord
02 Dowee Dowee
03 Everything That's Mine
04 Devi's Suite
05 Time Slips Away
06 A Little Bit Of Heaven
07 I Saw You In June
08 Wild Rose
09 In My Time Of Dying
10 So Far From Home
11 Take Your Time
12 Now He's Gone

Exact Audio Copy V1.1 from 23. June 2015

EAC extraction logfile from 21. May 2017, 17:46

Shocking Blue / Ham

Used drive : PLEXTOR BD-R PX-B950SA Adapter: 1 ID: 1

Read mode : Secure
Utilize accurate stream : Yes
Defeat audio cache : Yes
Make use of C2 pointers : No

Read offset correction : 6
Overread into Lead-In and Lead-Out : No
Fill up missing offset samples with silence : Yes
Delete leading and trailing silent blocks : No
Null samples used in CRC calculations : Yes
Used interface : Native Win32 interface for Win NT & 2000

Used output format : Internal WAV Routines
Sample format : 44.100 Hz; 16 Bit; Stereo


TOC of the extracted CD

Track | Start | Length | Start sector | End sector
––––––––––––––––––––––––––––-
1 | 0:00.00 | 2:31.52 | 0 | 11376
2 | 2:31.52 | 2:50.44 | 11377 | 24170
3 | 5:22.21 | 3:31.58 | 24171 | 40053
4 | 8:54.04 | 3:10.10 | 40054 | 54313
5 | 12:04.14 | 2:23.00 | 54314 | 65038
6 | 14:27.14 | 2:32.46 | 65039 | 76484
7 | 16:59.60 | 2:32.41 | 76485 | 87925
8 | 19:32.26 | 2:26.20 | 87926 | 98895
9 | 21:58.46 | 3:39.28 | 98896 | 115348
10 | 25:37.74 | 2:10.64 | 115349 | 125162
11 | 27:48.63 | 2:10.32 | 125163 | 134944
12 | 29:59.20 | 2:10.71 | 134945 | 144765


Range status and errors

Selected range

Filename C:\Users\Meijin\Desktop\ALLexxess\Shocking Blue\2017 The Blue Box (13CD Box Set Red Bullet)\1973 Ham\Shocking Blue - Ham.wav

Peak level 97.1 %
Extraction speed 6.3 X
Range quality 100.0 %
Test CRC DDE5153F
Copy CRC DDE5153F
Copy OK

No errors occurred


AccurateRip summary

Track 1 not present in database
Track 2 not present in database
Track 3 not present in database
Track 4 not present in database
Track 5 not present in database
Track 6 not present in database
Track 7 not present in database
Track 8 not present in database
Track 9 not present in database
Track 10 not present in database
Track 11 not present in database
Track 12 not present in database

None of the tracks are present in the AccurateRip database

End of status report

–– CUETools DB Plugin V2.1.6

[CTDB TOCID: m2n5oG4ygW1c.VC24mqnBZOtd.E-] found
Submit result: m2n5oG4ygW1c.VC24mqnBZOtd.E- has been confirmed
Track | CTDB Status
1 | (1/1) Accurately ripped
2 | (1/1) Accurately ripped
3 | (1/1) Accurately ripped
4 | (1/1) Accurately ripped
5 | (1/1) Accurately ripped
6 | (1/1) Accurately ripped
7 | (1/1) Accurately ripped
8 | (1/1) Accurately ripped
9 | (1/1) Accurately ripped
10 | (1/1) Accurately ripped
11 | (1/1) Accurately ripped
12 | (1/1) Accurately ripped


==== Log checksum BEE01426D9ED89553D14CAEF07C20994E416012B008B63FC960B23E24B79B990 ====


foobar2000 1.2.9 / Dynamic Range Meter 1.1.1
log date: 2017-05-26 16:07:21

––––––––––––––––––––––––––––––––––––––––
Analyzed: Shocking Blue / Ham
––––––––––––––––––––––––––––––––––––––––

DR Peak RMS Duration Track
––––––––––––––––––––––––––––––––––––––––
DR13 -1.01 dB -15.56 dB 2:32 01-Oh Lord
DR12 -2.96 dB -15.96 dB 2:51 02-Dowee Dowee
DR14 -1.84 dB -16.61 dB 3:32 03-Everything That's Mine
DR14 -1.28 dB -16.34 dB 3:10 04-Devi's Suite
DR14 -0.25 dB -15.34 dB 2:23 05-Time Slips Away
DR14 -1.27 dB -16.32 dB 2:33 06-A Little Bit Of Heaven
DR15 -0.31 dB -16.35 dB 2:33 07-I Saw You In June
DR13 -1.38 dB -15.24 dB 2:26 08-Wild Rose
DR13 -1.77 dB -16.83 dB 3:39 09-In My Time Of Dying
DR15 -1.08 dB -17.66 dB 2:11 10-So far From Home
DR14 -0.45 dB -15.95 dB 2:10 11-Take Your Time
DR13 -0.45 dB -14.03 dB 2:11 12-Now He's Gone
––––––––––––––––––––––––––––––––––––––––

Number of tracks: 12
Official DR value: DR13

Samplerate: 44100 Hz
Channels: 2
Bits per sample: 16
Bitrate: 862 kbps
Codec: FLAC
================================================================================



[CUETools log; Date: 26.05.2017 16:07:10; Version: 2.1.4]
[CTDB TOCID: m2n5oG4ygW1c.VC24mqnBZOtd.E-] found.
Track | CTDB Status
1 | (2/2) Accurately ripped
2 | (2/2) Accurately ripped
3 | (2/2) Accurately ripped
4 | (2/2) Accurately ripped
5 | (2/2) Accurately ripped
6 | (2/2) Accurately ripped
7 | (2/2) Accurately ripped
8 | (2/2) Accurately ripped
9 | (2/2) Accurately ripped
10 | (2/2) Accurately ripped
11 | (2/2) Accurately ripped
12 | (2/2) Accurately ripped
[AccurateRip ID: 000eee35-008a83e8-89078a0c] disk not present in database.

Track Peak [ CRC32 ] [W/O NULL] [ LOG ]
– 97,1 [DDE5153F] [B711405E] CRC32
01 89,0 [988B1285] [AB4B83FE]
02 71,1 [F2ACC05A] [8BEA2E44]
03 80,8 [73F22193] [F44355CF]
04 86,2 [E287BDC2] [B4CABF4D]
05 97,1 [55505F8F] [9B5A401A]
06 86,4 [A1B583C1] [3EECE2F0]
07 96,5 [E797AEA4] [99386AD7]
08 85,2 [5415F786] [4247B158]
09 81,5 [4CE550DA] [6D07EB2F]
10 88,3 [B16C7880] [97075AA7]
11 94,9 [E8921C5A] [AA6053EE]
12 95,0 [799EDC5D] [BE07530D]


Shocking Blue - The Blue Box (2017) [13CD Box Set]

Tracklist CD9 - 1973 Dream On Dreamer:

01 Time Slips Away
02 Dowee Dowee
03 So Far From Home
04 Take Your Time
05 A Little Bit Of Heaven
06 Now He's Gone
07 Diana In Her Dreams
08 Just A Song
09 In My Time Of Dyin
10 Wild Rose
11 Save Your Love
12 Devil's Suite

Exact Audio Copy V1.1 from 23. June 2015

EAC extraction logfile from 21. May 2017, 11:44

Shocking Blue / Dream On Dreamer

Used drive : PLEXTOR BD-R PX-B950SA Adapter: 1 ID: 1

Read mode : Secure
Utilize accurate stream : Yes
Defeat audio cache : Yes
Make use of C2 pointers : No

Read offset correction : 6
Overread into Lead-In and Lead-Out : No
Fill up missing offset samples with silence : Yes
Delete leading and trailing silent blocks : No
Null samples used in CRC calculations : Yes
Used interface : Native Win32 interface for Win NT & 2000

Used output format : Internal WAV Routines
Sample format : 44.100 Hz; 16 Bit; Stereo


TOC of the extracted CD

Track | Start | Length | Start sector | End sector
––––––––––––––––––––––––––––-
1 | 0:00.00 | 2:26.48 | 0 | 10997
2 | 2:26.48 | 2:45.04 | 10998 | 23376
3 | 5:11.52 | 2:11.31 | 23377 | 33232
4 | 7:23.08 | 2:10.51 | 33233 | 43033
5 | 9:33.59 | 2:31.55 | 43034 | 54413
6 | 12:05.39 | 2:13.06 | 54414 | 64394
7 | 14:18.45 | 3:01.08 | 64395 | 77977
8 | 17:19.53 | 2:24.48 | 77978 | 88825
9 | 19:44.26 | 3:39.23 | 88826 | 105273
10 | 23:23.49 | 2:32.57 | 105274 | 116730
11 | 25:56.31 | 2:49.54 | 116731 | 129459
12 | 28:46.10 | 2:57.14 | 129460 | 142748


Range status and errors

Selected range

Filename C:\Users\Meijin\Desktop\ALLexxess\Shocking Blue\2017 The Blue Box (13CD Box Set Red Bullet)\1973 Dream On Dreamer\Shocking Blue - Dream On Dreamer.wav

Peak level 100.0 %
Extraction speed 6.1 X
Range quality 100.0 %
Test CRC 5CD8F8FC
Copy CRC 5CD8F8FC
Copy OK

No errors occurred


AccurateRip summary

Track 1 not present in database
Track 2 not present in database
Track 3 not present in database
Track 4 not present in database
Track 5 not present in database
Track 6 not present in database
Track 7 not present in database
Track 8 not present in database
Track 9 not present in database
Track 10 not present in database
Track 11 not present in database
Track 12 not present in database

None of the tracks are present in the AccurateRip database

End of status report

–– CUETools DB Plugin V2.1.6

[CTDB TOCID: StsVMm6HxSUu5gSD5ijkOm3du_s-] found
Submit result: StsVMm6HxSUu5gSD5ijkOm3du_s- has been confirmed
Track | CTDB Status
1 | (2/2) Accurately ripped
2 | (2/2) Accurately ripped
3 | (2/2) Accurately ripped
4 | (2/2) Accurately ripped
5 | (2/2) Accurately ripped
6 | (2/2) Accurately ripped
7 | (2/2) Accurately ripped
8 | (2/2) Accurately ripped
9 | (2/2) Accurately ripped
10 | (2/2) Accurately ripped
11 | (2/2) Accurately ripped
12 | (2/2) Accurately ripped


==== Log checksum DD84F03D9FC8377CC8F3982327BA5651855626375FC17FEAF431AB4983CED6A6 ====


foobar2000 1.2.9 / Dynamic Range Meter 1.1.1
log date: 2017-05-26 16:07:36

––––––––––––––––––––––––––––––––––––––––
Analyzed: Shocking Blue / Dream On Dreamer
––––––––––––––––––––––––––––––––––––––––

DR Peak RMS Duration Track
––––––––––––––––––––––––––––––––––––––––
DR11 -1.18 dB -14.10 dB 2:27 01-Time Slips Away
DR12 -0.14 dB -13.18 dB 2:45 02-Dowee Dowee
DR11 -0.64 dB -13.32 dB 2:11 03-So Far From Home
DR11 -0.97 dB -13.58 dB 2:11 04-Take Your Time
DR13 -0.06 dB -14.32 dB 2:32 05-A Little Bit Of Heaven
DR12 -0.20 dB -13.41 dB 2:13 06-Now He's Gone
DR12 -0.14 dB -13.21 dB 3:01 07-Diana In Her Dreams
DR12 -0.14 dB -16.09 dB 2:25 08-Just A Song
DR14 -0.14 dB -15.39 dB 3:39 09-In My Time Of Dyin
DR13 0.00 dB -14.71 dB 2:33 10-Wild Rose
DR12 -1.31 dB -14.83 dB 2:50 11-Save Your Love
DR12 -0.14 dB -13.43 dB 2:57 12-Devil's Suite
––––––––––––––––––––––––––––––––––––––––

Number of tracks: 12
Official DR value: DR12

Samplerate: 44100 Hz
Channels: 2
Bits per sample: 16
Bitrate: 908 kbps
Codec: FLAC
================================================================================



[CUETools log; Date: 26.05.2017 16:07:28; Version: 2.1.4]
[CTDB TOCID: StsVMm6HxSUu5gSD5ijkOm3du_s-] found.
Track | CTDB Status
1 | (3/3) Accurately ripped
2 | (3/3) Accurately ripped
3 | (3/3) Accurately ripped
4 | (3/3) Accurately ripped
5 | (3/3) Accurately ripped
6 | (3/3) Accurately ripped
7 | (3/3) Accurately ripped
8 | (3/3) Accurately ripped
9 | (3/3) Accurately ripped
10 | (3/3) Accurately ripped
11 | (3/3) Accurately ripped
12 | (3/3) Accurately ripped
[AccurateRip ID: 000d9665-007ff8d7-97076f0c] disk not present in database.

Track Peak [ CRC32 ] [W/O NULL] [ LOG ]
– 100,0 [5CD8F8FC] [BC743463] CRC32
01 87,3 [6F8369CB] [D50CB6DB]
02 98,4 [1985DC3E] [AC866EFD]
03 92,9 [E2CDAEE9] [509B03C3]
04 89,4 [D4B30036] [5245FC86]
05 99,2 [F977F585] [EF39A36A]
06 97,7 [5CDF3A0F] [9C776EEF]
07 98,4 [0A676CB0] [880D8D94]
08 98,4 [F19102C8] [7CED2B6D]
09 98,4 [4815448A] [9F21BB63]
10 100,0 [73FE041E] [790A7424]
11 86,0 [3C2FEC00] [FAABF6DD]
12 98,4 [665378DE] [70D8EC57]


Shocking Blue - The Blue Box (2017) [13CD Box Set]

Tracklist CD10 - 1974 Good Times:

01 Good Times
02 You'll Come
03 My Life
04 Morning Sun
05 Loving Girl
06 Beggin'
07 This America
08 Nashville Rebel
09 Ball Of Confusion
10 Mississippi Delta
11 I Won't Be Lonely Long
12 Come My Way

Exact Audio Copy V1.1 from 23. June 2015

EAC extraction logfile from 21. May 2017, 7:31

Shocking Blue / Good Times

Used drive : PLEXTOR BD-R PX-B950SA Adapter: 1 ID: 1

Read mode : Secure
Utilize accurate stream : Yes
Defeat audio cache : Yes
Make use of C2 pointers : No

Read offset correction : 6
Overread into Lead-In and Lead-Out : No
Fill up missing offset samples with silence : Yes
Delete leading and trailing silent blocks : No
Null samples used in CRC calculations : Yes
Used interface : Native Win32 interface for Win NT & 2000

Used output format : Internal WAV Routines
Sample format : 44.100 Hz; 16 Bit; Stereo


TOC of the extracted CD

Track | Start | Length | Start sector | End sector
––––––––––––––––––––––––––––-
1 | 0:00.00 | 3:28.16 | 0 | 15615
2 | 3:28.16 | 2:06.46 | 15616 | 25111
3 | 5:34.62 | 2:36.65 | 25112 | 36876
4 | 8:11.52 | 3:32.41 | 36877 | 52817
5 | 11:44.18 | 3:31.42 | 52818 | 68684
6 | 15:15.60 | 4:15.13 | 68685 | 87822
7 | 19:30.73 | 2:59.13 | 87823 | 101260
8 | 22:30.11 | 2:27.12 | 101261 | 112297
9 | 24:57.23 | 3:26.39 | 112298 | 127786
10 | 28:23.62 | 2:51.48 | 127787 | 140659
11 | 31:15.35 | 2:58.39 | 140660 | 154048
12 | 34:13.74 | 3:19.27 | 154049 | 169000


Range status and errors

Selected range

Filename C:\Users\Meijin\Desktop\ALLexxess\Shocking Blue\2017 The Blue Box (13CD Box Set Red Bullet)\1974 Good Times\Shocking Blue - Good Times.wav

Peak level 98.4 %
Extraction speed 6.6 X
Range quality 100.0 %
Test CRC 8B58DF1F
Copy CRC 8B58DF1F
Copy OK

No errors occurred


AccurateRip summary

Track 1 not present in database
Track 2 not present in database
Track 3 not present in database
Track 4 not present in database
Track 5 not present in database
Track 6 not present in database
Track 7 not present in database
Track 8 not present in database
Track 9 not present in database
Track 10 not present in database
Track 11 not present in database
Track 12 not present in database

None of the tracks are present in the AccurateRip database

End of status report

–– CUETools DB Plugin V2.1.6

[CTDB TOCID: PiAXvSyIdDAomTm8m4VSGWk5hrs-] found
Submit result: PiAXvSyIdDAomTm8m4VSGWk5hrs- has been confirmed
Track | CTDB Status
1 | (2/2) Accurately ripped
2 | (2/2) Accurately ripped
3 | (2/2) Accurately ripped
4 | (2/2) Accurately ripped
5 | (2/2) Accurately ripped
6 | (2/2) Accurately ripped
7 | (2/2) Accurately ripped
8 | (2/2) Accurately ripped
9 | (2/2) Accurately ripped
10 | (2/2) Accurately ripped
11 | (2/2) Accurately ripped
12 | (2/2) Accurately ripped


==== Log checksum 12450031F451C767CE35B21B8080235CE78799B4EB3E112EA9ADF54FAAB3F32A ====


foobar2000 1.2.9 / Dynamic Range Meter 1.1.1
log date: 2017-05-26 16:07:52

––––––––––––––––––––––––––––––––––––––––
Analyzed: Shocking Blue / Good Times
––––––––––––––––––––––––––––––––––––––––

DR Peak RMS Duration Track
––––––––––––––––––––––––––––––––––––––––
DR8 -1.55 dB -12.36 dB 3:28 01-Good Times
DR10 -0.69 dB -12.51 dB 2:07 02-You'll Come
DR10 -3.57 dB -16.44 dB 2:37 03-My Life
DR10 -0.38 dB -12.46 dB 3:33 04-Morning Sun
DR10 -0.55 dB -12.64 dB 3:32 05-Loving Girl
DR9 -0.64 dB -11.97 dB 4:15 06-Beggin'
DR10 -0.18 dB -12.29 dB 2:59 07-This America
DR11 -0.64 dB -13.40 dB 2:27 08-Nashville Rebel
DR9 -1.56 dB -11.60 dB 3:27 09-Ball Of Confusion
DR9 -0.14 dB -11.21 dB 2:52 10-Mississippi Delta
DR11 -0.14 dB -12.16 dB 2:59 11-I Won't Be Lonely Long
DR8 -2.15 dB -11.32 dB 3:19 12-Come My Way
––––––––––––––––––––––––––––––––––––––––

Number of tracks: 12
Official DR value: DR10

Samplerate: 44100 Hz
Channels: 2
Bits per sample: 16
Bitrate: 933 kbps
Codec: FLAC
================================================================================



[CUETools log; Date: 26.05.2017 16:07:44; Version: 2.1.4]
[CTDB TOCID: PiAXvSyIdDAomTm8m4VSGWk5hrs-] found.
Track | CTDB Status
1 | (3/3) Accurately ripped
2 | (3/3) Accurately ripped
3 | (3/3) Accurately ripped
4 | (3/3) Accurately ripped
5 | (3/3) Accurately ripped
6 | (3/3) Accurately ripped
7 | (3/3) Accurately ripped
8 | (3/3) Accurately ripped
9 | (3/3) Accurately ripped
10 | (3/3) Accurately ripped
11 | (3/3) Accurately ripped
12 | (3/3) Accurately ripped
[AccurateRip ID: 0010a993-009c327b-9c08cd0c] disk not present in database.

Track Peak [ CRC32 ] [W/O NULL] [ LOG ]
– 98,4 [8B58DF1F] [A66EAE25] CRC32
01 83,6 [49AF0921] [033FEC82]
02 92,3 [6460356E] [D31766C2]
03 66,3 [E9A4260A] [16323CBD]
04 95,7 [330FE60A] [81B6CB84]
05 93,8 [4726434E] [76B1DE3F]
06 92,9 [09428A17] [C61F9F0A]
07 97,9 [9014D0A7] [4D903447]
08 92,9 [220A43C8] [A8E52C76]
09 83,5 [9BADEDDD] [FB704CFB]
10 98,4 [2B09631F] [6061D9C3]
11 98,4 [CCA96691] [86BD7FA8]
12 78,0 [58A21986] [5BE4BDD8]


Shocking Blue - The Blue Box (2017) [13CD Box Set]

Tracklist CD11 - 2017 Singles Collection A’s And B’s Part 1:

01 Love Is In The Air
02 What You Gonna Do
03 Lucy Brown Is Back In Town
04 Fix Your Hair Darling
05 Send Me A Postcard
06 Harley Davidson
07 Long And Lonesome Road
08 Fireball Of Love
09 Venus
10 Hot Sand
11 Mighty Joe
12 Wild Wind
13 Never Marry A Railroad Man
14 Roll Engine Roll
15 Hello Darkness
16 Pickin' Tomatoes
17 Shocking You
18 Waterloo
19 Blossom Lady
20 Is This A Dream
21 Out Of Sight Out Of Mind
22 I Like You
23 Inkpot
24 Give My Love To The Sunrise
25 Rock In The Sea
26 Broken Heart
27 Eve And The Apple
28 When I Was A Girl

Exact Audio Copy V1.1 from 23. June 2015

EAC extraction logfile from 20. May 2017, 19:28

Shocking Blue / Singles A's And B's Part 1

Used drive : PLEXTOR BD-R PX-B950SA Adapter: 1 ID: 1

Read mode : Secure
Utilize accurate stream : Yes
Defeat audio cache : Yes
Make use of C2 pointers : No

Read offset correction : 6
Overread into Lead-In and Lead-Out : No
Fill up missing offset samples with silence : Yes
Delete leading and trailing silent blocks : No
Null samples used in CRC calculations : Yes
Used interface : Native Win32 interface for Win NT & 2000

Used output format : Internal WAV Routines
Sample format : 44.100 Hz; 16 Bit; Stereo


TOC of the extracted CD

Track | Start | Length | Start sector | End sector
––––––––––––––––––––––––––––-
1 | 0:00.00 | 2:37.55 | 0 | 11829
2 | 2:37.55 | 2:19.08 | 11830 | 22262
3 | 4:56.63 | 2:52.56 | 22263 | 35218
4 | 7:49.44 | 2:18.07 | 35219 | 45575
5 | 10:07.51 | 2:38.73 | 45576 | 57498
6 | 12:46.49 | 2:39.38 | 57499 | 69461
7 | 15:26.12 | 2:48.50 | 69462 | 82111
8 | 18:14.62 | 2:59.68 | 82112 | 95604
9 | 21:14.55 | 3:06.48 | 95605 | 109602
10 | 24:21.28 | 2:38.04 | 109603 | 121456
11 | 26:59.32 | 3:08.23 | 121457 | 135579
12 | 30:07.55 | 2:12.55 | 135580 | 145534
13 | 32:20.35 | 3:04.31 | 145535 | 159365
14 | 35:24.66 | 3:16.45 | 159366 | 174110
15 | 38:41.36 | 2:54.09 | 174111 | 187169
16 | 41:35.45 | 3:19.59 | 187170 | 202153
17 | 44:55.29 | 3:00.00 | 202154 | 215653
18 | 47:55.29 | 3:25.38 | 215654 | 231066
19 | 51:20.67 | 3:34.22 | 231067 | 247138
20 | 54:55.14 | 3:46.38 | 247139 | 264126
21 | 58:41.52 | 2:44.64 | 264127 | 276490
22 | 61:26.41 | 2:09.38 | 276491 | 286203
23 | 63:36.04 | 2:38.56 | 286204 | 298109
24 | 66:14.60 | 2:25.33 | 298110 | 309017
25 | 68:40.18 | 2:57.61 | 309018 | 322353
26 | 71:38.04 | 2:22.55 | 322354 | 333058
27 | 74:00.59 | 2:38.47 | 333059 | 344955
28 | 76:39.31 | 2:23.54 | 344956 | 355734


Range status and errors

Selected range

Filename C:\Users\Meijin\Desktop\ ALLexxess\Shocking Blue\2017 The Blue Box (13CD Box Set Red Bullet)\2017 Singles A's And B's Part 1\Shocking Blue - Singles A's And B's Part 1.wav

Peak level 97.3 %
Extraction speed 8.4 X
Range quality 100.0 %
Test CRC 4C79BC8E
Copy CRC 4C79BC8E
Copy OK

No errors occurred


AccurateRip summary

Track 1 not present in database
Track 2 not present in database
Track 3 not present in database
Track 4 not present in database
Track 5 not present in database
Track 6 not present in database
Track 7 not present in database
Track 8 not present in database
Track 9 not present in database
Track 10 not present in database
Track 11 not present in database
Track 12 not present in database
Track 13 not present in database
Track 14 not present in database
Track 15 not present in database
Track 16 not present in database
Track 17 not present in database
Track 18 not present in database
Track 19 not present in database
Track 20 not present in database
Track 21 not present in database
Track 22 not present in database
Track 23 not present in database
Track 24 not present in database
Track 25 not present in database
Track 26 not present in database
Track 27 not present in database
Track 28 not present in database

None of the tracks are present in the AccurateRip database

End of status report

–– CUETools DB Plugin V2.1.6

[CTDB TOCID: YUpp0HjmST7wcJ1tvyjN1.o9TAE-] found
Submit result: YUpp0HjmST7wcJ1tvyjN1.o9TAE- has been confirmed
Track | CTDB Status
1 | (1/1) Accurately ripped
2 | (1/1) Accurately ripped
3 | (1/1) Accurately ripped
4 | (1/1) Accurately ripped
5 | (1/1) Accurately ripped
6 | (1/1) Accurately ripped
7 | (1/1) Accurately ripped
8 | (1/1) Accurately ripped
9 | (1/1) Accurately ripped
10 | (1/1) Accurately ripped
11 | (1/1) Accurately ripped
12 | (1/1) Accurately ripped
13 | (1/1) Accurately ripped
14 | (1/1) Accurately ripped
15 | (1/1) Accurately ripped
16 | (1/1) Accurately ripped
17 | (1/1) Accurately ripped
18 | (1/1) Accurately ripped
19 | (1/1) Accurately ripped
20 | (1/1) Accurately ripped
21 | (1/1) Accurately ripped
22 | (1/1) Accurately ripped
23 | (1/1) Accurately ripped
24 | (1/1) Accurately ripped
25 | (1/1) Accurately ripped
26 | (1/1) Accurately ripped
27 | (1/1) Accurately ripped
28 | (1/1) Accurately ripped


==== Log checksum 31AA01C9811D53CE949779562958A5A9787AC61C93832D20BCEEAE1E44EADDCC ====


foobar2000 1.2.9 / Dynamic Range Meter 1.1.1
log date: 2017-05-26 16:08:15

––––––––––––––––––––––––––––––––––––––––
Analyzed: Shocking Blue / Singles A's And B's Part 1
––––––––––––––––––––––––––––––––––––––––

DR Peak RMS Duration Track
––––––––––––––––––––––––––––––––––––––––
DR6 -1.02 dB -8.62 dB 2:38 01-Love Is In The Air
DR7 -1.29 dB -10.57 dB 2:19 02-What You Gonna Do
DR7 -2.08 dB -9.43 dB 2:53 03-Lucy Brown Is Back In Town
DR8 -0.76 dB -9.68 dB 2:18 04-Fix Your Hair Darling
DR8 -0.60 dB -9.79 dB 2:39 05-Send Me A Postcard
DR8 -0.60 dB -9.51 dB 2:40 06-Harley Davidson
DR6 -1.78 dB -9.23 dB 2:49 07-Long And Lonesome Road
DR8 -0.50 dB -9.45 dB 3:00 08-Fireball Of Love
DR8 -0.39 dB -9.90 dB 3:07 09-Venus
DR7 -0.92 dB -9.28 dB 2:38 10-Hot Sand
DR7 -0.39 dB -8.62 dB 3:08 11-Mighty Joe
DR8 -0.30 dB -10.08 dB 2:13 12-Wild Wind
DR7 -0.40 dB -8.95 dB 3:04 13-Never Marry A Railroad Man
DR7 -0.60 dB -8.87 dB 3:17 14-Roll Engine Roll
DR7 -1.28 dB -9.77 dB 2:54 15-Hello Darkness
DR8 -0.83 dB -9.47 dB 3:20 16-Pickin' Tomatoes
DR7 -1.26 dB -9.05 dB 3:00 17-Shocking You
DR7 -0.88 dB -9.02 dB 3:26 18-Waterloo
DR7 -0.82 dB -9.32 dB 3:34 19-Blossom Lady
DR7 -1.21 dB -9.97 dB 3:47 20-Is This A Dream
DR8 -0.42 dB -9.34 dB 2:45 21-Out Of Sight Out Of Mind
DR7 -2.09 dB -10.40 dB 2:10 22-I Like You
DR8 -1.21 dB -10.61 dB 2:39 23-Inkpot
DR7 -0.47 dB -8.89 dB 2:25 24-Give My Love To The Sunrise
DR7 -0.35 dB -8.85 dB 2:58 25-Rock In The Sea
DR8 -0.53 dB -9.61 dB 2:23 26-Broken Heart
DR8 -0.24 dB -8.90 dB 2:39 27-Eve And The Apple
DR7 -0.82 dB -8.92 dB 2:24 28-When I Was A Girl
––––––––––––––––––––––––––––––––––––––––

Number of tracks: 28
Official DR value: DR7

Samplerate: 44100 Hz
Channels: 2
Bits per sample: 16
Bitrate: 914 kbps
Codec: FLAC
================================================================================



[CUETools log; Date: 26.05.2017 16:08:05; Version: 2.1.4]
[CTDB TOCID: YUpp0HjmST7wcJ1tvyjN1.o9TAE-] found.
Track | CTDB Status
1 | (2/2) Accurately ripped
2 | (2/2) Accurately ripped
3 | (2/2) Accurately ripped
4 | (2/2) Accurately ripped
5 | (2/2) Accurately ripped
6 | (2/2) Accurately ripped
7 | (2/2) Accurately ripped
8 | (2/2) Accurately ripped
9 | (2/2) Accurately ripped
10 | (2/2) Accurately ripped
11 | (2/2) Accurately ripped
12 | (2/2) Accurately ripped
13 | (2/2) Accurately ripped
14 | (2/2) Accurately ripped
15 | (2/2) Accurately ripped
16 | (2/2) Accurately ripped
17 | (2/2) Accurately ripped
18 | (2/2) Accurately ripped
19 | (2/2) Accurately ripped
20 | (2/2) Accurately ripped
21 | (2/2) Accurately ripped
22 | (2/2) Accurately ripped
23 | (2/2) Accurately ripped
24 | (2/2) Accurately ripped
25 | (2/2) Accurately ripped
26 | (2/2) Accurately ripped
27 | (2/2) Accurately ripped
28 | (2/2) Accurately ripped
[AccurateRip ID: 004e6818-062e2a7e-bb12871c] disk not present in database.

Track Peak [ CRC32 ] [W/O NULL] [ LOG ]
– 97,3 [4C79BC8E] [0FABD371] CRC32
01 88,9 [ACA8FC56] [6E713CF6]
02 86,1 [7B9C46F3] [1A09A5C4]
03 78,6 [4FD36A53] [43A4F1D8]
04 91,6 [5B685D20] [CD3CB85D]
05 93,3 [DCCBCDC7] [00653F29]
06 93,2 [B49D2C4F] [A162392D]
07 81,4 [88DA7BDC] [947976A6]
08 94,4 [4BCF3F86] [E09D062E]
09 95,6 [122C5CF1] [557CE3B2]
10 89,9 [2F0F2E92] [26D87811]
11 95,6 [DF08B6AB] [6F580FF4]
12 96,6 [1E43343B] [41361E4E]
13 95,5 [57757988] [DABD9162]
14 93,2 [F60F81B0] [9C125611]
15 86,2 [45C16220] [148FC3F6]
16 90,9 [A90F62CA] [B7118320]
17 86,4 [5285D312] [C5EA09C5]
18 90,3 [52231C5E] [36B7AC99]
19 91,0 [D81AA303] [6D1C0C09]
20 86,9 [41F2B28B] [02A30920]
21 95,2 [430FE34D] [E9388F04]
22 78,6 [24401FDD] [A1F2A62B]
23 86,9 [4BEC461B] [A881CD79]
24 94,7 [33FFE22A] [77199879]
25 96,0 [8B27D3BA] [B7637D57]
26 94,0 [21719776] [E2981A64]
27 97,3 [9C994BAD] [5782AC92]
28 90,9 [9308B804] [11149455]


Shocking Blue - The Blue Box (2017) [13CD Box Set]

Tracklist CD12 - 2017 Singles Collection A’s And B’s Part 2:

01 Oh Lord
02 Everything That's Mine
03 Let Me Carry Your Bag
04 I Saw You In June
05 This America
06 I Won't Be Lonely Long
07 Dream On Dreamer
08 Where The Picknick Was
09 Good Times
10 Come My Way
11 Gonna Sing Ma A Song
12 Get It On
13 Louise
14 The Jury And The Judge
15 I Am Hanging On To Love
16 Body And Soul
17 Angel
18 Love Buzz
19 Boll Weevil
20 I'm A Woman
21 Love Machine
22 Sally Was A Good Old Girl
23 Alaska Country
24 Deamon Lover

Exact Audio Copy V1.1 from 23. June 2015

EAC extraction logfile from 20. May 2017, 14:36

Shocking Blue / Singles A’s And B’s Part 2

Used drive : PLEXTOR BD-R PX-B950SA Adapter: 1 ID: 1

Read mode : Secure
Utilize accurate stream : Yes
Defeat audio cache : Yes
Make use of C2 pointers : No

Read offset correction : 6
Overread into Lead-In and Lead-Out : No
Fill up missing offset samples with silence : Yes
Delete leading and trailing silent blocks : No
Null samples used in CRC calculations : Yes
Used interface : Native Win32 interface for Win NT & 2000

Used output format : Internal WAV Routines
Sample format : 44.100 Hz; 16 Bit; Stereo


TOC of the extracted CD

Track | Start | Length | Start sector | End sector
––––––––––––––––––––––––––––-
1 | 0:00.00 | 2:30.00 | 0 | 11249
2 | 2:30.00 | 3:29.52 | 11250 | 26976
3 | 5:59.52 | 3:25.68 | 26977 | 42419
4 | 9:25.45 | 2:20.36 | 42420 | 52955
5 | 11:46.06 | 2:57.17 | 52956 | 66247
6 | 14:43.23 | 2:56.52 | 66248 | 79499
7 | 17:40.00 | 2:48.38 | 79500 | 92137
8 | 20:28.38 | 3:20.45 | 92138 | 107182
9 | 23:49.08 | 3:23.63 | 107183 | 122470
10 | 27:12.71 | 3:20.63 | 122471 | 137533
11 | 30:33.59 | 2:41.33 | 137534 | 149641
12 | 33:15.17 | 3:12.06 | 149642 | 164047
13 | 36:27.23 | 3:04.17 | 164048 | 177864
14 | 39:31.40 | 3:47.38 | 177865 | 194927
15 | 43:19.03 | 2:22.58 | 194928 | 205635
16 | 45:41.61 | 3:45.51 | 205636 | 222561
17 | 49:27.37 | 3:40.63 | 222562 | 239124
18 | 53:08.25 | 3:44.38 | 239125 | 255962
19 | 56:52.63 | 2:40.28 | 255963 | 267990
20 | 59:33.16 | 3:00.72 | 267991 | 281562
21 | 62:34.13 | 3:19.70 | 281563 | 296557
22 | 65:54.08 | 3:28.10 | 296558 | 312167
23 | 69:22.18 | 3:53.00 | 312168 | 329642
24 | 73:15.18 | 6:01.18 | 329643 | 356735


Range status and errors

Selected range

Filename C:\Users\Meijin\Desktop\ALLexxess\Shocking Blue\2017 The Blue Box (13CD Box Set Red Bullet)\2017 Singles A’s And B’s Part 2\Shocking Blue - Singles A’s And B’s Part 2.wav

Peak level 100.0 %
Extraction speed 8.6 X
Range quality 100.0 %
Test CRC E32968A8
Copy CRC E32968A8
Copy OK

No errors occurred


AccurateRip summary

Track 1 not present in database
Track 2 not present in database
Track 3 not present in database
Track 4 not present in database
Track 5 not present in database
Track 6 not present in database
Track 7 not present in database
Track 8 not present in database
Track 9 not present in database
Track 10 not present in database
Track 11 not present in database
Track 12 not present in database
Track 13 not present in database
Track 14 not present in database
Track 15 not present in database
Track 16 not present in database
Track 17 not present in database
Track 18 not present in database
Track 19 not present in database
Track 20 not present in database
Track 21 not present in database
Track 22 not present in database
Track 23 not present in database
Track 24 not present in database

None of the tracks are present in the AccurateRip database

End of status report

–– CUETools DB Plugin V2.1.6

[CTDB TOCID: 2PL3taDGaUaU8qSHPIqtmAPGOmw-] found
Submit result: 2PL3taDGaUaU8qSHPIqtmAPGOmw- has been confirmed
Track | CTDB Status
1 | (1/1) Accurately ripped
2 | (1/1) Accurately ripped
3 | (1/1) Accurately ripped
4 | (1/1) Accurately ripped
5 | (1/1) Accurately ripped
6 | (1/1) Accurately ripped
7 | (1/1) Accurately ripped
8 | (1/1) Accurately ripped
9 | (1/1) Accurately ripped
10 | (1/1) Accurately ripped
11 | (1/1) Accurately ripped
12 | (1/1) Accurately ripped
13 | (1/1) Accurately ripped
14 | (1/1) Accurately ripped
15 | (1/1) Accurately ripped
16 | (1/1) Accurately ripped
17 | (1/1) Accurately ripped
18 | (1/1) Accurately ripped
19 | (1/1) Accurately ripped
20 | (1/1) Accurately ripped
21 | (1/1) Accurately ripped
22 | (1/1) Accurately ripped
23 | (1/1) Accurately ripped
24 | (1/1) Accurately ripped


==== Log checksum 0FBF0C9F114571C7D04027AA7454AD6CDADBA7E8283AF6D5EBA794AD6573D28F ====


foobar2000 1.2.9 / Dynamic Range Meter 1.1.1
log date: 2017-05-26 16:08:34

––––––––––––––––––––––––––––––––––––––––
Analyzed: Shocking Blue / Singles A's And B's Part 2
––––––––––––––––––––––––––––––––––––––––

DR Peak RMS Duration Track
––––––––––––––––––––––––––––––––––––––––
DR8 -0.91 dB -9.88 dB 2:30 01-Oh Lord
DR9 -0.20 dB -10.38 dB 3:30 02-Everything That's Mine
DR7 -1.19 dB -9.79 dB 3:26 03-Let Me Carry Your Bag
DR7 -1.06 dB -9.70 dB 2:20 04-I Saw You In June
DR7 -0.42 dB -8.35 dB 2:57 05-This America
DR8 -1.08 dB -9.75 dB 2:57 06-I Won't Be Lonely Long
DR7 -0.42 dB -9.42 dB 2:49 07-Dream On Dreamer
DR7 -0.17 dB -8.24 dB 3:21 08-Where The Picknic Was
DR6 -0.59 dB -8.46 dB 3:24 09-Good Times
DR6 -1.14 dB -7.92 dB 3:21 10-Come My Way
DR8 -0.17 dB -8.95 dB 2:41 11-Gonna Sing Me A Song
DR7 -0.63 dB -9.00 dB 3:12 12-Get It On
DR10 -0.10 dB -11.44 dB 3:04 13-Louise
DR7 -1.01 dB -9.21 dB 3:48 14-The Jury And The Judge
DR7 -0.67 dB -9.00 dB 2:23 15-I Am Hanging On To Love
DR7 -0.50 dB -8.61 dB 3:46 16-Body And Soul
DR7 -1.08 dB -9.17 dB 3:41 17-Angel
DR7 -0.96 dB -9.62 dB 3:45 18-Love Buzz
DR8 -0.18 dB -9.21 dB 2:40 19-Boll Weevil
DR8 -0.24 dB -9.80 dB 3:01 20-I'm A Woman
DR7 0.00 dB -8.59 dB 3:20 21-Love Machine
DR7 -0.21 dB -7.62 dB 3:28 22-Sally Was A Good Old Girl
DR7 -0.22 dB -8.54 dB 3:53 23-Alaska Country
DR8 -0.23 dB -9.72 dB 6:01 24-Deamon Lover
––––––––––––––––––––––––––––––––––––––––

Number of tracks: 24
Official DR value: DR7

Samplerate: 44100 Hz
Channels: 2
Bits per sample: 16
Bitrate: 965 kbps
Codec: FLAC
================================================================================



[CUETools log; Date: 26.05.2017 16:08:20; Version: 2.1.4]
[CTDB TOCID: 2PL3taDGaUaU8qSHPIqtmAPGOmw-] found.
Track | CTDB Status
1 | (2/2) Accurately ripped
2 | (2/2) Accurately ripped
3 | (2/2) Accurately ripped
4 | (2/2) Accurately ripped
5 | (2/2) Accurately ripped
6 | (2/2) Accurately ripped
7 | (2/2) Accurately ripped
8 | (2/2) Accurately ripped
9 | (2/2) Accurately ripped
10 | (2/2) Accurately ripped
11 | (2/2) Accurately ripped
12 | (2/2) Accurately ripped
13 | (2/2) Accurately ripped
14 | (2/2) Accurately ripped
15 | (2/2) Accurately ripped
16 | (2/2) Accurately ripped
17 | (2/2) Accurately ripped
18 | (2/2) Accurately ripped
19 | (2/2) Accurately ripped
20 | (2/2) Accurately ripped
21 | (2/2) Accurately ripped
22 | (2/2) Accurately ripped
23 | (2/2) Accurately ripped
24 | (2/2) Accurately ripped
[AccurateRip ID: 003ffb51-045ecbf9-71129418] disk not present in database.

Track Peak [ CRC32 ] [W/O NULL] [ LOG ]
– 100,0 [E32968A8] [FDB68692] CRC32
01 90,0 [26315268] [FD1283C7]
02 97,7 [BE2BC9DC] [3B370D63]
03 87,2 [1BEEDC58] [7F9C9CB4]
04 88,5 [30FFB837] [6E1BC514]
05 95,3 [2565AC7C] [9D9F2730]
06 88,2 [A2A39A70] [BA9BD8A6]
07 95,3 [D3D29F1B] [BD85B237]
08 98,0 [B6CE50E3] [375F4A46]
09 93,4 [1BD0837B] [1CFEB232]
10 87,6 [364BB8AF] [9A86F337]
11 98,0 [99B2CFF5] [34E2ADDE]
12 92,9 [7FD95217] [F0D0679F]
13 98,8 [4B1B660D] [42919E71]
14 89,0 [6134F80B] [17D58F2C]
15 92,5 [C051F392] [24983DD0]
16 94,3 [18838B21] [99C2F908]
17 88,2 [03FA666D] [A6C811B7]
18 89,5 [8360687E] [F2B29E62]
19 98,0 [5256AF22] [ED142B25]
20 97,2 [A024CD1D] [A406E545]
21 100,0 [51AD09D9] [F04680FD]
22 97,6 [A1A60718] [893436CA]
23 97,4 [72AEE0C0] [807F6286]
24 97,3 [A135E33D] [34A885E1]


Shocking Blue - The Blue Box (2017) [13CD Box Set]

Tracklist CD13 - 1993 Mariska Veres And Shocking Jazz Quintet - Shocking You!:

01 He's Not There
02 You Really Got Me
03 Shocking You!
04 Radar Love
05 Try A Little Tenderness
06 Venus
07 I Feel The Earth Move
08 Never Marry A Railroad Man
09 Somebody To Love
10 A Lot Of Living To Do
11 All By Myself
12 Rockin' Good Way

Exact Audio Copy V1.1 from 23. June 2015

EAC extraction logfile from 20. May 2017, 10:00

Mariska Veres & Shocking Jazz Quintet / Shocking You!

Used drive : PLEXTOR BD-R PX-B950SA Adapter: 1 ID: 1

Read mode : Secure
Utilize accurate stream : Yes
Defeat audio cache : Yes
Make use of C2 pointers : No

Read offset correction : 6
Overread into Lead-In and Lead-Out : No
Fill up missing offset samples with silence : Yes
Delete leading and trailing silent blocks : No
Null samples used in CRC calculations : Yes
Used interface : Native Win32 interface for Win NT & 2000

Used output format : Internal WAV Routines
Sample format : 44.100 Hz; 16 Bit; Stereo


TOC of the extracted CD

Track | Start | Length | Start sector | End sector
––––––––––––––––––––––––––––-
1 | 0:00.00 | 4:01.39 | 0 | 18113
2 | 4:01.39 | 3:59.57 | 18114 | 36095
3 | 8:01.21 | 3:12.61 | 36096 | 50556
4 | 11:14.07 | 4:32.44 | 50557 | 71000
5 | 15:46.51 | 5:14.42 | 71001 | 94592
6 | 21:01.18 | 3:26.09 | 94593 | 110051
7 | 24:27.27 | 5:11.56 | 110052 | 133432
8 | 29:39.08 | 3:39.15 | 133433 | 149872
9 | 33:18.23 | 3:39.41 | 149873 | 166338
10 | 36:57.64 | 3:12.08 | 166339 | 180746
11 | 40:09.72 | 3:14.40 | 180747 | 195336
12 | 43:24.37 | 4:16.44 | 195337 | 214580


Range status and errors

Selected range

Filename C:\Users\Meijin\Desktop\ALLexxess\Shocking Blue\2017 The Blue Box (13CD Box Set Red Bullet)\1993 Shocking You!\Mariska Veres & Shocking Jazz Quintet - Shocking You!.wav

Peak level 98.8 %
Extraction speed 7.0 X
Range quality 100.0 %
Test CRC 4646D8C2
Copy CRC 4646D8C2
Copy OK

No errors occurred


AccurateRip summary

Track 1 not present in database
Track 2 not present in database
Track 3 not present in database
Track 4 not present in database
Track 5 not present in database
Track 6 not present in database
Track 7 not present in database
Track 8 not present in database
Track 9 not present in database
Track 10 not present in database
Track 11 not present in database
Track 12 not present in database

None of the tracks are present in the AccurateRip database

End of status report

–– CUETools DB Plugin V2.1.6

[CTDB TOCID: _X.rCTIeLstxypVMh70c2zDNDaY-] found
Submit result: _X.rCTIeLstxypVMh70c2zDNDaY- has been confirmed
Track | CTDB Status
1 | (1/1) Accurately ripped
2 | (1/1) Accurately ripped
3 | (1/1) Accurately ripped
4 | (1/1) Accurately ripped
5 | (1/1) Accurately ripped
6 | (1/1) Accurately ripped
7 | (1/1) Accurately ripped
8 | (1/1) Accurately ripped
9 | (1/1) Accurately ripped
10 | (1/1) Accurately ripped
11 | (1/1) Accurately ripped
12 | (1/1) Accurately ripped


==== Log checksum C07843BA13C17B5F8351E5BC15803E7D64141DFEFA08E2A95AD61E8766505514 ====


foobar2000 1.2.9 / Dynamic Range Meter 1.1.1
log date: 2017-05-26 16:08:48

––––––––––––––––––––––––––––––––––––––––
Analyzed: Mariska Veres & Shocking Jazz Quintet / Shocking You!
––––––––––––––––––––––––––––––––––––––––

DR Peak RMS Duration Track
––––––––––––––––––––––––––––––––––––––––
DR12 -0.10 dB -14.13 dB 4:02 01-He's Not There
DR13 -0.10 dB -15.01 dB 4:00 02-You Really Got Me
DR13 -0.10 dB -14.74 dB 3:13 03-Shocking You!
DR13 -0.10 dB -14.27 dB 4:33 04-Radar Love
DR14 -0.16 dB -19.60 dB 5:15 05-Try A Little Tenderness
DR15 -0.10 dB -16.93 dB 3:26 06-Venus
DR13 -0.60 dB -15.15 dB 5:12 07-I Feel The Earth Move
DR14 -0.10 dB -16.30 dB 3:39 08-Never Marry A Railroad Man
DR13 -0.10 dB -15.06 dB 3:40 09-Somebody To Love
DR13 -0.10 dB -14.60 dB 3:12 10-A Lot Of Livin' To Do
DR13 -1.88 dB -18.65 dB 3:15 11-All By Myself
DR13 -0.10 dB -15.01 dB 4:17 12-Rockin' Good Way
––––––––––––––––––––––––––––––––––––––––

Number of tracks: 12
Official DR value: DR13

Samplerate: 44100 Hz
Channels: 2
Bits per sample: 16
Bitrate: 818 kbps
Codec: FLAC
================================================================================



[CUETools log; Date: 26.05.2017 16:08:39; Version: 2.1.4]
[CTDB TOCID: _X.rCTIeLstxypVMh70c2zDNDaY-] found.
Track | CTDB Status
1 | (3/3) Accurately ripped
2 | (3/3) Accurately ripped
3 | (3/3) Accurately ripped
4 | (3/3) Accurately ripped
5 | (3/3) Accurately ripped
6 | (3/3) Accurately ripped
7 | (3/3) Accurately ripped
8 | (3/3) Accurately ripped
9 | (3/3) Accurately ripped
10 | (3/3) Accurately ripped
11 | (3/3) Accurately ripped
12 | (3/3) Accurately ripped
[AccurateRip ID: 0015adb3-00ca0b6d-990b2d0c] disk not present in database.

Track Peak [ CRC32 ] [W/O NULL] [ LOG ]
– 98,8 [4646D8C2] [25F26DB8] CRC32
01 98,8 [43E75237] [945B1DFD]
02 98,8 [4E429049] [E6BBE36E]
03 98,8 [0071A422] [89D8C95E]
04 98,8 [17CC944D] [0ED4F623]
05 98,1 [173AC067] [DA2DC959]
06 98,8 [D574B790] [B44A68BE]
07 93,3 [E4BBB8BC] [CCB99647]
08 98,8 [8FACF35E] [7B0EB6A6]
09 98,8 [AD22847F] [9D9B918F]
10 98,8 [AB174A10] [EE27D056]
11 80,4 [3556D7B3] [1536BAD3]
12 98,8 [A17749FA] [BDC9765B]


Shocking Blue - The Blue Box (2017) [13CD Box Set]

All thanks go to ALLexxess

Shocking Blue in my Blog

Download Shocking Blue - The Blue Box (2017):