Tags
Language
Tags

Smokin' Joe Kubek Band featuring Bnois King - Got My Mind Back (1996)

Posted By: Designol
Smokin' Joe Kubek Band featuring Bnois King - Got My Mind Back (1996)

Smokin' Joe Kubek Band featuring Bnois King - Got My Mind Back (1996)
EAC | FLAC | Image (Cue&Log) ~ 291 Mb | Mp3 (CBR320) ~ 112 Mb | Scans included
Label: Bullseye Blues | # CD BB 9578 | Time: 00:43:16
Modern Electric Texas Blues, Blues-Rock

There is no need for guest musicians when Smokin' Joe Kubek is around, for the explosive guitarist completely fills up the ensembles with distortions worthy of acid rock. Kubek is a fairly well-rounded player who occasionally leaves space and during at least two songs ("All the Love There Is" and "She's It") on this CD creates some surprising tones on his instrument (sounding like a keyboard on the former and playing 1970s-style wah-wah notes during the latter). With B'nois King contributing smooth but emotional vocals and bassist Paul Jenkins and drummer Mark Hays supporting Kubek, this is a tight group that probably puts on a killer live show.

Review by Scott Yanow, Allmusic.com

Smokin' Joe Kubek Band featuring Bnois King - Got My Mind Back (1996)



Smokin' Joe Kubek: lead, slide & guitar effects (right channel)
Bnois King: vocals, rhythm & lead guitars (left channel)
Paul Jenkins: bass
Mark Hays: drums

Tracklist:

01. Got My Mind Back (4:13)
02. Got You By The Tail (3:31)
03. Can't See For Lookin' (4:42)
04. All The Love There Is (4:58)
05. She's It (4:11)
06. Let Me Take Your Picture (3:46)
07. I'm Here For You (4:28)
08. Don't Touch Her (2:39)
09. Cryin' By Myself (5:33)
10. Double Or Nothing (5:14)


Exact Audio Copy V1.3 from 2. September 2016

EAC extraction logfile from 1. March 2019, 19:47

The Smokin' Joe Kubek Band / Got My Mind Back

Used drive : SlimtypeeBAU108 6 L Adapter: 1 ID: 2

Read mode : Secure
Utilize accurate stream : Yes
Defeat audio cache : Yes
Make use of C2 pointers : No

Read offset correction : 6
Overread into Lead-In and Lead-Out : No
Fill up missing offset samples with silence : Yes
Delete leading and trailing silent blocks : No
Null samples used in CRC calculations : Yes
Used interface : Native Win32 interface for Win NT & 2000

Used output format : User Defined Encoder
Selected bitrate : 1024 kBit/s
Quality : High
Add ID3 tag : No
Command line compressor : D:\Program Files\Flac\flac.exe
Additional command line options : -V -8 -T "Date=%year%" -T "Genre=%genre%" %source%

TOC of the extracted CD

Track | Start | Length | Start sector | End sector
––––––––––––––––––––––––––––-
1 | 0:00.00 | 4:12.45 | 0 | 18944
2 | 4:12.45 | 3:31.35 | 18945 | 34804
3 | 7:44.05 | 4:42.25 | 34805 | 55979
4 | 12:26.30 | 4:57.52 | 55980 | 78306
5 | 17:24.07 | 4:11.03 | 78307 | 97134
6 | 21:35.10 | 3:46.30 | 97135 | 114114
7 | 25:21.40 | 4:27.60 | 114115 | 134199
8 | 29:49.25 | 2:39.15 | 134200 | 146139
9 | 32:28.40 | 5:33.35 | 146140 | 171149
10 | 38:02.00 | 5:14.37 | 171150 | 194736

Range status and errors

Selected range

Filename D:\The Smokin' Joe Kubek Band - Got My Mind Back.wav

Peak level 100.0 %
Extraction speed 3.0 X
Range quality 100.0 %
Test CRC E8808E03
Copy CRC E8808E03
Copy OK

No errors occurred

AccurateRip summary

Track 1 cannot be verified as accurate (confidence 15) [BD8472BA], AccurateRip returned [6D2AE93C] (AR v2)
Track 2 cannot be verified as accurate (confidence 15) [646D2AA1], AccurateRip returned [8EDD61CA] (AR v2)
Track 3 cannot be verified as accurate (confidence 15) [30ADE07E], AccurateRip returned [BBD3E2F2] (AR v2)
Track 4 cannot be verified as accurate (confidence 15) [3D2583F0], AccurateRip returned [EE9421F3] (AR v2)
Track 5 cannot be verified as accurate (confidence 15) [2186F10D], AccurateRip returned [E6132047] (AR v2)
Track 6 cannot be verified as accurate (confidence 15) [F95FFDEC], AccurateRip returned [932FB52E] (AR v2)
Track 7 cannot be verified as accurate (confidence 15) [EFA184CF], AccurateRip returned [87208254] (AR v2)
Track 8 cannot be verified as accurate (confidence 15) [3D9AC4B4], AccurateRip returned [829FB2CC] (AR v2)
Track 9 cannot be verified as accurate (confidence 15) [557F6887], AccurateRip returned [EEDF7B83] (AR v2)
Track 10 cannot be verified as accurate (confidence 15) [8A6BB1CE], AccurateRip returned [A646261E] (AR v2)

No tracks could be verified as accurate
You may have a different pressing from the one(s) in the database

End of status report

–– CUETools DB Plugin V2.1.6

[CTDB TOCID: jwJmkVOgfHFEXNDn8K8zvVgEbeg-] found
Submit result: already submitted
Track | CTDB Status
1 | (39/40) Accurately ripped
2 | (39/40) Accurately ripped
3 | (39/40) Accurately ripped
4 | (39/40) Accurately ripped
5 | (40/40) Accurately ripped
6 | (39/40) Accurately ripped
7 | (40/40) Accurately ripped
8 | (40/40) Accurately ripped
9 | (40/40) Accurately ripped
10 | (38/40) Accurately ripped

==== Log checksum 4D8D4959531A17404216F89C2DE05108A68A9D3BF12E7E51FD9C522B28BAB6A6 ====

––––––––––––––––––––––––––––––––––––––––
Analyzed: The Smokin' Joe Kubek Band / Got My Mind Back
––––––––––––––––––––––––––––––––––––––––

DR Peak RMS Duration Track
––––––––––––––––––––––––––––––––––––––––
DR12 0.00 dB -13.19 dB 4:13 01-Got My Mind Back
DR11 0.00 dB -12.59 dB 3:31 02-Got You By The Tail
DR12 0.00 dB -13.31 dB 4:42 03-Can't See For Lookin'
DR13 0.00 dB -14.72 dB 4:58 04-All The Love There Is
DR13 0.00 dB -14.04 dB 4:11 05-She's It
DR11 0.00 dB -12.59 dB 3:46 06-Let Me Take Your Picture
DR12 0.00 dB -14.63 dB 4:28 07-I'm Here For You
DR11 0.00 dB -12.69 dB 2:39 08-Don't Touch Her
DR13 0.00 dB -14.88 dB 5:33 09-Cryin' By Myself
DR12 0.00 dB -12.79 dB 5:14 10-Double Or Nothing
––––––––––––––––––––––––––––––––––––––––

Number of tracks: 10
Official DR value: DR12

Samplerate: 44100 Hz
Channels: 2
Bits per sample: 16
Bitrate: 899 kbps
Codec: FLAC
================================================================================

Smokin' Joe Kubek Band featuring Bnois King - Got My Mind Back (1996)

Smokin' Joe Kubek Band featuring Bnois King - Got My Mind Back (1996)

All thanks to original releaser - Yarila

More interesting music in My Blog