Tags
Language
Tags
November 2022
Su Mo Tu We Th Fr Sa
30 31 1 2 3 4 5
6 7 8 9 10 11 12
13 14 15 16 17 18 19
20 21 22 23 24 25 26
27 28 29 30 1 2 3

Steppenwolf: Collection (1968-2007) [8 Japanese SHM-CD + 4DVD]

Posted By: v3122
Steppenwolf: Collection (1968-2007) [8 Japanese SHM-CD + 4DVD]

Steppenwolf: Collection (1968-2007)
EAC | Flac(Image) + Cue + Log & MP3 CBR 320Kbps
8CD | Universal Music Japan | ~ 2395 or 1041 Mb | Artwork(png) -> 1248 Mb
4xDVD-5: PAL 16:9 & 4:3 (720x576) VBR / NTSC 16:9 (720x480) VBR
LinearPCM, 2 ch / Dolby AC3, 2 & 6 ch / DTS, 6 ch
Rock, Hard Rock, Blues Rock, Psychedelic Rock

Steppenwolf is a Canadian-American rock band, prominent from 1968 to 1972. The group was formed in late 1967 in Los Angeles by lead singer John Kay, keyboardist Goldy McJohn, and drummer Jerry Edmonton (all formerly in Canadian band The Sparrows). Guitarist Michael Monarch and bass guitarist Rushton Moreve were recruited by notices placed in Los Angeles-area record and musical instrument stores.

Steppenwolf sold over 25 million records worldwide, released eight gold albums and 12 Billboard Hot 100 singles, of which six were top 40 hits, including three top 10 successes: "Born to Be Wild", "Magic Carpet Ride", and "Rock Me". Steppenwolf enjoyed worldwide success from 1968 to 1972, but clashing personalities led to the end of the core lineup. Today, John Kay is the only original member, having been the lead singer since 1967. The band is now called John Kay & Steppenwolf…

~ wiki
Steppenwolf: Collection (1968-2007) [8 Japanese SHM-CD + 4DVD]

Steppenwolf: Collection (1968-2007):

Steppenwolf: Collection (1968-2007) [8 Japanese SHM-CD + 4DVD]

Tracklist CD1 - 1968. Steppenwolf:
2013, Universal Music Japan, UICY-75554

01. Sookie Sookie 03:15
02. Everybody's Next One 02:58
03. Berry Rides Again 02:49
04. Hoochie Coochie Man 05:12
05. Born To Be Wild 03:30
06. Your Wall's Too High 05:45
07. Desperation 05:44
08. The Pusher 05:49
09. A Girl I Knew 02:38
10. Take What You Need 03:27
11. The Ostrich 05:46
Bonus Tracks:
12. Sookie Sookie (Mono Single Version) 03:14
13. Take What You Need (Mono Single Version) 03:34
14. Born To Be Wild (Mono Single Version) 03:06
15. Everybody's Next One (Mono Single Version) 02:52

Exact Audio Copy V1.0 beta 3 from 29. August 2011

EAC extraction logfile from 9. June 2013, 11:19

Steppenwolf / Steppenwolf

Used drive : PLEXTOR BD-R PX-B950SA Adapter: 6 ID: 0

Read mode : Secure
Utilize accurate stream : Yes
Defeat audio cache : Yes
Make use of C2 pointers : No

Read offset correction : 6
Overread into Lead-In and Lead-Out : No
Fill up missing offset samples with silence : Yes
Delete leading and trailing silent blocks : No
Null samples used in CRC calculations : Yes
Used interface : Native Win32 interface for Win NT & 2000

Used output format : Internal WAV Routines
Sample format : 44.100 Hz; 16 Bit; Stereo


TOC of the extracted CD

Track | Start | Length | Start sector | End sector
––––––––––––––––––––––––––––-
1 | 0:00.00 | 3:15.04 | 0 | 14628
2 | 3:15.04 | 2:58.08 | 14629 | 27986
3 | 6:13.12 | 2:49.26 | 27987 | 40687
4 | 9:02.38 | 5:12.26 | 40688 | 64113
5 | 14:14.64 | 3:30.09 | 64114 | 79872
6 | 17:44.73 | 5:45.62 | 79873 | 105809
7 | 23:30.60 | 5:44.53 | 105810 | 131662
8 | 29:15.38 | 5:49.18 | 131663 | 157855
9 | 35:04.56 | 2:38.71 | 157856 | 169776
10 | 37:43.52 | 3:27.41 | 169777 | 185342
11 | 41:11.18 | 5:46.56 | 185343 | 211348
12 | 46:57.74 | 3:14.32 | 211349 | 225930
13 | 50:12.31 | 3:34.37 | 225931 | 242017
14 | 53:46.68 | 3:06.54 | 242018 | 256021
15 | 56:53.47 | 2:52.50 | 256022 | 268971


Range status and errors

Selected range

Filename C:\Users\Meijin\Desktop\ALLexxess\Steppenwolf\1968 Steppenwolf (Mini LP SHM-CD Universal Japan 2013)\Steppenwolf - Steppenwolf.wav

Peak level 80.7 %
Extraction speed 3.4 X
Range quality 100.0 %
Test CRC 38B20169
Copy CRC 38B20169
Copy OK

No errors occurred


AccurateRip summary

Track 1 not present in database
Track 2 not present in database
Track 3 not present in database
Track 4 not present in database
Track 5 not present in database
Track 6 not present in database
Track 7 not present in database
Track 8 not present in database
Track 9 not present in database
Track 10 not present in database
Track 11 not present in database
Track 12 not present in database
Track 13 not present in database
Track 14 not present in database
Track 15 not present in database

None of the tracks are present in the AccurateRip database

End of status report

==== Log checksum D5541660D3E2453328E850769EA7114487F8ABEE7858CDA6A59D5051CF1CEDB8 ====


[CUETools log; Date: 10.09.2019 5:10:31; Version: 2.1.4]
[AccurateRip ID: 00214b90-017df6ea-cb0e020f] found.
Track [ CRC | V2 ] Status
01 [9dee2cd7|5b7a147e] (00+12/12) Accurately ripped
02 [cba5dedb|bbab6c8e] (00+12/12) Accurately ripped
03 [a7213868|bea15f55] (00+12/12) Accurately ripped
04 [8f5281c1|cbea70e9] (00+12/12) Accurately ripped
05 [df5ad06c|02e7c458] (00+12/12) Accurately ripped
06 [791f1727|712bd614] (00+12/12) Accurately ripped
07 [5d467eee|e762abe5] (00+12/12) Accurately ripped
08 [a9a24247|9995eb7e] (00+11/11) Accurately ripped
09 [4e69db05|25b6b8a8] (00+12/12) Accurately ripped
10 [10dcc5f9|b13cc026] (00+11/11) Accurately ripped
11 [5f8c31de|5c74b4fb] (00+11/11) Accurately ripped
12 [3ca1460e|bf3c6299] (00+11/11) Accurately ripped
13 [7e793ea9|f0bfb69f] (00+11/11) Accurately ripped
14 [e821e420|a57dc592] (00+11/11) Accurately ripped
15 [686fb304|a15d8698] (00+10/10) Accurately ripped

Track Peak [ CRC32 ] [W/O NULL] [ LOG ]
– 80,7 [38B20169] [92860331] CRC32
01 69,5 [77627ACF] [10E567F3]
02 78,8 [0056F01F] [CF8507B5]
03 67,1 [0FCDFD8D] [058112BD]
04 77,1 [325CCA6A] [96F91DE0]
05 76,7 [F8886881] [91260C59]
06 77,8 [E6807F3F] [B5D9F144]
07 66,2 [ED714C28] [82F4FA14]
08 64,6 [C59E60A5] [D73AFE56]
09 70,5 [5092EB3C] [6E54FBB8]
10 58,6 [166FF515] [E1464DDC]
11 76,3 [C8E67135] [91F92975]
12 80,7 [2D62A9D1] [B4AF5147]
13 76,0 [35266820] [AE9A4BB4]
14 76,5 [0CA1E321] [32A51B92]
15 66,6 [F9A053FA] [C1936861]


Steppenwolf: Collection (1968-2007) [8 Japanese SHM-CD + 4DVD]

Tracklist CD2 - 1968. The Second:
2013, Universal Music Japan, UICY-75555

01. Faster Than The Speed Of Life 03:12
02. Tighten Up Your Wig 03:04
03. None Of Your Doing 02:50
04. Spiritual Fantasy 03:40
05. Don't Step On The Grass, Sam 05:40
06. 28 03:10
07. Magic Carpet Ride 04:26
08. Disappointment Number (Unknown) 04:52
09. Lost And Found By Trial And Error 02:08
10. Hodge, Podge, Strained Through A Leslie 02:49
11. Resurrection 02:53
12. Reflections 00:47
Bonus Track:
13. Magic Carpet Ride (Mono Single Version) 02:53

Exact Audio Copy V1.0 beta 3 from 29. August 2011

EAC extraction logfile from 9. June 2013, 10:25

Steppenwolf / The Second

Used drive : PLEXTOR BD-R PX-B950SA Adapter: 6 ID: 0

Read mode : Secure
Utilize accurate stream : Yes
Defeat audio cache : Yes
Make use of C2 pointers : No

Read offset correction : 6
Overread into Lead-In and Lead-Out : No
Fill up missing offset samples with silence : Yes
Delete leading and trailing silent blocks : No
Null samples used in CRC calculations : Yes
Used interface : Native Win32 interface for Win NT & 2000

Used output format : Internal WAV Routines
Sample format : 44.100 Hz; 16 Bit; Stereo


TOC of the extracted CD

Track | Start | Length | Start sector | End sector
––––––––––––––––––––––––––––-
1 | 0:00.00 | 3:12.57 | 0 | 14456
2 | 3:12.57 | 3:04.41 | 14457 | 28297
3 | 6:17.23 | 2:50.29 | 28298 | 41076
4 | 9:07.52 | 3:40.19 | 41077 | 57595
5 | 12:47.71 | 5:40.29 | 57596 | 83124
6 | 18:28.25 | 3:10.67 | 83125 | 97441
7 | 21:39.17 | 4:26.21 | 97442 | 117412
8 | 26:05.38 | 4:52.46 | 117413 | 139358
9 | 30:58.09 | 2:08.16 | 139359 | 148974
10 | 33:06.25 | 2:49.34 | 148975 | 161683
11 | 35:55.59 | 2:53.55 | 161684 | 174713
12 | 38:49.39 | 0:47.05 | 174714 | 178243
13 | 39:36.44 | 2:53.70 | 178244 | 191288


Range status and errors

Selected range

Filename C:\Users\Meijin\Desktop\ALLexxess\Steppenwolf\1968 The Second (Mini LP SHM-CD Universal Japan 2013)\Steppenwolf - The Second.wav

Peak level 83.6 %
Extraction speed 6.8 X
Range quality 100.0 %
Test CRC 52453BF3
Copy CRC 52453BF3
Copy OK

No errors occurred


AccurateRip summary

Track 1 not present in database
Track 2 not present in database
Track 3 not present in database
Track 4 not present in database
Track 5 not present in database
Track 6 not present in database
Track 7 not present in database
Track 8 not present in database
Track 9 not present in database
Track 10 not present in database
Track 11 not present in database
Track 12 not present in database
Track 13 not present in database

None of the tracks are present in the AccurateRip database

End of status report

==== Log checksum 0F170F8C542E496B224A99277936BD5E9B3588881631671159A2F7730270EE03 ====


[CUETools log; Date: 12.09.2019 5:05:23; Version: 2.1.4]
[AccurateRip ID: 0015e049-00da3578-bb09f60d] found.
Track [ CRC | V2 ] Status
01 [2a374076|71bd59f7] (0+6/6) Accurately ripped
02 [92aa2277|b8f1d421] (0+6/6) Accurately ripped
03 [0798f777|d9638c4e] (0+6/6) Accurately ripped
04 [234d06a8|c9c4bc8c] (0+6/6) Accurately ripped
05 [20879efa|bb573018] (0+6/6) Accurately ripped
06 [8e6037d8|0c7f775b] (0+6/6) Accurately ripped
07 [5cd34fb2|1f39fbe0] (0+6/6) Accurately ripped
08 [99a29cb3|957167e1] (0+6/6) Accurately ripped
09 [9480a147|b37ff71c] (0+6/6) Accurately ripped
10 [2103300c|c662e351] (0+6/6) Accurately ripped
11 [0604d4cf|8b2ee10c] (0+6/6) Accurately ripped
12 [6f63582a|4d562dea] (0+6/6) Accurately ripped
13 [b89e8428|732ae8a9] (0+6/6) Accurately ripped

Track Peak [ CRC32 ] [W/O NULL] [ LOG ]
– 83,6 [52453BF3] [DEB3A68D] CRC32
01 66,0 [E2417F09] [AFFA465B]
02 61,2 [89F1B0F6] [9541A5D2]
03 62,5 [EA5B6C24] [46AD0B95]
04 52,5 [FCFF182E] [CA5ECDB3]
05 65,1 [FA2465B0] [A1DFF2C6]
06 59,7 [658909D3] [0A579849]
07 60,5 [91963E05] [F123F951]
08 60,2 [D6F0005C] [C6C0342C]
09 65,3 [3EBD78F5] [F2B48FA1]
10 66,2 [B78ABAFF] [051813B3]
11 64,3 [A90BD684] [78FDBB15]
12 16,9 [E70B6DA7] [3C5FBEF3]
13 83,6 [C64983B1] [6D038509]


Steppenwolf: Collection (1968-2007) [8 Japanese SHM-CD + 4DVD]

Tracklist CD3 - 1969. At Your Birthday Party:
2013, Universal Music Japan, UICY-75556

01. Don't Cry 03:10
02. Chicken Wolf 02:58
03. Lovely Meter 03:10
04. Round And Down 03:19
05. It's Never Too Late 04:07
06. Sleeping Dreaming 01:09
07. Jupiter Child 03:28
08. She'll Be Better 05:31
09. Cat Killer 01:37
10. Rock Me 03:44
11. God Fearing Man 03:56
12. Mango Juice 03:00
13. Happy Birthday 02:21
Bonus Tracks:
14. Rock Me (Mono Single Version) 03:41
15. Jupiter Child (Mono Single Version) 03:15
16. It's Never Too Late (Mono Single Version) 03:10
17. Hapy Birthday (Mono Single Version) 02:23

Exact Audio Copy V1.0 beta 3 from 29. August 2011

EAC extraction logfile from 9. June 2013, 9:37

Steppenwolf / At Your Birthday Party

Used drive : PLEXTOR BD-R PX-B950SA Adapter: 6 ID: 0

Read mode : Secure
Utilize accurate stream : Yes
Defeat audio cache : Yes
Make use of C2 pointers : No

Read offset correction : 6
Overread into Lead-In and Lead-Out : No
Fill up missing offset samples with silence : Yes
Delete leading and trailing silent blocks : No
Null samples used in CRC calculations : Yes
Used interface : Native Win32 interface for Win NT & 2000

Used output format : Internal WAV Routines
Sample format : 44.100 Hz; 16 Bit; Stereo


TOC of the extracted CD

Track | Start | Length | Start sector | End sector
––––––––––––––––––––––––––––-
1 | 0:00.00 | 3:10.70 | 0 | 14319
2 | 3:10.70 | 2:58.40 | 14320 | 27709
3 | 6:09.35 | 3:10.54 | 27710 | 42013
4 | 9:20.14 | 3:19.38 | 42014 | 56976
5 | 12:39.52 | 4:07.01 | 56977 | 75502
6 | 16:46.53 | 1:09.14 | 75503 | 80691
7 | 17:55.67 | 3:28.25 | 80692 | 96316
8 | 21:24.17 | 5:31.40 | 96317 | 121181
9 | 26:55.57 | 1:37.12 | 121182 | 128468
10 | 28:32.69 | 3:44.59 | 128469 | 145327
11 | 32:17.53 | 3:56.44 | 145328 | 163071
12 | 36:14.22 | 3:00.08 | 163072 | 176579
13 | 39:14.30 | 2:21.16 | 176580 | 187170
14 | 41:35.46 | 3:41.64 | 187171 | 203809
15 | 45:17.35 | 3:15.24 | 203810 | 218458
16 | 48:32.59 | 3:10.31 | 218459 | 232739
17 | 51:43.15 | 2:23.41 | 232740 | 243505


Range status and errors

Selected range

Filename C:\Users\Meijin\Desktop\ALLexxess\Steppenwolf\1969 At Your Birthday Party (Mini LP SHM-CD Universal Japan 2013)\Steppenwolf - At Your Birthday Party.wav

Peak level 89.4 %
Extraction speed 7.2 X
Range quality 100.0 %
Test CRC BFA500DE
Copy CRC BFA500DE
Copy OK

No errors occurred


AccurateRip summary

Track 1 not present in database
Track 2 not present in database
Track 3 not present in database
Track 4 not present in database
Track 5 not present in database
Track 6 not present in database
Track 7 not present in database
Track 8 not present in database
Track 9 not present in database
Track 10 not present in database
Track 11 not present in database
Track 12 not present in database
Track 13 not present in database
Track 14 not present in database
Track 15 not present in database
Track 16 not present in database
Track 17 not present in database

None of the tracks are present in the AccurateRip database

End of status report

==== Log checksum 0D3B2543A4657147081E77A3DDBE5A63270FCAEEBA72AEB1DAF0A6555AE84C56 ====


[CUETools log; Date: 13.09.2019 10:03:09; Version: 2.1.4]
[AccurateRip ID: 0021c7da-01aca67a-f10cae11] found.
Track [ CRC | V2 ] Status
01 [6f997172|e351695b] (0+4/4) Accurately ripped
02 [897d80ca|19b8f0e6] (0+4/4) Accurately ripped
03 [508fbbe6|4e32da27] (0+4/4) Accurately ripped
04 [465e6716|1ba0dd17] (0+4/4) Accurately ripped
05 [2a576387|e3514b1c] (0+4/4) Accurately ripped
06 [2b02039c|beea521a] (0+4/4) Accurately ripped
07 [845420a5|10d14349] (0+4/4) Accurately ripped
08 [e0c0c2fa|1f126842] (0+4/4) Accurately ripped
09 [5745d903|2a3300a4] (0+4/4) Accurately ripped
10 [4cfe6a3c|856eda62] (0+4/4) Accurately ripped
11 [9f7b1687|fe7d7d6d] (0+4/4) Accurately ripped
12 [43755921|c132d949] (0+4/4) Accurately ripped
13 [2c1b5305|7c318a1b] (0+4/4) Accurately ripped
14 [f075464b|bc472ea0] (0+4/4) Accurately ripped
15 [324b74cf|15c17f42] (0+4/4) Accurately ripped
16 [9f42a54b|394440eb] (0+4/4) Accurately ripped
17 [4ce2c03b|10e8c93d] (0+4/4) Accurately ripped

Track Peak [ CRC32 ] [W/O NULL] [ LOG ]
– 89,4 [BFA500DE] [96FFBFF5] CRC32
01 72,8 [CBAB6642] [6B552999]
02 77,9 [E4CDFA8F] [8E2CFE41]
03 69,3 [1168B294] [F8ACD52C]
04 75,3 [FC73F440] [65543EBD]
05 75,8 [5ABF42C8] [F0128FC2]
06 49,1 [1F1AF12B] [0EFD7446]
07 80,7 [97661668] [E409B16F]
08 86,4 [1BC9466E] [109296D6]
09 71,7 [B25DA16B] [173D4ADB]
10 78,2 [6C17F2F1] [04A40D1C]
11 77,6 [5764947F] [FDC6C621]
12 58,4 [EEFD013C] [C44B76E9]
13 67,8 [00F8F8D3] [97E1D10A]
14 89,4 [003A383F] [99F6B242]
15 78,9 [7111CBD8] [E0E3705A]
16 80,1 [AD130226] [E0D9DB82]
17 74,4 [C324CA6C] [B3386F31]


Steppenwolf: Collection (1968-2007) [8 Japanese SHM-CD + 4DVD]

Tracklist CD4 - 1969. Early Steppenwolf:
2013, Universal Music Japan, UICY-75557

01. Power Play 02:56
02. Howlin' For My Baby 04:52
03. Goin' Upstairs 07:17
04. Corina, Corina 03:57
05. Tighten Up Your Wig 03:17
06. The Pusher 21:39

Exact Audio Copy V1.0 beta 3 from 29. August 2011

EAC extraction logfile from 9. June 2013, 9:03

Steppenwolf / Early Steppenwolf

Used drive : PLEXTOR BD-R PX-B950SA Adapter: 6 ID: 0

Read mode : Secure
Utilize accurate stream : Yes
Defeat audio cache : Yes
Make use of C2 pointers : No

Read offset correction : 6
Overread into Lead-In and Lead-Out : No
Fill up missing offset samples with silence : Yes
Delete leading and trailing silent blocks : No
Null samples used in CRC calculations : Yes
Used interface : Native Win32 interface for Win NT & 2000

Used output format : Internal WAV Routines
Sample format : 44.100 Hz; 16 Bit; Stereo


TOC of the extracted CD

Track | Start | Length | Start sector | End sector
––––––––––––––––––––––––––––-
1 | 0:00.00 | 2:56.33 | 0 | 13232
2 | 2:56.33 | 4:52.53 | 13233 | 35185
3 | 7:49.11 | 7:17.13 | 35186 | 67973
4 | 15:06.24 | 3:57.04 | 67974 | 85752
5 | 19:03.28 | 3:17.39 | 85753 | 100566
6 | 22:20.67 | 21:39.14 | 100567 | 198005


Range status and errors

Selected range

Filename C:\Users\Meijin\Desktop\ALLexxess\Steppenwolf\1969 Early Steppenwolf (Mini LP SHM-CD Universal Japan 2013)\Steppenwolf - Early Steppenwolf.wav

Peak level 79.4 %
Extraction speed 6.7 X
Range quality 99.9 %
Test CRC 3C92CD39
Copy CRC 3C92CD39
Copy OK

No errors occurred


AccurateRip summary

Track 1 not present in database
Track 2 not present in database
Track 3 not present in database
Track 4 not present in database
Track 5 not present in database
Track 6 not present in database

None of the tracks are present in the AccurateRip database

End of status report

==== Log checksum 8574C90551B4DD2AD360E372739EF0B59021B11FF15D94392651F37BEBD8ACEF ====


[CUETools log; Date: 13.09.2019 10:05:03; Version: 2.1.4]
[AccurateRip ID: 0007a3ef-002b0ff2-440a5006] found.
Track [ CRC | V2 ] Status
01 [7a9e546b|960ccc29] (0+3/3) Accurately ripped
02 [0a2526f8|cc801ea3] (0+3/3) Accurately ripped
03 [d81f8c76|7590108c] (0+3/3) Accurately ripped
04 [ed3e760a|d5e9d3f3] (0+3/3) Accurately ripped
05 [2a7fbda0|e6246b43] (0+3/3) Accurately ripped
06 [b3a0f6fd|9f4c78aa] (0+3/3) Accurately ripped

Track Peak [ CRC32 ] [W/O NULL] [ LOG ]
– 79,4 [3C92CD39] [B541EF22] CRC32
01 75,3 [CF721350] [8E61A02E]
02 79,4 [BA9A7C85] [CDE6B070]
03 70,2 [ECEF9BBB] [6CBFDCEB]
04 63,1 [0EFA4515] [AAA0298B]
05 73,7 [7A10DA33] [7EF9685F]
06 54,8 [527EE9C6] [3D466F97]


Steppenwolf: Collection (1968-2007) [8 Japanese SHM-CD + 4DVD]

Tracklist CD5 - 1969. Monster:
2013, Universal Music Japan, UICY-75558

01. Monster-Suicide-America 09:15
02. Draft Register 03:22
03. Power Play 05:27
04. Move Over 02:52
05. Fag 03:12
06. What Would You Do (If I Did That To You) 03:23
07. From Here To There Eventually 05:33
Bonus Tracks:
08. Move Over (Mono Single Version) 02:59
09. Power Play (Mono Single Version) 04:50
10. Monster (Mono Single Version) 03:55

Exact Audio Copy V1.0 beta 3 from 29. August 2011

EAC extraction logfile from 8. June 2013, 20:03

Steppenwolf / Monster

Used drive : PLEXTOR BD-R PX-B950SA Adapter: 6 ID: 0

Read mode : Secure
Utilize accurate stream : Yes
Defeat audio cache : Yes
Make use of C2 pointers : No

Read offset correction : 6
Overread into Lead-In and Lead-Out : No
Fill up missing offset samples with silence : Yes
Delete leading and trailing silent blocks : No
Null samples used in CRC calculations : Yes
Used interface : Native Win32 interface for Win NT & 2000

Used output format : Internal WAV Routines
Sample format : 44.100 Hz; 16 Bit; Stereo


TOC of the extracted CD

Track | Start | Length | Start sector | End sector
––––––––––––––––––––––––––––-
1 | 0:00.00 | 9:15.20 | 0 | 41644
2 | 9:15.20 | 3:22.18 | 41645 | 56812
3 | 12:37.38 | 5:27.59 | 56813 | 81396
4 | 18:05.22 | 2:52.72 | 81397 | 94368
5 | 20:58.19 | 3:12.60 | 94369 | 108828
6 | 24:11.04 | 3:23.06 | 108829 | 124059
7 | 27:34.10 | 5:33.71 | 124060 | 149105
8 | 33:08.06 | 2:59.25 | 149106 | 162555
9 | 36:07.31 | 4:50.39 | 162556 | 184344
10 | 40:57.70 | 3:55.50 | 184345 | 202019


Range status and errors

Selected range

Filename C:\Users\Meijin\Desktop\ALLexxess\Steppenwolf\1969 Monster (Mini LP SHM-CD Universal Japan 2013)\Steppenwolf - Monster.wav

Peak level 89.5 %
Extraction speed 6.9 X
Range quality 100.0 %
Test CRC FB06B840
Copy CRC FB06B840
Copy OK

No errors occurred


AccurateRip summary

Track 1 not present in database
Track 2 not present in database
Track 3 not present in database
Track 4 not present in database
Track 5 not present in database
Track 6 not present in database
Track 7 not present in database
Track 8 not present in database
Track 9 not present in database
Track 10 not present in database

None of the tracks are present in the AccurateRip database

End of status report

==== Log checksum 531771E1D46F86CCB39F7086D8424513D0D4750B7ECD1A6F6D6A66BAA0616EDE ====


[CUETools log; Date: 13.09.2019 10:06:59; Version: 2.1.4]
[AccurateRip ID: 00126394-008dd0ff-990a850a] found.
Track [ CRC | V2 ] Status
01 [a723cde0|4dc95b8d] (0+4/4) Accurately ripped
02 [91d06fd6|8ce6122b] (0+4/4) Accurately ripped
03 [f9e18003|3a4a1278] (0+4/4) Accurately ripped
04 [3590c692|96d7ec46] (0+4/4) Accurately ripped
05 [60c32bc5|86c38374] (0+4/4) Accurately ripped
06 [c4f840ae|e91d27c0] (0+4/4) Accurately ripped
07 [9061790f|fbe70b67] (0+4/4) Accurately ripped
08 [00cbabd1|43a0e204] (0+4/4) Accurately ripped
09 [d5f4490d|3a50514f] (0+4/4) Accurately ripped
10 [726af185|42b1e160] (0+4/4) Accurately ripped

Track Peak [ CRC32 ] [W/O NULL] [ LOG ]
– 89,5 [FB06B840] [E7FBE117] CRC32
01 75,8 [91B728AA] [EBCBE0F1]
02 74,1 [CD8DFA05] [999E4EE0]
03 74,7 [DDF1E872] [DBC174C4]
04 72,2 [6B9E49EE] [E4D6B8A6]
05 68,9 [5C9DC2B1] [35BAE918]
06 74,4 [B1E7DF02] [0D9E8A42]
07 74,0 [6BEDC886] [C19E6DD0]
08 89,5 [D6C7EF35] [DF22E21D]
09 84,5 [6775041B] [6E93A0B9]
10 85,1 [AD355CAD] [392E734A]


Steppenwolf: Collection (1968-2007) [8 Japanese SHM-CD + 4DVD]

Tracklist CD6 - 1970. Live:
2013, Universal Music Japan, UICY-75559

01. Sookie Sookie 03:10
02. Don't Step On The Grass Sam 06:07
03. Tighten Up Your Wig 04:14
04. Monster 09:54
05. Draft Resister 03:46
06. Power Play 05:43
07. Corina-Corina 03:48
08. Twisted 05:02
09. From Here To There Eventually 06:51
10. Hey Lawdy Mama 02:58
11. Magic Carpet Ride 04:15
12. The Pusher 05:58
13. Born To Be Wild 05:45
Bonus Tracks:
14. Hey Lawdy Mama (Mono Single Version) 03:20
15. Twisted (Mono Single Version) 03:44

Exact Audio Copy V1.0 beta 3 from 29. August 2011

EAC extraction logfile from 8. June 2013, 19:15

Steppenwolf / Live

Used drive : PLEXTOR BD-R PX-B950SA Adapter: 6 ID: 0

Read mode : Secure
Utilize accurate stream : Yes
Defeat audio cache : Yes
Make use of C2 pointers : No

Read offset correction : 6
Overread into Lead-In and Lead-Out : No
Fill up missing offset samples with silence : Yes
Delete leading and trailing silent blocks : No
Null samples used in CRC calculations : Yes
Used interface : Native Win32 interface for Win NT & 2000

Used output format : Internal WAV Routines
Sample format : 44.100 Hz; 16 Bit; Stereo


TOC of the extracted CD

Track | Start | Length | Start sector | End sector
––––––––––––––––––––––––––––-
1 | 0:00.00 | 3:10.02 | 0 | 14251
2 | 3:10.02 | 6:07.33 | 14252 | 41809
3 | 9:17.35 | 4:14.57 | 41810 | 60916
4 | 13:32.17 | 9:54.69 | 60917 | 105535
5 | 23:27.11 | 3:46.45 | 105536 | 122530
6 | 27:13.56 | 5:43.08 | 122531 | 148263
7 | 32:56.64 | 3:48.19 | 148264 | 165382
8 | 36:45.08 | 5:02.25 | 165383 | 188057
9 | 41:47.33 | 6:51.54 | 188058 | 218936
10 | 48:39.12 | 2:58.41 | 218937 | 232327
11 | 51:37.53 | 4:15.12 | 232328 | 251464
12 | 55:52.65 | 5:59.21 | 251465 | 278410
13 | 61:52.11 | 5:45.60 | 278411 | 304345
14 | 67:37.71 | 3:20.27 | 304346 | 319372
15 | 70:58.23 | 3:44.60 | 319373 | 336232


Range status and errors

Selected range

Filename C:\Users\Meijin\Desktop\ ALLexxess\Steppenwolf\1970 Live (Mini LP SHM-CD Universal Japan 2013)\Steppenwolf - Live.wav

Peak level 100.0 %
Extraction speed 8.7 X
Range quality 100.0 %
Test CRC 34E07133
Copy CRC 34E07133
Copy OK

No errors occurred


AccurateRip summary

Track 1 not present in database
Track 2 not present in database
Track 3 not present in database
Track 4 not present in database
Track 5 not present in database
Track 6 not present in database
Track 7 not present in database
Track 8 not present in database
Track 9 not present in database
Track 10 not present in database
Track 11 not present in database
Track 12 not present in database
Track 13 not present in database
Track 14 not present in database
Track 15 not present in database

None of the tracks are present in the AccurateRip database

End of status report

==== Log checksum 09D5BF651399D6EB225E1DA5F8D0AC49453A733B478BF8F100A93F57056CE397 ====


[CUETools log; Date: 13.09.2019 10:10:57; Version: 2.1.4]
[AccurateRip ID: 002a8a04-01e1103b-de11830f] found.
Track [ CRC | V2 ] Status
01 [5eb9fa28|d0ae38cf] (0+5/5) Accurately ripped
02 [8bceeefa|184c9c8e] (0+6/6) Accurately ripped
03 [99de5704|150196f4] (0+6/6) Accurately ripped
04 [e16dce5f|eaee0658] (0+6/6) Accurately ripped
05 [4881cc82|3f5f5733] (0+6/6) Accurately ripped
06 [28ba9f4c|c6e22470] (0+6/6) Accurately ripped
07 [4d5f51fd|3ca4154f] (0+6/6) Accurately ripped
08 [7abadf48|5debf339] (0+6/6) Accurately ripped
09 [643b937c|5d866985] (0+6/6) Accurately ripped
10 [c74d4ae7|b7b3707c] (0+6/6) Accurately ripped
11 [c2301c6b|be6b3575] (0+6/6) Accurately ripped
12 [faec0a1f|ede3d94c] (0+6/6) Accurately ripped
13 [54b8b132|44f89489] (0+6/6) Accurately ripped
14 [a3cee6f4|791b00a1] (0+6/6) Accurately ripped
15 [59d0f00f|2f2d7eb9] (0+6/6) Accurately ripped

Track Peak [ CRC32 ] [W/O NULL] [ LOG ]
– 100,0 [34E07133] [6E947249] CRC32
01 88,5 [2E17586D] [3D4E0009]
02 100,0 [A6AF4B5F] [E614054E]
03 85,7 [70D8D48C] [62B25541]
04 95,1 [EB2B3BD2] [BA5A0929]
05 83,1 [E9DB9BAE] [C0DE1D9F]
06 88,7 [CDEC9B73] [4F8FA4E9]
07 83,3 [5C7AA956] [884B805A]
08 84,1 [2D63F710] [36C82E6C]
09 94,5 [5D95C7F2] [EDFB2DCC]
10 93,6 [050D4247] [6F555E71]
11 88,9 [E58F617C] [EA459CEF]
12 85,0 [5EF68E46] [6F238868]
13 82,5 [BEE517E2] [43509038]
14 78,5 [A7BCDB68] [55BD99FD]
15 77,1 [AF6FF6CD] [A8A54FD2]


Steppenwolf: Collection (1968-2007) [8 Japanese SHM-CD + 4DVD]

Tracklist CD7 - 1970. Steppenwolf 7:
2013, Universal Music Japan, UICY-75560

01. Ball Crusher 04:53
02. Forty Days And Forty Nights 03:04
03. Fat Jack 04:52
04. Renegade 06:07
05. Foggy Mental Breakdown 03:54
06. Snowblind Friend 03:55
07. Who Needs Ya' 02:59
08. Earschplittenloudenboomer 05:00
09. Hippo Stomp 05:45
Bonus Tracks:
10. Screaming Night Hog 03:17
11. Snow Blind Friend (Mono Single Version) 03:20
12. Hipop Stomp (Mono Single Version) 03:22

Exact Audio Copy V1.0 beta 3 from 29. August 2011

EAC extraction logfile from 8. June 2013, 18:37

Steppenwolf / Steppenwolf 7

Used drive : PLEXTOR BD-R PX-B950SA Adapter: 6 ID: 0

Read mode : Secure
Utilize accurate stream : Yes
Defeat audio cache : Yes
Make use of C2 pointers : No

Read offset correction : 6
Overread into Lead-In and Lead-Out : No
Fill up missing offset samples with silence : Yes
Delete leading and trailing silent blocks : No
Null samples used in CRC calculations : Yes
Used interface : Native Win32 interface for Win NT & 2000

Used output format : Internal WAV Routines
Sample format : 44.100 Hz; 16 Bit; Stereo


TOC of the extracted CD

Track | Start | Length | Start sector | End sector
––––––––––––––––––––––––––––-
1 | 0:00.00 | 4:53.24 | 0 | 21998
2 | 4:53.24 | 3:04.04 | 21999 | 35802
3 | 7:57.28 | 4:52.04 | 35803 | 57706
4 | 12:49.32 | 6:07.52 | 57707 | 85283
5 | 18:57.09 | 3:54.22 | 85284 | 102855
6 | 22:51.31 | 3:55.09 | 102856 | 120489
7 | 26:46.40 | 2:59.66 | 120490 | 133980
8 | 29:46.31 | 5:00.60 | 133981 | 156540
9 | 34:47.16 | 5:45.52 | 156541 | 182467
10 | 40:32.68 | 3:17.60 | 182468 | 197302
11 | 43:50.53 | 3:20.20 | 197303 | 212322
12 | 47:10.73 | 3:22.50 | 212323 | 227522


Range status and errors

Selected range

Filename C:\Users\Meijin\Desktop\ALLexxess\Steppenwolf\1970 Steppenwolf 7 (Mini LP SHM-CD Universal Japan 2013)\Steppenwolf - Steppenwolf 7.wav

Peak level 89.9 %
Extraction speed 7.1 X
Range quality 100.0 %
Test CRC 0C3F6139
Copy CRC 0C3F6139
Copy OK

No errors occurred


AccurateRip summary

Track 1 not present in database
Track 2 not present in database
Track 3 not present in database
Track 4 not present in database
Track 5 not present in database
Track 6 not present in database
Track 7 not present in database
Track 8 not present in database
Track 9 not present in database
Track 10 not present in database
Track 11 not present in database
Track 12 not present in database

None of the tracks are present in the AccurateRip database

End of status report

==== Log checksum 730A2C6C2C9A83CDF6759D7C90DD5412AE7450337D8E2A414983150D8250CE36 ====


[CUETools log; Date: 13.09.2019 10:28:22; Version: 2.1.4]
[AccurateRip ID: 00176946-00d97283-b40bd90c] found.
Track [ CRC | V2 ] Status
01 [e0bc2770|60ad3b8b] (0+4/4) Accurately ripped
02 [f1d84326|c0b9e251] (0+4/4) Accurately ripped
03 [cf8e6159|9c30932f] (0+4/4) Accurately ripped
04 [b3613553|8aedaf78] (0+4/4) Accurately ripped
05 [1cb8a5b7|ad575fd1] (0+4/4) Accurately ripped
06 [41abde2c|e552662b] (0+4/4) Accurately ripped
07 [393ab638|a97db151] (0+4/4) Accurately ripped
08 [954085c9|fa363b01] (0+4/4) Accurately ripped
09 [1436a281|ce2eb6ba] (0+4/4) Accurately ripped
10 [fd0cc65f|dda94c80] (0+4/4) Accurately ripped
11 [463c1798|a4d72ecb] (0+4/4) Accurately ripped
12 [0362e8c4|05e0c883] (0+4/4) Accurately ripped

Track Peak [ CRC32 ] [W/O NULL] [ LOG ]
– 89,9 [0C3F6139] [7CE33DB1] CRC32
01 89,9 [86B40414] [BC75F4ED]
02 82,8 [6D84A419] [AB8DD88A]
03 81,0 [6C26FD49] [8665ACE3]
04 79,7 [5AA3A492] [4D7FEE10]
05 78,6 [29937999] [8972F53A]
06 74,1 [7AE54747] [1D72B50F]
07 84,1 [DAABB8BE] [A2AAD0BF]
08 81,0 [D2F7C070] [74075FCD]
09 82,4 [15E9C650] [E1282A37]
10 75,7 [42D2A3FE] [5DCA81B0]
11 81,5 [8529013B] [F8100283]
12 80,4 [4CB6CB82] [619E56F6]


Steppenwolf: Collection (1968-2007) [8 Japanese SHM-CD + 4DVD]

Tracklist CD8 - 1971. For Ladies Only:
2013, Universal Music Japan, UICY-75561

01. For Ladies Only 09:15
02. I'm Asking 04:27
03. Shackles & Chains 04:59
04. Tenderness 04:54
05. The Night Time's For You 02:58
06. Jaded Strumpet 04:43
07. Sparkle Eyes 04:31
08. Black Pit 03:48
09. Ride With Me 03:25
10. In Hopes Of A Garden 02:14
Bonus Tracks:
11. For Madmen Only 08:49
12. For Ladies Only (Single Version) 03:31

Exact Audio Copy V1.0 beta 3 from 29. August 2011

EAC extraction logfile from 8. June 2013, 17:53

Steppenwolf / For Ladies Only

Used drive : PLEXTOR BD-R PX-B950SA Adapter: 6 ID: 0

Read mode : Secure
Utilize accurate stream : Yes
Defeat audio cache : Yes
Make use of C2 pointers : No

Read offset correction : 6
Overread into Lead-In and Lead-Out : No
Fill up missing offset samples with silence : Yes
Delete leading and trailing silent blocks : No
Null samples used in CRC calculations : Yes
Used interface : Native Win32 interface for Win NT & 2000

Used output format : Internal WAV Routines
Sample format : 44.100 Hz; 16 Bit; Stereo


TOC of the extracted CD

Track | Start | Length | Start sector | End sector
––––––––––––––––––––––––––––-
1 | 0:00.00 | 9:15.39 | 0 | 41663
2 | 9:15.39 | 4:27.23 | 41664 | 61711
3 | 13:42.62 | 4:59.44 | 61712 | 84180
4 | 18:42.31 | 4:54.68 | 84181 | 106298
5 | 23:37.24 | 2:58.19 | 106299 | 119667
6 | 26:35.43 | 4:43.06 | 119668 | 140898
7 | 31:18.49 | 4:31.64 | 140899 | 161287
8 | 35:50.38 | 3:48.71 | 161288 | 178458
9 | 39:39.34 | 3:25.25 | 178459 | 193858
10 | 43:04.59 | 2:14.05 | 193859 | 203913
11 | 45:18.64 | 8:49.40 | 203914 | 243628
12 | 54:08.29 | 3:31.15 | 243629 | 259468


Range status and errors

Selected range

Filename C:\Users\Meijin\Desktop\ALLexxess\Steppenwolf\1971 For Ladies Only (Mini LP SHM-CD Universal Japan 2013)\Steppenwolf - For Ladies Only.wav

Peak level 100.0 %
Extraction speed 6.2 X
Range quality 99.9 %
Test CRC A29A29A7
Copy CRC A29A29A7
Copy OK

No errors occurred


AccurateRip summary

Track 1 not present in database
Track 2 not present in database
Track 3 not present in database
Track 4 not present in database
Track 5 not present in database
Track 6 not present in database
Track 7 not present in database
Track 8 not present in database
Track 9 not present in database
Track 10 not present in database
Track 11 not present in database
Track 12 not present in database

None of the tracks are present in the AccurateRip database

End of status report

==== Log checksum B6C2D919759AFE0D0B9F338DD1F9B2B1BE99E1107A76076BA4BA06B2BF5C1746 ====


[CUETools log; Date: 13.09.2019 10:50:46; Version: 2.1.4]
[AccurateRip ID: 001b63e1-00f76e9d-a10d830c] found.
Track [ CRC | V2 ] Status
01 [61afc2c3|25227359] (0+5/5) Accurately ripped
02 [ef5697ba|89645304] (0+5/5) Accurately ripped
03 [00f7419e|30336122] (0+5/5) Accurately ripped
04 [2992c35c|bf59c2e5] (0+5/5) Accurately ripped
05 [8bd77f59|013bb9cb] (0+5/5) Accurately ripped
06 [e21976f9|b6ce3a59] (0+5/5) Accurately ripped
07 [ab056490|0a667941] (0+5/5) Accurately ripped
08 [a3ead5b7|f22689d2] (0+5/5) Accurately ripped
09 [e700aa3f|a5ae6ef2] (0+5/5) Accurately ripped
10 [a7080256|93685cee] (0+5/5) Accurately ripped
11 [ccf29ab2|4f659e61] (0+5/5) Accurately ripped
12 [f02b96b2|64635c28] (0+5/5) Accurately ripped

Track Peak [ CRC32 ] [W/O NULL] [ LOG ]
– 100,0 [A29A29A7] [B9D57402] CRC32
01 100,0 [A869CB2A] [587EB384]
02 93,6 [E23DCFA4] [48CC7238]
03 100,0 [D53D0F4E] [BB458A9E]
04 96,7 [41111D00] [E703B1D8]
05 91,9 [22FCF600] [688699C7]
06 100,0 [73F6A72E] [E0B9ECDB]
07 100,0 [8F9A764C] [21252546]
08 98,4 [758DE64C] [3F5BF730]
09 97,2 [B9023790] [63CC57BA]
10 31,2 [73B19D60] [6AFEF80D]
11 48,4 [945263DC] [07438A4F]
12 74,5 [31C198EF] [E9DE859D]


Steppenwolf: Collection (1968-2007) [8 Japanese SHM-CD + 4DVD]

Tracklist DVD1 - 2004. John Kay & Steppenwolf Live In Louisville:

01. Sookie Sookie
02. Rock & Roll Rebels
03. Rock Me
04. I'm Movin' On
05. Endless Commercial
06. Hey Lawdy Mama
07. Hold On (Never Give Up, Never Give In)
08. Ride With Me
09. She's Got The Goods
10. Hoochie Coochie Man
11. Snowblind Friend
12. Monster
13. Magic Carpet Ride
14. Born To Be Wild
15. Pusher

Title: DVD01. 2004 - John Kay & Steppenwolf Live In Louisville - DVD
Size: 4.20 Gb ( 4 401 610,00 KBytes ) - DVD-5
Enabled regions: 1, 2, 3, 4, 5, 6, 7, 8

VTS_01 :
Play Length: 01:20:56
Video: PAL 16:9 (720x576) VBR, Auto Letterboxed
Audio:
English (LinearPCM, 2 ch)
English (Dolby AC3, 6 ch)
English (DTS, 6 ch)

VTS_02 :
Play Length: 00:19:07+00:10:59+00:04:30
Video: PAL 16:9 (720x576) VBR, Auto Letterboxed
Audio:
English (Dolby AC3, 2 ch)
Subtitles:
Deutsch
Francais
Italiano
Espanol
Nederlands

VTS_03 :
Play Length: 00:00:13+00:00:10+00:00:10+00:00:10+00:00:10+00:00:10
Video: PAL 16:9 (720x576) VBR, Auto Letterboxed
Audio:
English (Dolby AC3, 6 ch)


Steppenwolf: Collection (1968-2007) [8 Japanese SHM-CD + 4DVD]

Steppenwolf: Collection (1968-2007) [8 Japanese SHM-CD + 4DVD]

Steppenwolf: Collection (1968-2007) [8 Japanese SHM-CD + 4DVD]

* * *

Steppenwolf: Collection (1968-2007) [8 Japanese SHM-CD + 4DVD]

Tracklist DVD2 - 2005. John Kay & Steppenwolf Rock'n'roll Greats:

1. SookieSookie
2. Rock & Roll Rebels
3. Rock Me
4. Moving On
5. Endless Commercial
6. Hey Lawdy Mama
7. Hold On
8. Hoochie Coochie Man
9. Magic Carpet Ride
10. Born To Be Wild
11. End Credits

Title: DVD02. 2005 - John Kay & Steppenwolf Rock'n'roll Greats - DVD
Size: 3.58 Gb ( 3 752 704,00 KBytes ) - DVD-5
Enabled regions: 1, 2, 3, 4, 5, 6, 7, 8

VTS_01 :
Play Length: 00:00:00+00:00:12+00:53:41
Video: NTSC 16:9 (720x480) VBR, Auto Pan&Scan, Auto Letterboxed
Audio:
Not specified (Dolby AC3, 6 ch)
Not specified (Dolby AC3, 2 ch)
Not specified (Dolby AC3, 8 ch)

VTS_02 :
Play Length: 00:00:00+00:00:12
Video: NTSC 4:3 (720x480) VBR
Audio:
Not specified (Dolby AC3, 6 ch)
Not specified (Dolby AC3, 2 ch)


Steppenwolf: Collection (1968-2007) [8 Japanese SHM-CD + 4DVD]

Steppenwolf: Collection (1968-2007) [8 Japanese SHM-CD + 4DVD]

Steppenwolf: Collection (1968-2007) [8 Japanese SHM-CD + 4DVD]

* * *

Steppenwolf: Collection (1968-2007) [8 Japanese SHM-CD + 4DVD]

Tracklist DVD3 - 2005. Steppenwolf - Rock Me:

1.Introduction
2.Rock and Roll rebels
3.Rock me
4.I’m moovin’ on
5.Endless commercial
6.Hey lawdi mama
7.Ride with me baby
8.She’s got the goods
9.Hoochie coochie man
10.Snowblind friend
11.Monster
12.Magic carpet ride
13.born to be wild
14.Deep into rock – Barking doogs

Title: DVD03. 2005 - Steppenwolf - Rock Me - DVD
Size: 3.50 Gb ( 3 667 658,00 KBytes ) - DVD-5
Enabled regions: 1, 2, 3, 4, 5, 6, 7, 8

VTS_01 :
Play Length: 00:00:37+01:07:47+00:03:34
Video: PAL 4:3 (720x576) VBR
Audio:
English (Dolby AC3, 6 ch)


Steppenwolf: Collection (1968-2007) [8 Japanese SHM-CD + 4DVD]

Steppenwolf: Collection (1968-2007) [8 Japanese SHM-CD + 4DVD]

Steppenwolf: Collection (1968-2007) [8 Japanese SHM-CD + 4DVD]

* * *

Steppenwolf: Collection (1968-2007) [8 Japanese SHM-CD + 4DVD]

Tracklist DVD4 - 2007. Steppenwolf - Born To Be Wild - Live:

1.Introduction 3:58
2.Sookie Sookie 3:06
3.Rock And Roll Rebels 3:58
4.Rock Me 3:30
5.I'm Movin' On 3:14
6.Endless Commercial 4:26
7.Hey Lawdy Mama 4:02
8.Hold On (Never Give Up, Never Give In) 5:34
9.Monster 9:39
10.Magic Carpet Ride 5:17
11.Born To Be Wild 5:46
12.Pusher 6:27
13.Medley (Bonus Track From The 60S) Historical Recording 2:02
Born To Be Wild
Magic Carpet Ride
14.Touching Heaven (Instrumental)(End Credits) 2:28

Special: Biography Steppenwolf 3:30

Title: DVD04. 2007 - Steppenwolf - Born To Be Wild - Live - DVD
Size: 3.27 Gb ( 3 426 556,00 KBytes ) - DVD-5
Enabled regions: 1, 2, 3, 4, 5, 6, 7, 8

VTS_01 :
Play Length: 00:00:21+01:07:16+00:03:34
Video: PAL 4:3 (720x576) VBR
Audio:
English (Dolby AC3, 6 ch)


Steppenwolf: Collection (1968-2007) [8 Japanese SHM-CD + 4DVD]

Steppenwolf: Collection (1968-2007) [8 Japanese SHM-CD + 4DVD]

Steppenwolf: Collection (1968-2007) [8 Japanese SHM-CD + 4DVD]

All thanks go to original releasers

Steppenwolf in my Blog

Download Steppenwolf: Collection (1968-2007):