Tags
Language
Tags

Studebaker John & The Hawks - Albums Collection 1994-2012 (8CD)

Posted By: Designol
Studebaker John & The Hawks - Albums Collection 1994-2012 (8CD)

Studebaker John & The Hawks - Albums Collection 1994-2012 (8CD)
EAC/XLD | FLAC | Image (Cue&Log) ~ 3.1 Gb | Mp3 (CBR320) ~ 1.2 Gb | Complete Scans
Genre: Modern Electric Chicago Blues, Blues-Rock | Time: 07:42:03

John Grimaldi, better known by his stage name Studebaker John (born November 5, 1952, Chicago, Illinois) is an American blues guitarist and harmonica player. He is a practitioner of the Chicago blues style. Collection includes: Too Tough (1994); Outside Lookin' In (1995); Tremoluxe (1996); Time Will Tell (1997); Howl With The Wolf (2001); Between Life & Death (2004); Self-Made Man (2006); Old School Rockin' (2012).

Taking his stage name from an automobile he once owned, Studebaker John Grimaldi was a product of the vibrant blues scene of Chicago's West Side. Born November 5, 1952, his father was himself an amateur musician, and as a youngster, Grimaldi began playing the many instruments lying about the house. Becoming a fixture at the open-air flea markets in the Maxwell Street area – a venue for countless blues buskers – he began focusing on harmonica after catching performances from the likes of Little Walter and Sonny Boy Williamson; after taking in a Hound Dog Taylor club date, Grimaldi also turned to guitar. He formed the blues-rock band the Hawks during the early '70s as a showcase for his reedy vocals, primal harp sound, and blistering slide guitar skills, and in the years to follow also developed into a fine songwriter. While keeping his day job as a construction worker, Grimaldi began recording during the mid-'80s, issuing a live Netherlands set later re-released domestically as Rockin' the Blues '85. His next major release was 1994's Too Tough, followed in 1995 by Outside Lookin' In. He maintained a prolific recording schedule in the years to come, issuing Tremoluxe in 1996 and Time Will Tell in 1997.

Jason Ankeny, Allmusic.com

Studebaker John & The Hawks - Albums Collection 1994-2012 (8CD)





Studebaker John & The Hawks - Albums Collection 1994-2012 (8CD)

Studebaker John & The Hawks - Too Tough (1994)
EAC | FLAC | Image (Cue&Log) ~ 319 Mb | Mp3 (CBR320) ~ 131 Mb | Scans included
Label: Blind Pig | # BPCD 5010 | Time: 00:46:43

In 1994, Blind Pig released guitarist John Studebaker's first nationally distributed album, entitled Too Tough. Fully displaying John's beguiling musical talents, it was an immediate favorite with blues radio programmers and it claimed a strong position on the blues charts for many months after its release. The radio trade Hard Report called it "a sound that could only come out of the collective blues history of Chicago. A CD full of originals is refreshing and when it's this hot, Mrs. O'Leary's cow would be proud." A couple of the tracks appear on the soundtrack of the award-winning Canadian art film called "Exotica", directed by Atom Egoyan.

Tracklist:

01. Your Hoodoo Man (03:20)
02. This City (04:42)
03. Somewhere In Your Heart (03:16)
04. Real Love (04:07)
05. Boogie Walk (04:18)
06. Satisfy My Soul (03:56)
07. Too Tough (03:46)
08. Somebody Forgot To Tell My Heart (04:23)
09. Out Of Control (02:56)
10. Flame Of Desire (03:33)
11. For Lovin' You (04:23)
12. Everyday (03:59)


Exact Audio Copy V1.0 beta 3 from 29. August 2011

Отчёт EAC об извлечении, выполненном 7. декабря 2014, 18:54

Studebaker John & The Hawks / Too Tough

Дисковод: SONY CD-RW CRX230ED Adapter: 0 ID: 1

Режим чтения : Достоверность
Использование точного потока : Да
Отключение кэша аудио : Да
Использование указателей C2 : Нет

Коррекция смещения при чтении : 6
Способность читать области Lead-in и Lead-out : Нет
Заполнение пропущенных сэмплов тишиной : Да
Удаление блоков с тишиной в начале и конце : Нет
При вычислениях CRC использовались нулевые сэмплы : Да
Интерфейс : Встроенный Win32-интерфейс для Win NT/2000

Выходной формат : Внутренние WAV-операции
Формат сэмплов : 44.100 Гц; 16 бит; стерео


TOC извлечённого CD

Трек | Старт | Длительность | Начальный сектор | Конечный сектор
––––––––––––––––––––––––––––––––––-
1 | 0:00.00 | 3:20.05 | 0 | 15004
2 | 3:20.05 | 4:42.22 | 15005 | 36176
3 | 8:02.27 | 3:16.35 | 36177 | 50911
4 | 11:18.62 | 4:07.30 | 50912 | 69466
5 | 15:26.17 | 4:18.08 | 69467 | 88824
6 | 19:44.25 | 3:56.70 | 88825 | 106594
7 | 23:41.20 | 3:46.17 | 106595 | 123561
8 | 27:27.37 | 4:23.00 | 123562 | 143286
9 | 31:50.37 | 2:56.18 | 143287 | 156504
10 | 34:46.55 | 3:33.62 | 156505 | 172541
11 | 38:20.42 | 4:23.33 | 172542 | 192299
12 | 42:44.00 | 3:59.30 | 192300 | 210254


Характеристики диапазона извлечения и сообщения об ошибках

Выбранный диапазон

Имя файла F:\MusicCD\Torrent\Studebaker John\Studebaker John & The Hawks - Too Tough\Studebaker John & The Hawks - Too Tough.wav

Пиковый уровень 100.0 %
Скорость извлечения 7.0 X
Качество диапазона 99.9 %
CRC теста B31CCFD6
CRC копии B31CCFD6
Копирование… OK

Ошибок не произошло


AccurateRip: сводка

Трек 1 точность не определена (достоверность 3) [5D01E126], AccurateRip вернул [ABCD5790] (AR v2)
Трек 2 точность не определена (достоверность 3) [4DC241B2], AccurateRip вернул [97740EEC] (AR v2)
Трек 3 точность не определена (достоверность 3) [48C192EF], AccurateRip вернул [719F506D] (AR v2)
Трек 4 точность не определена (достоверность 3) [1E1F3378], AccurateRip вернул [8614FD1F] (AR v2)
Трек 5 точность не определена (достоверность 3) [D9F1F2D7], AccurateRip вернул [BFFE58ED] (AR v2)
Трек 6 точность не определена (достоверность 3) [AA2A63D4], AccurateRip вернул [378994A5] (AR v2)
Трек 7 точность не определена (достоверность 3) [6738B609], AccurateRip вернул [AF58B5BC] (AR v2)
Трек 8 точность не определена (достоверность 4) [7832541B], AccurateRip вернул [B41053AF] (AR v2)
Трек 9 точность не определена (достоверность 4) [FF417D99], AccurateRip вернул [54B6AFA3] (AR v2)
Трек 10 точность не определена (достоверность 4) [4A461DB5], AccurateRip вернул [A59B6F37] (AR v2)
Трек 11 точность не определена (достоверность 4) [976F8870], AccurateRip вернул [351DF3BA] (AR v2)
Трек 12 точность не определена (достоверность 4) [1758FC6F], AccurateRip вернул [49580D64] (AR v2)

Ни один трек не прошёл проверки на точность
В вашей базе может быть иной вариант штамповки диска

Конец отчёта

==== Контрольная сумма отчёта EF34F9D9E157B7E8CBABF03C4A3ABB0536058BC0365B613C96ECFC7185FD9883 ====

foobar2000 1.2 / Dynamic Range Meter 1.1.1
log date: 2014-12-09 16:20:37

––––––––––––––––––––––––––––––––––––––––
Analyzed: Studebaker John & The Hawks / Too Tough
––––––––––––––––––––––––––––––––––––––––

DR Peak RMS Duration Track
––––––––––––––––––––––––––––––––––––––––
DR12 -0.10 dB -13.77 dB 3:20 01-Your Hoodoo Man
DR13 -0.10 dB -15.41 dB 4:42 02-This City
DR12 0.00 dB -13.81 dB 3:16 03-Somewhere In Your Heart
DR12 -0.51 dB -14.85 dB 4:07 04-Real Love
DR12 -0.10 dB -13.29 dB 4:18 05-Boogie Walk
DR13 -0.10 dB -15.00 dB 3:57 06-Satisfy My Soul
DR12 -0.10 dB -13.35 dB 3:46 07-Too Tough
DR14 -0.04 dB -15.91 dB 4:23 08-Somebody Forgot To Tell My Heart
DR12 -0.10 dB -13.78 dB 2:56 09-Out Of Control
DR13 -0.10 dB -15.87 dB 3:34 10-Flame Of Desire
DR12 -0.10 dB -14.25 dB 4:23 11-For Lovin' You
DR13 -0.10 dB -13.65 dB 3:59 12-Everyday
––––––––––––––––––––––––––––––––––––––––

Number of tracks: 12
Official DR value: DR13

Samplerate: 44100 Hz
Channels: 2
Bits per sample: 16
Bitrate: 885 kbps
Codec: FLAC
================================================================================

Studebaker John & The Hawks - Albums Collection 1994-2012 (8CD)

Studebaker John & The Hawks - Albums Collection 1994-2012 (8CD)




Studebaker John & The Hawks - Albums Collection 1994-2012 (8CD)

Studebaker John & The Hawks - Outside Lookin' In (1995)
EAC | FLAC | Image (Cue&Log) ~ 334 Mb | Mp3 (CBR320) ~ 135 Mb | Scans included
Label: Blind Pig | # BPCD 5022 | Time: 00:46:33

Outside Lookin' In finds Studebaker John perfecting his overdriven, propulsive Chicago blues. His originals may not always be memorable, but they're sturdy vehicles for his hard-driving harmonica and gutsy guitar. Studebaker hasn't changed his style at all – essentially, this is the same album he's delivered before, and he made several others like it afterward – but this is the one that features his best playing.

Review by Thom Owens, Allmusic.com

Tracklist:

01. Shake (04:36)
02. Dirty Business (03:45)
03. She's A Rocker (04:48)
04. Whoa Yeah (03:43)
05. Outside Lookin' In (03:20)
06. New Way Of Walkin' (04:24)
07. Nothin' But Fun (03:50)
08. Blue Feelin' (04:00)
09. Circumstances (02:53)
10. You Done Me Wrong (04:14)
11. Tell Me Why (03:54)
12. Flippin' Out (03:01)


Exact Audio Copy V1.0 beta 3 from 29. August 2011

Отчёт EAC об извлечении, выполненном 3. ноября 2014, 20:56

Studebaker John & The Hawks / Outside Lookin' In

Дисковод: SONY CD-RW CRX230ED Adapter: 0 ID: 1

Режим чтения : Достоверность
Использование точного потока : Да
Отключение кэша аудио : Да
Использование указателей C2 : Нет

Коррекция смещения при чтении : 6
Способность читать области Lead-in и Lead-out : Нет
Заполнение пропущенных сэмплов тишиной : Да
Удаление блоков с тишиной в начале и конце : Нет
При вычислениях CRC использовались нулевые сэмплы : Да
Интерфейс : Встроенный Win32-интерфейс для Win NT/2000

Выходной формат : Внутренние WAV-операции
Формат сэмплов : 44.100 Гц; 16 бит; стерео


TOC извлечённого CD

Трек | Старт | Длительность | Начальный сектор | Конечный сектор
––––––––––––––––––––––––––––––––––-
1 | 0:00.00 | 4:36.65 | 0 | 20764
2 | 4:36.65 | 3:45.52 | 20765 | 37691
3 | 8:22.42 | 4:48.10 | 37692 | 59301
4 | 13:10.52 | 3:43.30 | 59302 | 76056
5 | 16:54.07 | 3:20.25 | 76057 | 91081
6 | 20:14.32 | 4:24.05 | 91082 | 110886
7 | 24:38.37 | 3:50.55 | 110887 | 128191
8 | 28:29.17 | 4:00.15 | 128192 | 146206
9 | 32:29.32 | 2:53.23 | 146207 | 159204
10 | 35:22.55 | 4:14.32 | 159205 | 178286
11 | 39:37.12 | 3:54.40 | 178287 | 195876
12 | 43:31.52 | 3:01.28 | 195877 | 209479


Характеристики диапазона извлечения и сообщения об ошибках

Выбранный диапазон

Имя файла F:\MusicCD\Torrent\Studebaker John & The Hawks - Outside Lookin' In\Studebaker John & The Hawks - Outside Lookin' In.wav

Пиковый уровень 98.8 %
Скорость извлечения 7.3 X
Качество диапазона 100.0 %
CRC теста F3FF1F9D
CRC копии F3FF1F9D
Копирование… OK

Ошибок не произошло


AccurateRip: сводка

Трек 1 : извлечено точно (доверие 2) [45E29494] (AR v1)
Трек 2 : извлечено точно (доверие 2) [EDE534C0] (AR v1)
Трек 3 : извлечено точно (доверие 2) [6F6E7FEF] (AR v1)
Трек 4 : извлечено точно (доверие 2) [9A0E6ACE] (AR v1)
Трек 5 : извлечено точно (доверие 2) [3E8B7900] (AR v1)
Трек 6 : извлечено точно (доверие 2) [B1DC02AA] (AR v1)
Трек 7 : извлечено точно (доверие 2) [B589BEAB] (AR v1)
Трек 8 : извлечено точно (доверие 2) [AA772B2D] (AR v1)
Трек 9 : извлечено точно (доверие 2) [9A0D86B5] (AR v1)
Трек 10 : извлечено точно (доверие 2) [D0745638] (AR v1)
Трек 11 : извлечено точно (доверие 2) [3765088A] (AR v1)
Трек 12 : извлечено точно (доверие 2) [3FB0CEE5] (AR v1)

Все треки извлечены точно

Конец отчёта

==== Контрольная сумма отчёта DFF48B59692C36F0C28859856546175B630C2A55E2B72FEDBDA5ECB0F2205C8F ====

foobar2000 1.2 / Dynamic Range Meter 1.1.1
log date: 2014-11-04 14:26:27

––––––––––––––––––––––––––––––––––––––––
Analyzed: Studebaker John & The Hawks / Outside Lookin' In
––––––––––––––––––––––––––––––––––––––––

DR Peak RMS Duration Track
––––––––––––––––––––––––––––––––––––––––
DR10 -0.10 dB -11.46 dB 4:37 01-Shake
DR10 -0.10 dB -11.47 dB 3:46 02-Dirty Business
DR10 -0.10 dB -11.14 dB 4:48 03-She's A Rocker
DR13 -0.10 dB -13.93 dB 3:43 04-Whoa Yeah
DR12 -0.10 dB -12.57 dB 3:20 05-Outside Lookin' In
DR11 -0.10 dB -12.66 dB 4:24 06-New Way Of Walkin'
DR12 -0.10 dB -12.51 dB 3:51 07-Nothin' But Fun
DR11 -0.86 dB -14.25 dB 4:00 08-Blue Feelin'
DR13 -0.10 dB -13.59 dB 2:53 09-Circumstances
DR12 -0.10 dB -12.84 dB 4:14 10-You Done Me Wrong
DR12 -0.10 dB -13.09 dB 3:55 11-Tell Me Why
DR11 -0.10 dB -12.30 dB 3:01 12-Flippin' Out
––––––––––––––––––––––––––––––––––––––––

Number of tracks: 12
Official DR value: DR11

Samplerate: 44100 Hz
Channels: 2
Bits per sample: 16
Bitrate: 917 kbps
Codec: FLAC
================================================================================

Studebaker John & The Hawks - Albums Collection 1994-2012 (8CD)

Studebaker John & The Hawks - Albums Collection 1994-2012 (8CD)




Studebaker John & The Hawks - Albums Collection 1994-2012 (8CD)

Studebaker John & The Hawks - Tremoluxe (1996)
EAC | FLAC | Image (Cue&Log) ~ 392 Mb | Mp3 (CBR320) ~ 163 Mb | Scans included
Label: Blind Pig | # BPCD 5031 | 00:54:08

Tremoluxe has the fat, dirty guitar tone and the loud snare drums of the blues-rock genre, but Studebaker John Grimaldi is not just another Stevie Ray Vaughan wanna-be. Instead Grimaldi more closely resembles the Fabulous Thunderbirds' Jimmie Vaughan in his utter devotion to the groove. And it's that devotion that allows "Tremoluxe" to rise above the humdrum state of blues-rock today and demand attention with its hypnotic boogie rhythms.

Review by Geoffrey Himes

Studebaker John finally delivers on this album, if you like good old R&B blues. His previous two albums had their moments, but not as many as here. His best offering are when he combines both harp and guitar as on the excellent 'Voodoo Woman', 'Rock my baby right' and 'Two time boogie'. The slow blues blues 'Missing you' is also memorable. Also check out the later release 'Time will Tell'.

Review by Bob Davis

Tracklist:

01. Two Time Boogie (04:00)
02. Cold, Cold Heart (03:33)
03. Gonna Start To Walkin' (03:03)
04. Missing You (04:22)
05. Since Day One (03:52)
06. Last Night (03:37)
07. Voodoo Woman (05:02)
08. We're Gonna Rock (03:21)
09. My Way Or The Highway (04:19)
10. 100% Satisfaction (03:26)
11. Talk To Me Baby (03:07)
12. Rock My Baby Right (04:05)
13. Hey, Hey, Hey (04:14)
14. Boogie Twist (04:00)


Exact Audio Copy V1.0 beta 3 from 29. August 2011

Отчёт EAC об извлечении, выполненном 7. декабря 2014, 18:26

Studebaker John & The Hawks / Tremoluxe

Дисковод: SONY CD-RW CRX230ED Adapter: 0 ID: 1

Режим чтения : Достоверность
Использование точного потока : Да
Отключение кэша аудио : Да
Использование указателей C2 : Нет

Коррекция смещения при чтении : 6
Способность читать области Lead-in и Lead-out : Нет
Заполнение пропущенных сэмплов тишиной : Да
Удаление блоков с тишиной в начале и конце : Нет
При вычислениях CRC использовались нулевые сэмплы : Да
Интерфейс : Встроенный Win32-интерфейс для Win NT/2000

Выходной формат : Внутренние WAV-операции
Формат сэмплов : 44.100 Гц; 16 бит; стерео


TOC извлечённого CD

Трек | Старт | Длительность | Начальный сектор | Конечный сектор
––––––––––––––––––––––––––––––––––-
1 | 0:00.00 | 4:00.32 | 0 | 18031
2 | 4:00.32 | 3:33.70 | 18032 | 34076
3 | 7:34.27 | 3:03.30 | 34077 | 47831
4 | 10:37.57 | 4:22.25 | 47832 | 67506
5 | 15:00.07 | 3:52.48 | 67507 | 84954
6 | 18:52.55 | 3:37.02 | 84955 | 101231
7 | 22:29.57 | 5:02.05 | 101232 | 123886
8 | 27:31.62 | 3:21.73 | 123887 | 139034
9 | 30:53.60 | 4:19.27 | 139035 | 158486
10 | 35:13.12 | 3:26.68 | 158487 | 174004
11 | 38:40.05 | 3:07.17 | 174005 | 188046
12 | 41:47.22 | 4:05.70 | 188047 | 206491
13 | 45:53.17 | 4:14.40 | 206492 | 225581
14 | 50:07.57 | 4:00.53 | 225582 | 243634


Характеристики диапазона извлечения и сообщения об ошибках

Выбранный диапазон

Имя файла F:\MusicCD\Torrent\Studebaker John\Studebaker John & The Hawks - Tremoluxe\Studebaker John & The Hawks - Tremoluxe.wav

Пиковый уровень 99.7 %
Скорость извлечения 7.7 X
Качество диапазона 100.0 %
CRC теста BA96117A
CRC копии BA96117A
Копирование… OK

Ошибок не произошло


AccurateRip: сводка

Трек 1 : извлечено точно (доверие 3) [AA706149] (AR v2)
Трек 2 : извлечено точно (доверие 3) [F91A761C] (AR v2)
Трек 3 : извлечено точно (доверие 3) [A8F1DB3C] (AR v2)
Трек 4 : извлечено точно (доверие 3) [D38FE890] (AR v2)
Трек 5 : извлечено точно (доверие 3) [C62A7D96] (AR v2)
Трек 6 : извлечено точно (доверие 3) [173551B9] (AR v2)
Трек 7 : извлечено точно (доверие 3) [F4F2BEE8] (AR v2)
Трек 8 : извлечено точно (доверие 3) [64A2466C] (AR v2)
Трек 9 : извлечено точно (доверие 3) [57EE5266] (AR v2)
Трек 10 : извлечено точно (доверие 3) [6510F01D] (AR v2)
Трек 11 : извлечено точно (доверие 3) [2910116E] (AR v2)
Трек 12 : извлечено точно (доверие 3) [21953805] (AR v2)
Трек 13 : извлечено точно (доверие 3) [62BCB2EE] (AR v2)
Трек 14 : извлечено точно (доверие 3) [290506AD] (AR v2)

Все треки извлечены точно

Конец отчёта

==== Контрольная сумма отчёта F4C1AAFB0FCA799C7488EC4ECED0FD8DDCEC77DDDC83F4A944E1060209940787 ====

foobar2000 1.2 / Dynamic Range Meter 1.1.1
log date: 2015-01-28 17:38:37

––––––––––––––––––––––––––––––––––––––––
Analyzed: Studebaker John & The Hawks / Tremoluxe
––––––––––––––––––––––––––––––––––––––––

DR Peak RMS Duration Track
––––––––––––––––––––––––––––––––––––––––
DR10 -0.02 dB -10.69 dB 4:00 01-Two Time Boogie
DR10 -0.02 dB -10.88 dB 3:34 02-Cold, Cold Heart
DR9 -0.02 dB -10.55 dB 3:03 03-Gonna Start To Walkin'
DR11 -0.02 dB -12.79 dB 4:22 04-Missing You
DR10 -0.02 dB -11.03 dB 3:53 05-Since Day One
DR10 -0.02 dB -11.66 dB 3:37 06-Last Night
DR11 -0.02 dB -12.01 dB 5:02 07-Voodoo Woman
DR10 -0.02 dB -10.86 dB 3:22 08-We're Gonna Rock
DR10 -0.02 dB -11.37 dB 4:19 09-My Way Or The Highway
DR9 -0.02 dB -10.40 dB 3:27 10-100% Satisfaction
DR8 -0.02 dB -9.82 dB 3:07 11-Talk To Me Baby
DR9 -0.02 dB -9.42 dB 4:06 12-Rock My Baby Right
DR9 -0.02 dB -10.59 dB 4:15 13-Hey, Hey, Hey
DR9 -0.02 dB -10.18 dB 4:01 14-Boogie Twist
––––––––––––––––––––––––––––––––––––––––

Number of tracks: 14
Official DR value: DR10

Samplerate: 44100 Hz
Channels: 2
Bits per sample: 16
Bitrate: 912 kbps
Codec: FLAC
================================================================================

Studebaker John & The Hawks - Albums Collection 1994-2012 (8CD)

Studebaker John & The Hawks - Albums Collection 1994-2012 (8CD)




Studebaker John & The Hawks - Albums Collection 1994-2012 (8CD)

Studebaker John & The Hawks - Time Will Tell (1997)
EAC | FLAC | Image (Cue&Log) ~ 357 Mb | Mp3 (CBR320) ~ 143 Mb | Scans included
Label: Blind Pig | # BPCD 5042 | Time: 00:48:51

Studebaker John, who dominates this release, has diverse talents in four areas: as a guitarist, harmonica soloist, singer and songwriter. His abilities on both guitar and harmonica are quite impressive, playing the very different instruments with equal intensity and passion. In contrast, John's singing is serviceable, and none of his dozen originals on his fourth Blind Pig release are destined to become standards. Overall, this bluesy, often high-powered set is a good showcase for his playing, although one would love to hear Studebaker John perform blues standards sometime.

Review by Scott Yanow, Allmusic.com

Tracklist:

01. Rolling & Tumbling Around (04:45)
02. Here No More (04:41)
03. On This Highway (03:38)
04. Fear (03:47)
05. The Road (03:31)
06. Running Into The Rain (04:11)
07. She Plays Hard (03:30)
08. Playing With Fire (02:53)
09. Forever (04:47)
10. Nasty Mother (04:26)
11. Running Scared (03:54)
12. Time Will Tell (04:41)


Exact Audio Copy V1.0 beta 3 from 29. August 2011

Отчёт EAC об извлечении, выполненном 7. декабря 2014, 18:02

Studebaker John & The Hawks / Time Will Tell

Дисковод: SONY CD-RW CRX230ED Adapter: 0 ID: 1

Режим чтения : Достоверность
Использование точного потока : Да
Отключение кэша аудио : Да
Использование указателей C2 : Нет

Коррекция смещения при чтении : 6
Способность читать области Lead-in и Lead-out : Нет
Заполнение пропущенных сэмплов тишиной : Да
Удаление блоков с тишиной в начале и конце : Нет
При вычислениях CRC использовались нулевые сэмплы : Да
Интерфейс : Встроенный Win32-интерфейс для Win NT/2000

Выходной формат : Внутренние WAV-операции
Формат сэмплов : 44.100 Гц; 16 бит; стерео


TOC извлечённого CD

Трек | Старт | Длительность | Начальный сектор | Конечный сектор
––––––––––––––––––––––––––––––––––-
1 | 0:00.00 | 4:45.72 | 0 | 21446
2 | 4:45.72 | 4:41.70 | 21447 | 42591
3 | 9:27.67 | 3:38.50 | 42592 | 58991
4 | 13:06.42 | 3:47.13 | 58992 | 76029
5 | 16:53.55 | 3:31.30 | 76030 | 91884
6 | 20:25.10 | 4:11.02 | 91885 | 110711
7 | 24:36.12 | 3:30.70 | 110712 | 126531
8 | 28:07.07 | 2:53.38 | 126532 | 139544
9 | 31:00.45 | 4:47.32 | 139545 | 161101
10 | 35:48.02 | 4:26.73 | 161102 | 181124
11 | 40:15.00 | 3:54.62 | 181125 | 198736
12 | 44:09.62 | 4:41.43 | 198737 | 219854


Характеристики диапазона извлечения и сообщения об ошибках

Выбранный диапазон

Имя файла F:\MusicCD\Torrent\Studebaker John & The Hawks - Time Will Tell\Studebaker John & The Hawks - Time Will Tell.wav

Пиковый уровень 97.6 %
Скорость извлечения 7.5 X
Качество диапазона 100.0 %
CRC теста 645CDD29
CRC копии 645CDD29
Копирование… OK

Ошибок не произошло


AccurateRip: сводка

Трек 1 точность не определена (достоверность 7) [3C11EAA3], AccurateRip вернул [DBB1F3F1] (AR v2)
Трек 2 точность не определена (достоверность 7) [364B6E97], AccurateRip вернул [7A123A84] (AR v2)
Трек 3 точность не определена (достоверность 7) [DF5AAD2D], AccurateRip вернул [3B9531C8] (AR v2)
Трек 4 точность не определена (достоверность 7) [A5114092], AccurateRip вернул [4D1AF3E9] (AR v2)
Трек 5 точность не определена (достоверность 7) [35C5A767], AccurateRip вернул [A734E724] (AR v2)
Трек 6 точность не определена (достоверность 7) [718748B2], AccurateRip вернул [5EF3F3F1] (AR v2)
Трек 7 точность не определена (достоверность 7) [631239D0], AccurateRip вернул [DE8D5569] (AR v2)
Трек 8 точность не определена (достоверность 7) [4614DE80], AccurateRip вернул [A1E59B13] (AR v2)
Трек 9 точность не определена (достоверность 7) [84AE5717], AccurateRip вернул [A75089AE] (AR v2)
Трек 10 точность не определена (достоверность 7) [BD98AC52], AccurateRip вернул [155923D2] (AR v2)
Трек 11 точность не определена (достоверность 7) [51E384AA], AccurateRip вернул [7821BFB6] (AR v2)
Трек 12 точность не определена (достоверность 7) [56171F22], AccurateRip вернул [AC25E8BC] (AR v2)

Ни один трек не прошёл проверки на точность
В вашей базе может быть иной вариант штамповки диска

Конец отчёта

==== Контрольная сумма отчёта BFC959A8E3A1C2921B492D948C96630BD5105747456F665965177CF7757169BF ====

foobar2000 1.2 / Dynamic Range Meter 1.1.1
log date: 2014-12-10 16:11:18

––––––––––––––––––––––––––––––––––––––––
Analyzed: Studebaker John & The Hawks / Time Will Tell
––––––––––––––––––––––––––––––––––––––––

DR Peak RMS Duration Track
––––––––––––––––––––––––––––––––––––––––
DR9 -0.21 dB -9.94 dB 4:46 01-Rolling & Tumbling Around
DR10 -0.21 dB -10.98 dB 4:42 02-Here No More
DR9 -0.21 dB -10.82 dB 3:39 03-On This Highway
DR10 -0.28 dB -12.12 dB 3:47 04-Fear
DR8 -0.21 dB -9.34 dB 3:31 05-The Road
DR10 -0.21 dB -11.03 dB 4:11 06-Running Into The Rain
DR9 -0.23 dB -10.58 dB 3:31 07-She Plays Hard
DR10 -0.24 dB -10.89 dB 2:54 08-Playing With Fire
DR9 -0.25 dB -11.33 dB 4:47 09-Forever
DR10 -0.21 dB -11.87 dB 4:27 10-Nasty Mother
DR9 -0.24 dB -9.88 dB 3:55 11-Running Scared
DR9 -0.21 dB -10.42 dB 4:42 12-Time Will Tell
––––––––––––––––––––––––––––––––––––––––

Number of tracks: 12
Official DR value: DR9

Samplerate: 44100 Hz
Channels: 2
Bits per sample: 16
Bitrate: 932 kbps
Codec: FLAC
================================================================================

Studebaker John & The Hawks - Albums Collection 1994-2012 (8CD)

Studebaker John & The Hawks - Albums Collection 1994-2012 (8CD)




Studebaker John & The Hawks - Albums Collection 1994-2012 (8CD)

Studebaker John & The Hawks - Howl With The Wolf (2001)
EAC | FLAC | Image (Cue&Log) ~ 334 Mb | Mp3 (CBR320) ~ 120 Mb | Scans ~ 67 Mb
Label: Evidence | # ECD 26112-2 | Time: 00:52:02

A bluesman from Chicago who doesn't perform any covers is a rarity indeed, but John Grimaldi, aka Studebaker John, has stuck to his guns throughout his career, and this 2001 release is a good indication why. While his melodies are serviceable, the guitarist/harpist/singer writes sharp, smart lyrics that are far more provocative than what most contemporary bluesmen churn out. Add tough vocals that place him between Darrell Nulisch and Stevie Ray Vaughan and a sizzling attack that never seems phoned in for a 50-minute set, and you wonder what more it would take for this gutsy, obviously inspired bluesman to get traction, even in a market saturated by talented players. Along with his other talents, Grimaldi also produced this disc, and the stripped-down yet full sound is raw and driven yet accessible. Songs such as the opening "Burned by Love" and "Rich Man" boast melodies that are far more creative and dramatically arranged than the genre exercises most bluesmen work in. He blows serious Little Walter-inspired amplified harp on the "Juke"-styled instrumental "Harpology," and the driving Bo Diddley beat of "Nothing Comes Easy" pushes this disc into the red zone. The slow, sexy grind of "Lock & Chain" gives Grimaldi a chance to display his impressive vocals and a slide guitar tone with Elmore James nuances. A few by-the-numbers party boogie burners such as "Don't You Take It" sound like warmed-over Fabulous Thunderbirds, but Grimaldi plays everything with enough enthusiasm and warmth to make listeners forget that they may have heard some of these tunes done by other bands, just with different titles. Regardless, there is plenty here for blues lovers to sink their teeth into, and the best moments are terrific examples of contemporary blues at its most propulsive.

Review by Hal Horowitz, Allmusic.com

Tracklist:

01. Burned By Love (05:05)
02. End To The Lies (04:32)
03. Juke Joint Jump (03:54)
04. Meant To Be (04:20)
05. Nothing For Nothing (05:13)
06. Rich Man (04:54)
07. Harpology (03:45)
08. Don't You Take It (03:47)
09. Nothing Comes Easy (03:58)
10. Don't Know What You Do (04:12)
11. Lock & Chain (04:36)
12. Howl With The Wolf (03:40)


Exact Audio Copy V1.0 beta 3 from 29. August 2011

Отчёт EAC об извлечении, выполненном 7. декабря 2014, 17:32

Studebaker John & The Hawks / Howl With The Wolf

Дисковод: SONY CD-RW CRX230ED Adapter: 0 ID: 1

Режим чтения : Достоверность
Использование точного потока : Да
Отключение кэша аудио : Да
Использование указателей C2 : Нет

Коррекция смещения при чтении : 6
Способность читать области Lead-in и Lead-out : Нет
Заполнение пропущенных сэмплов тишиной : Да
Удаление блоков с тишиной в начале и конце : Нет
При вычислениях CRC использовались нулевые сэмплы : Да
Интерфейс : Встроенный Win32-интерфейс для Win NT/2000

Выходной формат : Внутренние WAV-операции
Формат сэмплов : 44.100 Гц; 16 бит; стерео


TOC извлечённого CD

Трек | Старт | Длительность | Начальный сектор | Конечный сектор
––––––––––––––––––––––––––––––––––-
1 | 0:00.00 | 5:05.20 | 0 | 22894
2 | 5:05.20 | 4:32.73 | 22895 | 43367
3 | 9:38.18 | 3:54.60 | 43368 | 60977
4 | 13:33.03 | 4:20.05 | 60978 | 80482
5 | 17:53.08 | 5:13.35 | 80483 | 103992
6 | 23:06.43 | 4:54.20 | 103993 | 126062
7 | 28:00.63 | 3:45.00 | 126063 | 142937
8 | 31:45.63 | 3:47.67 | 142938 | 160029
9 | 35:33.55 | 3:58.53 | 160030 | 177932
10 | 39:32.33 | 4:12.50 | 177933 | 196882
11 | 43:45.08 | 4:36.60 | 196883 | 217642
12 | 48:21.68 | 3:40.45 | 217643 | 234187


Характеристики диапазона извлечения и сообщения об ошибках

Выбранный диапазон

Имя файла F:\MusicCD\Torrent\Studebaker John\Studebaker John & The Hawks - Howl With The Wolf\Studebaker John & The Hawks - Howl With The Wolf.wav

Пиковый уровень 96.6 %
Скорость извлечения 7.8 X
Качество диапазона 100.0 %
CRC теста FDEC7286
CRC копии FDEC7286
Копирование… OK

Ошибок не произошло


AccurateRip: сводка

Трек 1 : извлечено точно (доверие 3) [52E4D6DA] (AR v2)
Трек 2 : извлечено точно (доверие 3) [A7C42368] (AR v2)
Трек 3 : извлечено точно (доверие 2) [317E24F6] (AR v2)
Трек 4 : извлечено точно (доверие 3) [95CA2DFB] (AR v2)
Трек 5 : извлечено точно (доверие 3) [2825055A] (AR v2)
Трек 6 : извлечено точно (доверие 3) [EA26647A] (AR v2)
Трек 7 : извлечено точно (доверие 2) [D44B0FC0] (AR v2)
Трек 8 : извлечено точно (доверие 2) [F58EB92B] (AR v2)
Трек 9 : извлечено точно (доверие 2) [621B7FA3] (AR v2)
Трек 10 : извлечено точно (доверие 2) [2743804E] (AR v2)
Трек 11 : извлечено точно (доверие 2) [879E3284] (AR v2)
Трек 12 : извлечено точно (доверие 2) [F4B112E1] (AR v2)

Все треки извлечены точно

Конец отчёта

==== Контрольная сумма отчёта 60B1D8168B68DF6FE13544EEA9F97C14DFDD23DC4680C11246847D251D20DBD4 ====

foobar2000 1.2 / Dynamic Range Meter 1.1.1
log date: 2014-12-08 15:57:43

––––––––––––––––––––––––––––––––––––––––
Analyzed: Studebaker John & The Hawks / Howl With The Wolf
––––––––––––––––––––––––––––––––––––––––

DR Peak RMS Duration Track
––––––––––––––––––––––––––––––––––––––––
DR8 -0.30 dB -9.43 dB 5:05 01-Burned By Love
DR10 -0.30 dB -10.82 dB 4:33 02-End To The Lies
DR9 -0.30 dB -10.61 dB 3:55 03-Juke Joint Jump
DR8 -0.30 dB -9.35 dB 4:20 04-Meant To Be
DR9 -0.30 dB -10.86 dB 5:13 05-Nothing For Nothing
DR9 -0.30 dB -9.99 dB 4:54 06-Rich Man
DR9 -0.30 dB -10.76 dB 3:45 07-Harpology
DR9 -0.30 dB -10.76 dB 3:48 08-Don't You Take It
DR9 -0.30 dB -10.64 dB 3:59 09-Nothing Comes Easy
DR8 -0.30 dB -9.73 dB 4:13 10-Don't Know What You Do
DR10 -0.30 dB -12.04 dB 4:37 11-Lock & Chain
DR9 -0.30 dB -10.61 dB 3:41 12-Howl With The Wolf
––––––––––––––––––––––––––––––––––––––––

Number of tracks: 12
Official DR value: DR9

Samplerate: 44100 Hz
Channels: 2
Bits per sample: 16
Bitrate: 897 kbps
Codec: FLAC
================================================================================

Studebaker John & The Hawks - Albums Collection 1994-2012 (8CD)

Studebaker John & The Hawks - Albums Collection 1994-2012 (8CD)




Studebaker John & The Hawks - Albums Collection 1994-2012 (8CD)

Studebaker John - Between Life & Death (2004)
EAC | FLAC | Image (Cue&Log) ~ 431 Mb | Mp3 (CBR320) ~ 185 Mb | Scans included
Label: Avanti | # 620673230827 | 01:01:09

Between Life & Death shows Studebaker John at the top of his lyrical and musical powers. The album incorporates many styles and influences – blues-rock, improvisational jam and groove, New Orleans R&B, West Coast swing, and, of course, Chicago Blues – and has a stripped down live-in-the studio feel that is true to Studebaker John’s stage performances.

Destiny cannot be denied. Remarkably, the recording session for Between Life & Death came about by accident.

“Shortly after returning from a month long tour of the UK, I was called into a recording session, along with drummer Earl Howell & bassist Felton Crews, by a well-known blues artist who shall remain nameless. We arrived at the session to find that it was canceled because this artist had over-indulged at a local pub and was in no shape to work. We seized the opportunity handed to us to record these songs, which we had been playing daily while on the road. After two years of planning and frustration, the record was completed in one marathon live-in-the-studio session that felt "just right" to everyone involved. I hope you enjoy listening to these songs as much I did writing and recording them.”–Studebaker John

“As a songwriter and musician, Studebaker John has emerged as a major creative force in the world of the blues today. With the release of Between Life & Death, John unveils his fully-realized, progressive variation on the blues. Ahead of the pack, with vision and foresight, creating a new standard and landscape for this music’s future… with John at the wheel, the future is now!”
….Michael Dixon, Blues DJ & writer

For more than 25 years, John has been writing, recording and performing only original compositions, along with continuous touring throughout the US, Canada, UK and Europe in support of his music. His songs have been featured in major motion pictures and prime-time TV commercials. Many articles have been written about John in various publications including Guitar One magazine US, Blues in Britain, and a cover story in Back to the Roots magazine in Belgium. His music can be heard on blues radio shows every day around
the globe.

Tracklist:

01. Between Life & Death (4:41)
02. This Road (4:40)
03. I Deceive Myself (4:48)
04. When I Look Into Your Eyes (6:02)
05. Crazy For Your Love (5:53)
06. Hard Place & The Ground (4:41)
07. If I Had A Nickel (5:44)
08. I Don't Know (5:39)
09. Can't Forget About You (4:41)
10. That's Why I'm Living (5:54)
11. Cold Chills (8:27)


Exact Audio Copy V1.0 beta 3 from 29. August 2011

Отчёт EAC об извлечении, выполненном 7. декабря 2014, 16:00

Studebaker John / Between Life & Death

Дисковод: SONY CD-RW CRX230ED Adapter: 0 ID: 1

Режим чтения : Достоверность
Использование точного потока : Да
Отключение кэша аудио : Да
Использование указателей C2 : Нет

Коррекция смещения при чтении : 6
Способность читать области Lead-in и Lead-out : Нет
Заполнение пропущенных сэмплов тишиной : Да
Удаление блоков с тишиной в начале и конце : Нет
При вычислениях CRC использовались нулевые сэмплы : Да
Интерфейс : Встроенный Win32-интерфейс для Win NT/2000

Выходной формат : Внутренние WAV-операции
Формат сэмплов : 44.100 Гц; 16 бит; стерео


TOC извлечённого CD

Трек | Старт | Длительность | Начальный сектор | Конечный сектор
––––––––––––––––––––––––––––––––––-
1 | 0:00.00 | 4:40.67 | 0 | 21066
2 | 4:40.67 | 4:39.38 | 21067 | 42029
3 | 9:20.30 | 4:48.13 | 42030 | 63642
4 | 14:08.43 | 6:01.71 | 63643 | 90788
5 | 20:10.39 | 5:52.58 | 90789 | 117246
6 | 26:03.22 | 4:40.44 | 117247 | 138290
7 | 30:43.66 | 5:43.65 | 138291 | 164080
8 | 36:27.56 | 5:39.08 | 164081 | 189513
9 | 42:06.64 | 4:40.56 | 189514 | 210569
10 | 46:47.45 | 5:54.17 | 210570 | 237136
11 | 52:41.62 | 8:26.51 | 237137 | 275137


Характеристики диапазона извлечения и сообщения об ошибках

Выбранный диапазон

Имя файла F:\MusicCD\Torrent\Studebaker John\Studebaker John - Between Life & Death\Studebaker John - Between Life & Death.wav

Пиковый уровень 100.0 %
Скорость извлечения 8.6 X
Качество диапазона 100.0 %
CRC теста 5476DEC2
CRC копии 5476DEC2
Копирование… OK

Ошибок не произошло


AccurateRip: сводка

Трек 1 точность не определена (достоверность 2) [40F0C741], AccurateRip вернул [94ACED6C] (AR v2)
Трек 2 точность не определена (достоверность 2) [44019CD2], AccurateRip вернул [7106357A] (AR v2)
Трек 3 точность не определена (достоверность 2) [AD5EF9CB], AccurateRip вернул [8D523696] (AR v2)
Трек 4 точность не определена (достоверность 2) [B85C254F], AccurateRip вернул [2852AED1] (AR v2)
Трек 5 точность не определена (достоверность 2) [67EBD008], AccurateRip вернул [D47D29F4] (AR v2)
Трек 6 точность не определена (достоверность 2) [B4F19892], AccurateRip вернул [0D8D114E] (AR v2)
Трек 7 точность не определена (достоверность 2) [73AD36AF], AccurateRip вернул [6FFF75B0] (AR v2)
Трек 8 точность не определена (достоверность 2) [B73E0719], AccurateRip вернул [091E9AFE] (AR v2)
Трек 9 точность не определена (достоверность 2) [BB867A09], AccurateRip вернул [6ADE9729] (AR v2)
Трек 10 точность не определена (достоверность 2) [1AFA8BAC], AccurateRip вернул [9F191E62] (AR v2)
Трек 11 точность не определена (достоверность 2) [CFCEA0DF], AccurateRip вернул [D5569B06] (AR v2)

Ни один трек не прошёл проверки на точность
В вашей базе может быть иной вариант штамповки диска

Конец отчёта

==== Контрольная сумма отчёта 3758C55710BE026F272387305B451B83CA9C6E0EB3048DE333AE45F8424C7911 ====

[CUETools log; Date: 10.04.2018 8:08:00; Version: 2.1.4]
[CTDB TOCID: Db2FsI9b40gH7ay7pBphSFkEZUI-] found.
Track | CTDB Status
1 | (2/2) Accurately ripped
2 | (2/2) Accurately ripped
3 | (2/2) Accurately ripped
4 | (2/2) Accurately ripped
5 | (2/2) Accurately ripped
6 | (2/2) Accurately ripped
7 | (2/2) Accurately ripped
8 | (2/2) Accurately ripped
9 | (2/2) Accurately ripped
10 | (2/2) Accurately ripped
11 | (2/2) Accurately ripped
[AccurateRip ID: 0017a4c3-00cf403e-960e540b] found.
Track [ CRC | V2 ] Status
01 [d1de4cdd|40f0c741] (0+3/5) Accurately ripped
02 [c1f2a09a|44019cd2] (0+3/5) Accurately ripped
03 [fd7f7056|ad5ef9cb] (0+3/5) Accurately ripped
04 [090dd029|b85c254f] (0+3/5) Accurately ripped
05 [13b38fd4|67ebd008] (0+3/5) Accurately ripped
06 [55ee7fc6|b4f19892] (0+3/5) Accurately ripped
07 [19d722d8|73ad36af] (0+3/5) Accurately ripped
08 [fa79a526|b73e0719] (0+3/5) Accurately ripped
09 [5671c8d1|bb867a09] (0+3/5) Accurately ripped
10 [f280d631|1afa8bac] (0+3/5) Accurately ripped
11 [27eba2da|cfcea0df] (0+3/5) Accurately ripped
Offsetted by 664:
01 [94aced6c] (2/5) Accurately ripped
02 [7106357a] (2/5) Accurately ripped
03 [8d523696] (2/5) Accurately ripped
04 [2852aed1] (2/5) Accurately ripped
05 [d47d29f4] (2/5) Accurately ripped
06 [0d8d114e] (2/5) Accurately ripped
07 [6fff75b0] (2/5) Accurately ripped
08 [091e9afe] (2/5) Accurately ripped
09 [6ade9729] (2/5) Accurately ripped
10 [9f191e62] (2/5) Accurately ripped
11 [d5569b06] (2/5) Accurately ripped
Offsetted by 1340:
01 [6d7834b3] (0/5) No match (V2 was not tested)
02 [890c43ca] (0/5) No match (V2 was not tested)
03 [f93081f6] (0/5) No match (V2 was not tested)
04 [c828380d] (0/5) No match (V2 was not tested)
05 [b79a9a24] (0/5) No match (V2 was not tested)
06 [21ef45da] (0/5) No match (V2 was not tested)
07 [e9a3e2b4] (0/5) No match
08 [d42c5482] (0/5) No match (V2 was not tested)
09 [b5a3b96d] (0/5) No match (V2 was not tested)
10 [3c002874] (0/5) No match (V2 was not tested)
11 [5634ccc9] (0/5) No match (V2 was not tested)

Track Peak [ CRC32 ] [W/O NULL] [ LOG ]
– 100,0 [5476DEC2] [4BD49DDF] CRC32
01 100,0 [42183EA7] [7C978719]
02 89,1 [AED8A6B3] [3850D3D7]
03 100,0 [D62B72D0] [EB451442]
04 89,1 [3E4B069B] [7C6715F5]
05 100,0 [D408A1E7] [A0BD1C05]
06 100,0 [B4FD089D] [B9554544]
07 100,0 [4D265706] [A348E528]
08 89,1 [71F0794C] [C3943DA0]
09 100,0 [64EFE089] [7B75AF88]
10 100,0 [A4BDE3CF] [FF6A4874]
11 89,1 [0DC48BC9] [4AB71017]

foobar2000 1.2 / Dynamic Range Meter 1.1.1
log date: 2018-04-10 08:06:19

––––––––––––––––––––––––––––––––––––––––
Analyzed: Studebaker John / Between Life & Death
––––––––––––––––––––––––––––––––––––––––

DR Peak RMS Duration Track
––––––––––––––––––––––––––––––––––––––––
DR7 0.00 dB -7.75 dB 4:41 01-Between Life & Death
DR6 -1.00 dB -8.55 dB 4:40 02-This Road
DR8 0.00 dB -8.25 dB 4:48 03-I Deceive Myself
DR7 -1.00 dB -9.43 dB 6:02 04-When I Look Into Your Eyes
DR8 0.00 dB -8.97 dB 5:53 05-Crazy For Your Love
DR8 0.00 dB -8.56 dB 4:41 06-Hard Place & The Ground
DR9 0.00 dB -10.67 dB 5:44 07-If I Had A Nickel
DR6 -1.00 dB -8.20 dB 5:39 08-I Don't Know
DR8 0.00 dB -9.23 dB 4:41 09-Can't Forget About You
DR8 0.00 dB -9.09 dB 5:54 10-That's Why I'm Living
DR7 -1.00 dB -9.17 dB 8:27 11-Cold Chills
––––––––––––––––––––––––––––––––––––––––

Number of tracks: 11
Official DR value: DR7

Samplerate: 44100 Hz
Channels: 2
Bits per sample: 16
Bitrate: 916 kbps
Codec: FLAC
================================================================================

Studebaker John & The Hawks - Albums Collection 1994-2012 (8CD)

Studebaker John & The Hawks - Albums Collection 1994-2012 (8CD)




Studebaker John & The Hawks - Albums Collection 1994-2012 (8CD)

Studebaker John & The Hawks - Self-Made Man (2006)
EAC | FLAC | Image (Cue&Log) ~ 495 Mb | Mp3 (CBR320) ~ 181 Mb | Scans ~ 64 Mb
Label: Avanti Records | # 800492176456 | Time: 01:18:43

Self-Made Man contains nearly 80 minutes of all original steamy blues and smokin’ blues-rock, incorporating Chicago, boogie, swamp, swing, and harmonica blues, all recorded with a live-in-the-studio sound that is true to Studebaker John’s stage performances.

For more than 25 years, John has been writing, recording and performing only original compositions, along with continuous touring throughout the US, Canada, UK and Europe in support of his music. His songs have been featured in major motion pictures and prime-time TV commercials. Many articles have been written about John in various publications including Guitar One magazine US, Blues in Britain, and a cover story in Back to the Roots magazine in Belgium. His music can be heard on blues radio shows every day around the globe.

As a songwriter and musician, Studebaker John has emerged as a major creative force in the world of the blues today. If “Alternative Rock” is a meaningful description of progressive variations of this style of music, then John has laid the foundation for “Alternative Blues”. Ahead of the pack, with vision and foresight, creating a new standard and landscape for this music’s future… with John at the wheel, the future is now.

Review by Michael Dixon, Blues DJ & writer

Tracklist:

01. Ride, Ride, Ride (4:25)
02. So Happy Together (4:07)
03. Back In Your Town (5:36)
04. Self-Made Man (5:29)
05. Fast In The Slow Lane (5:13)
06. The Hard Way (7:22)
07. All That I Know (4:24)
08. All Aboard (The Streamliner) (5:39)
09. Hoo Doo You (6:49)
10. Walkin' In The Rain (5:11)
11. Where Are You (5:34)
12. Rockin' Like Crazy (5:14)
13. Hey Little Mama (4:07)
14. Highway King (4:19)
15. Ride With Me Baby (5:13)


Exact Audio Copy V1.0 beta 3 from 29. August 2011

Отчёт EAC об извлечении, выполненном 7. декабря 2014, 16:32

Studebaker John & The Hawks / Self-Made Man

Дисковод: SONY CD-RW CRX230ED Adapter: 0 ID: 1

Режим чтения : Достоверность
Использование точного потока : Да
Отключение кэша аудио : Да
Использование указателей C2 : Нет

Коррекция смещения при чтении : 6
Способность читать области Lead-in и Lead-out : Нет
Заполнение пропущенных сэмплов тишиной : Да
Удаление блоков с тишиной в начале и конце : Нет
При вычислениях CRC использовались нулевые сэмплы : Да
Интерфейс : Встроенный Win32-интерфейс для Win NT/2000

Выходной формат : Внутренние WAV-операции
Формат сэмплов : 44.100 Гц; 16 бит; стерео


TOC извлечённого CD

Трек | Старт | Длительность | Начальный сектор | Конечный сектор
––––––––––––––––––––––––––––––––––-
1 | 0:00.00 | 4:24.50 | 0 | 19849
2 | 4:24.50 | 4:06.69 | 19850 | 38368
3 | 8:31.44 | 5:36.01 | 38369 | 63569
4 | 14:07.45 | 5:29.36 | 63570 | 88280
5 | 19:37.06 | 5:12.70 | 88281 | 111750
6 | 24:50.01 | 7:22.00 | 111751 | 144900
7 | 32:12.01 | 4:24.14 | 144901 | 164714
8 | 36:36.15 | 5:39.10 | 164715 | 190149
9 | 42:15.25 | 6:49.16 | 190150 | 220840
10 | 49:04.41 | 5:11.13 | 220841 | 244178
11 | 54:15.54 | 5:34.28 | 244179 | 269256
12 | 59:50.07 | 5:14.00 | 269257 | 292806
13 | 65:04.07 | 4:06.53 | 292807 | 311309
14 | 69:10.60 | 4:19.17 | 311310 | 330751
15 | 73:30.02 | 5:12.52 | 330752 | 354203


Характеристики диапазона извлечения и сообщения об ошибках

Выбранный диапазон

Имя файла F:\MusicCD\Torrent\Studebaker John\Studebaker John & The Hawks - Self-Made Man\Studebaker John & The Hawks - Self-Made Man.wav

Пиковый уровень 100.0 %
Скорость извлечения 7.1 X
Качество диапазона 99.9 %
CRC теста 462CBB78
CRC копии 462CBB78
Копирование… OK

Ошибок не произошло


AccurateRip: сводка

Трек 1 : извлечено точно (доверие 2) [7D8BFE35] (AR v2)
Трек 2 : извлечено точно (доверие 2) [4DF915E3] (AR v2)
Трек 3 : извлечено точно (доверие 2) [4CD75E17] (AR v2)
Трек 4 : извлечено точно (доверие 2) [D3D608A6] (AR v2)
Трек 5 : извлечено точно (доверие 2) [B5D12945] (AR v2)
Трек 6 : извлечено точно (доверие 2) [F05A119E] (AR v2)
Трек 7 : извлечено точно (доверие 2) [C037BA8C] (AR v2)
Трек 8 : извлечено точно (доверие 2) [53A4423F] (AR v2)
Трек 9 : извлечено точно (доверие 2) [35DDF38B] (AR v2)
Трек 10 : извлечено точно (доверие 2) [4D333C9C] (AR v2)
Трек 11 : извлечено точно (доверие 2) [CD3AD0DE] (AR v2)
Трек 12 : извлечено точно (доверие 2) [1AA0D287] (AR v2)
Трек 13 : извлечено точно (доверие 2) [717B8FAC] (AR v2)
Трек 14 : извлечено точно (доверие 2) [7691686A] (AR v2)
Трек 15 : извлечено точно (доверие 2) [678981FA] (AR v2)

Все треки извлечены точно

Конец отчёта

==== Контрольная сумма отчёта 88B68984BB344AA5ABE5A6C7BBA9FA49CF9217434B2F6CECA276AD84372AC3AD ====

[CUETools log; Date: 20.04.2018 5:25:22; Version: 2.1.4]
[CTDB TOCID: dHypwtiRE4fQP3.EMCtrld.hUeQ-] found.
Track | CTDB Status
1 | (3/3) Accurately ripped
2 | (3/3) Accurately ripped
3 | (3/3) Accurately ripped
4 | (3/3) Accurately ripped
5 | (3/3) Accurately ripped
6 | (3/3) Accurately ripped
7 | (3/3) Accurately ripped
8 | (3/3) Accurately ripped
9 | (3/3) Accurately ripped
10 | (3/3) Accurately ripped
11 | (3/3) Accurately ripped
12 | (3/3) Accurately ripped
13 | (3/3) Accurately ripped
14 | (3/3) Accurately ripped
15 | (3/3) Accurately ripped
[AccurateRip ID: 002b6909-01efa78e-e812720f] found.
Track [ CRC | V2 ] Status
01 [1235b494|7d8bfe35] (3+3/6) Accurately ripped
02 [5f9e3f4d|4df915e3] (3+3/6) Accurately ripped
03 [bcbca41c|4cd75e17] (3+3/6) Accurately ripped
04 [4d16d93c|d3d608a6] (3+3/6) Accurately ripped
05 [b09ca448|b5d12945] (3+3/6) Accurately ripped
06 [0f247d6b|f05a119e] (3+3/6) Accurately ripped
07 [2580fbca|c037ba8c] (3+3/6) Accurately ripped
08 [0bb468d1|53a4423f] (3+3/6) Accurately ripped
09 [905d5d94|35ddf38b] (3+3/6) Accurately ripped
10 [4b4c1555|4d333c9c] (3+3/6) Accurately ripped
11 [d5795d56|cd3ad0de] (3+3/6) Accurately ripped
12 [7dff307c|1aa0d287] (3+3/6) Accurately ripped
13 [b281137b|717b8fac] (3+3/6) Accurately ripped
14 [5951851a|7691686a] (3+3/6) Accurately ripped
15 [2eb08eda|678981fa] (3+3/6) Accurately ripped

Track Peak [ CRC32 ] [W/O NULL] [ LOG ]
– 100,0 [462CBB78] [59BCFA10] CRC32
01 100,0 [BCB1225B] [97F84F1B]
02 100,0 [40DCD552] [B3C760C6]
03 100,0 [B6201129] [5C2839EF]
04 100,0 [46DE452D] [38CFB93D]
05 100,0 [41FF61DF] [97D0E76B]
06 100,0 [C39946E0] [5E68638D]
07 100,0 [64EA44A6] [74472B83]
08 100,0 [48267FF7] [73FE1112]
09 100,0 [A2548B5D] [FC3AA9AD]
10 100,0 [ADED4E72] [BCDE961D]
11 100,0 [4A815C1D] [EA243692]
12 100,0 [9647B1C9] [01D9915F]
13 100,0 [6D63544E] [D1E26512]
14 100,0 [08215665] [F149A224]
15 100,0 [F0694D1D] [EAC8D1AD]

foobar2000 1.2 / Dynamic Range Meter 1.1.1
log date: 2018-04-20 05:12:35

––––––––––––––––––––––––––––––––––––––––
Analyzed: Studebaker John & The Hawks / Self-Made Man
––––––––––––––––––––––––––––––––––––––––

DR Peak RMS Duration Track
––––––––––––––––––––––––––––––––––––––––
DR11 0.00 dB -11.63 dB 4:25 01-Ride, Ride, Ride
DR11 0.00 dB -12.11 dB 4:07 02-So Happy Together
DR11 0.00 dB -12.47 dB 5:36 03-Back In Your Town
DR11 0.00 dB -12.05 dB 5:29 04-Self-Made Man
DR12 0.00 dB -12.23 dB 5:13 05-Fast In The Slow Lane
DR11 0.00 dB -12.52 dB 7:22 06-The Hard Way
DR12 0.00 dB -12.85 dB 4:24 07-All That I Know
DR11 0.00 dB -12.38 dB 5:39 08-All Aboard (The Streamliner)
DR11 0.00 dB -12.48 dB 6:49 09-Hoo Doo You
DR11 0.00 dB -12.36 dB 5:11 10-Walkin' In The Rain
DR12 0.00 dB -13.27 dB 5:34 11-Where Are You
DR11 0.00 dB -11.29 dB 5:14 12-Rockin' Like Crazy
DR10 0.00 dB -11.48 dB 4:07 13-Hey Little Mama
DR12 0.00 dB -12.72 dB 4:19 14-Highway King
DR12 0.00 dB -12.38 dB 5:13 15-Ride With Me Baby
––––––––––––––––––––––––––––––––––––––––

Number of tracks: 15
Official DR value: DR11

Samplerate: 44100 Hz
Channels: 2
Bits per sample: 16
Bitrate: 877 kbps
Codec: FLAC
================================================================================

Studebaker John & The Hawks - Albums Collection 1994-2012 (8CD)

Studebaker John & The Hawks - Albums Collection 1994-2012 (8CD)




Studebaker John & The Hawks - Albums Collection 1994-2012 (8CD)

Studebaker John - Old School Rockin' (2012)
XLD | FLAC | Image (Cue&Log) ~ 491 Mb | Mp3 (CBR320) ~ 170 Mb | Scans ~ 70 Mb
Label: Delmark | # DE 818 | 01:13:54

Following his previous '50s-'60s set of rootsy Chicago blues, Studebaker John Grimaldi applies the same no-frills approach to boogie-happy blues-rocking on this long but satisfying set. As usual, Grimaldi writes all his material, but the style is so well etched in the genre's history that his songs don't deviate musically, or even lyrically, from what has come before. He recorded the basic tracks in one day, which gives this a crackling, almost live-in-the-studio feel that keeps the sound fresh even if the melodies, riffs, and general approach aren't unique. Regardless, tunes such as the swampy "Disease Called Love" and "Deal with the Devil" make the most of the three-piece format with tough guitar overdubs and creative arrangements that don't take the easy way out. Grimaldi sounds consistently devoted to this material. His energy and commitment go a long way to pushing these songs up a few notches from the typical boogie fare of Savoy Brown, Foghat, and others who have made a career out of this style. When he adds his electrified harp to the mix on the slow swamp shuffle "Dark Night" and others, the result brings a dangerous edge to music that could easily get lost in its own good intentions. Rather than pandering to the hard-drinking crowd impervious to subtleties, Grimaldi and his two-piece pull back and make the music breathe with innovative playing far above the bar-band levels this could easily have descended to. At 14 longish tracks clocking in at nearly 74 minutes, a few edits of some of the weaker material would have made for one terrific disc, but even John's second-tier material trumps most groups' best stuff. Add his energized vocals, sizzling slide work, and bone-chilling harmonica and even the less stellar tracks jump out of the speakers with a passion and intensity clearly showing that, even after over a dozen releases since 1994, Grimaldi might just now be hitting his stride.

Review by Hal Horowitz, Allmusic.com

Tracklist:

01. Rockin' That Boogie (5:29)
02. Disease Called Love (4:48)
03. Fire Down Below (6:06)
04. Rockin' Hot (5:44)
05. Fine Little Machine (5:19)
06. Old School Rockin' (6:20)
07. She Got It Right (5:02)
08. Deal With The Devil (6:14)
09. I Stand Alone (4:18)
10. Mesmerized (5:15)
11. Brand New Rider (5:02)
12. Dark Night (5:07)
13. On The Down Low (3:59)
14. Tumblin' Down The Road (5:09)


X Lossless Decoder version 20181019 (151.1)

XLD extraction logfile from 2019-08-11 20:44:47 +0500

Studebaker John / Old School Rockin'

Used drive : ASUS SDRW-08U9M-U (revision B101)
Media type : Pressed CD

Ripper mode : XLD Secure Ripper
Disable audio cache : OK for the drive with a cache less than 1375KiB
Make use of C2 pointers : NO
Read offset correction : 6
Max retry count : 20
Gap status : Analyzed, Appended

TOC of the extracted CD
Track | Start | Length | Start sector | End sector
––––––––––––––––––––––––––––-
1 | 00:00:00 | 05:29:36 | 0 | 24710
2 | 05:29:36 | 04:48:09 | 24711 | 46319
3 | 10:17:45 | 06:05:65 | 46320 | 73759
4 | 16:23:35 | 05:43:71 | 73760 | 99555
5 | 22:07:31 | 05:18:44 | 99556 | 123449
6 | 27:26:00 | 06:20:36 | 123450 | 151985
7 | 33:46:36 | 05:02:02 | 151986 | 174637
8 | 38:48:38 | 06:14:15 | 174638 | 202702
9 | 45:02:53 | 04:18:25 | 202703 | 222077
10 | 49:21:03 | 05:14:65 | 222078 | 245692
11 | 54:35:68 | 05:01:72 | 245693 | 268339
12 | 59:37:65 | 05:07:34 | 268340 | 291398
13 | 64:45:24 | 03:59:36 | 291399 | 309359
14 | 68:44:60 | 05:09:09 | 309360 | 332543

AccurateRip Summary (DiscID: 0027298a-019fecfa-d811510e)
Track 01 : OK (v2, confidence 14/14)
Track 02 : OK (v2, confidence 14/14)
Track 03 : OK (v2, confidence 14/14)
Track 04 : OK (v2, confidence 14/14)
Track 05 : OK (v2, confidence 14/14)
Track 06 : OK (v2, confidence 14/14)
Track 07 : OK (v2, confidence 14/14)
Track 08 : OK (v2, confidence 14/14)
Track 09 : OK (v2, confidence 14/14)
Track 10 : OK (v2, confidence 14/14)
Track 11 : OK (v2, confidence 14/14)
Track 12 : OK (v2, confidence 14/14)
Track 13 : OK (v2, confidence 15/15)
Track 14 : OK (v2, confidence 15/15)
->All tracks accurately ripped.

All Tracks
Filename : /Users/mihail/Music/CDs/Studebaker John - Old School Rockin'.flac
Album gain : -9.54 dB
Peak : 0.999969
CRC32 hash (test run) : E9130C59
CRC32 hash : E9130C59
CRC32 hash (skip zero) : 45C99024
Statistics
Read error : 0
Jitter error (maybe fixed) : 0
Retry sector count : 0
Damaged sector count : 0

Track 01
Pre-gap length : 00:02:00

Track gain : -11.48 dB
Peak : 0.999969
CRC32 hash (test run) : 2AE8D646
CRC32 hash : 2AE8D646
CRC32 hash (skip zero) : 7BEEB708
AccurateRip v1 signature : F2832B3D
AccurateRip v2 signature : E8C28E06
->Accurately ripped (v2, confidence 14/14)
Statistics
Read error : 0
Jitter error (maybe fixed) : 0
Retry sector count : 0
Damaged sector count : 0

Track 02

Track gain : -8.39 dB
Peak : 0.999969
CRC32 hash (test run) : 784CF0F9
CRC32 hash : 784CF0F9
CRC32 hash (skip zero) : 6031BE18
AccurateRip v1 signature : FDC4A2A2
AccurateRip v2 signature : F93FEE92
->Accurately ripped (v2, confidence 14/14)
Statistics
Read error : 0
Jitter error (maybe fixed) : 0
Retry sector count : 0
Damaged sector count : 0

Track 03

Track gain : -10.09 dB
Peak : 0.999969
CRC32 hash (test run) : 4625ED9E
CRC32 hash : 4625ED9E
CRC32 hash (skip zero) : 28E2F842
AccurateRip v1 signature : 572DAD6E
AccurateRip v2 signature : AC7F443F
->Accurately ripped (v2, confidence 14/14)
Statistics
Read error : 0
Jitter error (maybe fixed) : 0
Retry sector count : 0
Damaged sector count : 0

Track 04

Track gain : -10.00 dB
Peak : 0.999969
CRC32 hash (test run) : B3A63419
CRC32 hash : B3A63419
CRC32 hash (skip zero) : 3FBEE421
AccurateRip v1 signature : 377A0CDB
AccurateRip v2 signature : FB9590B1
->Accurately ripped (v2, confidence 14/14)
Statistics
Read error : 0
Jitter error (maybe fixed) : 0
Retry sector count : 0
Damaged sector count : 0

Track 05

Track gain : -10.31 dB
Peak : 0.999969
CRC32 hash (test run) : CE7918F9
CRC32 hash : CE7918F9
CRC32 hash (skip zero) : A0AC79EC
AccurateRip v1 signature : A323DCEA
AccurateRip v2 signature : 97FB0CE9
->Accurately ripped (v2, confidence 14/14)
Statistics
Read error : 0
Jitter error (maybe fixed) : 0
Retry sector count : 0
Damaged sector count : 0

Track 06

Track gain : -8.27 dB
Peak : 0.999969
CRC32 hash (test run) : B14BF5E2
CRC32 hash : B14BF5E2
CRC32 hash (skip zero) : 3BCC4637
AccurateRip v1 signature : 2E9E45F1
AccurateRip v2 signature : 5E0FD180
->Accurately ripped (v2, confidence 14/14)
Statistics
Read error : 0
Jitter error (maybe fixed) : 0
Retry sector count : 0
Damaged sector count : 0

Track 07

Track gain : -10.10 dB
Peak : 0.999969
CRC32 hash (test run) : 1E5B1CCA
CRC32 hash : 1E5B1CCA
CRC32 hash (skip zero) : 38A7A8F7
AccurateRip v1 signature : AD128648
AccurateRip v2 signature : 69F78C0C
->Accurately ripped (v2, confidence 14/14)
Statistics
Read error : 0
Jitter error (maybe fixed) : 0
Retry sector count : 0
Damaged sector count : 0

Track 08

Track gain : -8.08 dB
Peak : 0.999969
CRC32 hash (test run) : 42D40DD1
CRC32 hash : 42D40DD1
CRC32 hash (skip zero) : 6242B89F
AccurateRip v1 signature : 201E8433
AccurateRip v2 signature : 93D99645
->Accurately ripped (v2, confidence 14/14)
Statistics
Read error : 0
Jitter error (maybe fixed) : 0
Retry sector count : 0
Damaged sector count : 0

Track 09

Track gain : -9.86 dB
Peak : 0.999969
CRC32 hash (test run) : D1839C8C
CRC32 hash : D1839C8C
CRC32 hash (skip zero) : 33578D7A
AccurateRip v1 signature : 09F1F6F7
AccurateRip v2 signature : E60E8493
->Accurately ripped (v2, confidence 14/14)
Statistics
Read error : 0
Jitter error (maybe fixed) : 0
Retry sector count : 0
Damaged sector count : 0

Track 10

Track gain : -8.98 dB
Peak : 0.999969
CRC32 hash (test run) : 9C668073
CRC32 hash : 9C668073
CRC32 hash (skip zero) : 912AFFA3
AccurateRip v1 signature : 6738EC06
AccurateRip v2 signature : D44308E5
->Accurately ripped (v2, confidence 14/14)
Statistics
Read error : 0
Jitter error (maybe fixed) : 0
Retry sector count : 0
Damaged sector count : 0

Track 11

Track gain : -9.95 dB
Peak : 0.999969
CRC32 hash (test run) : AC76AF5A
CRC32 hash : AC76AF5A
CRC32 hash (skip zero) : E30635AE
AccurateRip v1 signature : CFA1A60B
AccurateRip v2 signature : B3D559FC
->Accurately ripped (v2, confidence 14/14)
Statistics
Read error : 0
Jitter error (maybe fixed) : 0
Retry sector count : 0
Damaged sector count : 0

Track 12

Track gain : -9.33 dB
Peak : 0.999969
CRC32 hash (test run) : 531BF346
CRC32 hash : 531BF346
CRC32 hash (skip zero) : F4F04B79
AccurateRip v1 signature : A85C5AA5
AccurateRip v2 signature : B11DB9B0
->Accurately ripped (v2, confidence 14/14)
Statistics
Read error : 0
Jitter error (maybe fixed) : 0
Retry sector count : 0
Damaged sector count : 0

Track 13

Track gain : -10.18 dB
Peak : 0.999969
CRC32 hash (test run) : EFBB43B0
CRC32 hash : EFBB43B0
CRC32 hash (skip zero) : B7EFE586
AccurateRip v1 signature : D593B0F3
AccurateRip v2 signature : D33E4927
->Accurately ripped (v2, confidence 15/15)
Statistics
Read error : 0
Jitter error (maybe fixed) : 0
Retry sector count : 0
Damaged sector count : 0

Track 14

Track gain : -6.65 dB
Peak : 0.999969
CRC32 hash (test run) : DABDBCA6
CRC32 hash : DABDBCA6
CRC32 hash (skip zero) : 5C3D82B0
AccurateRip v1 signature : 22F8DC09
AccurateRip v2 signature : 50BF19F8
->Accurately ripped (v2, confidence 15/15)
Statistics
Read error : 0
Jitter error (maybe fixed) : 0
Retry sector count : 0
Damaged sector count : 0

No errors occurred

End of status report

––-BEGIN XLD SIGNATURE––-
NVhvIfej5qszcT_Mq4jds_B33AaO9OaawWWT6cOa9HEFuxrbXHQViPi1WqDza0aNuXpcSxHhJ6IZvX2.BAn5IZ6yFEVY5IKDY1fGHce
––-END XLD SIGNATURE––-

foobar2000 1.2 / Dynamic Range Meter 1.1.1
log date: 2019-08-13 19:58:41

––––––––––––––––––––––––––––––––––––––––
Analyzed: Studebaker John / Old School Rockin'
––––––––––––––––––––––––––––––––––––––––

DR Peak RMS Duration Track
––––––––––––––––––––––––––––––––––––––––
DR6 0.00 dB -6.54 dB 5:29 01-Rockin' That Boogie
DR7 0.00 dB -8.78 dB 4:48 02-Disease Called Love
DR7 0.00 dB -7.75 dB 6:06 03-Fire Down Below
DR6 0.00 dB -7.39 dB 5:44 04-Rockin' Hot
DR7 0.00 dB -7.84 dB 5:19 05-Fine Little Machine
DR8 0.00 dB -8.68 dB 6:20 06-Old School Rockin'
DR7 0.00 dB -7.85 dB 5:02 07-She Got It Right
DR9 0.00 dB -10.00 dB 6:14 08-Deal With The Devil
DR7 0.00 dB -7.78 dB 4:18 09-I Stand Alone
DR7 0.00 dB -8.55 dB 5:15 10-Mesmerized
DR6 0.00 dB -7.66 dB 5:02 11-Brand New Rider
DR7 0.00 dB -8.28 dB 5:07 12-Dark Night
DR7 0.00 dB -7.58 dB 3:59 13-On The Down Low
DR10 0.00 dB -11.10 dB 5:09 14-Tumblin' Down The Road
––––––––––––––––––––––––––––––––––––––––

Number of tracks: 14
Official DR value: DR7

Samplerate: 44100 Hz
Channels: 2
Bits per sample: 16
Bitrate: 927 kbps
Codec: FLAC
================================================================================


Studebaker John & The Hawks - Albums Collection 1994-2012 (8CD)

Studebaker John & The Hawks - Albums Collection 1994-2012 (8CD)





All thanks to original releaser - squirr

More interesting music in My Blog