Tags
Language
Tags

Sviatoslav Richter in Concert: Beethoven, Schubert, Liszt (2004) 5CD Box Set [Historic Russian Archives] Re-Up

Posted By: Designol
Sviatoslav Richter in Concert: Beethoven, Schubert, Liszt (2004) 5CD Box Set [Historic Russian Archives] Re-Up

Sviatoslav Richter in Concert: Beethoven, Schubert, Liszt (2004) 5CD Box Set
EAC | FLAC | Tracks (Cue&Log) ~ 1.24 Gb | Mp3 (CBR320) ~ 837 Mb | Scans ~ 31 mb
Genre: Classical | Label: Brilliant Classics | # 92229 | Time: 06:05:12

For fans of Sviatoslav Richter, it does not much matter if the sound is not all that great and it does not much matter if the repertoire is the same repertoire as always. It does not even matter much if the performances are not the greatest Richter ever recorded. For fans of Sviatoslav Richter, the only thing that matters is that there are new Richter recordings because that all by itself means that they will be some of the greatest performances of the greatest repertoire ever recorded. And this five-disc set of Sonatas by Beethoven, Schubert, and Liszt does not disappoint. With recordings dates from 1961 through 1975 and recording venues all in the USSR and its empire, the sound is hard and harsh. But with repertoire ranging from the last three Beethoven Sonatas through Schubert's last Sonata to Liszt's only Sonata, the music has the supreme masterpieces of the Romantic repertoire. And while there are Richter performances here and there that may arguably exceed these, Richter's performances here are as virtuosic, as expressive, as profound, and as transcendent as any he ever recorded. Which makes them some of the greatest performances of the greatest repertoire ever recorded.

Review by James Leonard, Allmusic.com

Sviatoslav Richter in Concert: Beethoven, Schubert, Liszt (2004) 5CD Box Set [Historic Russian Archives] Re-Up

Sviatoslav Richter in Concert: Beethoven, Schubert, Liszt (2004) 5CD Box Set [Historic Russian Archives] Re-Up



Tracklist:

CD1:

Ludwig van Beethoven (1770-1827)

Piano Sonata No. 27 in E minor Op. 90
01. 1. Mit Lebhaftigkeit und durchaus mit Empfindung und Ausdruck (05:45)
02. 2. Nicht zu geschwind und sehr singbar vorzutragen (06:43)

Piano Sonata No. 30 in E major Op. 109
03. 1. Vivace ma non troppo-Adagio espressivo-tempo I (03:22)
04. 2. Prestissimo (02:24)
05. 3. Andante molto cantabile ed espressivo (12:34)

Piano Sonata No. 31 in A flat Major Op. 110
06. 1. Moderato cantabile molto espressivo (06:16)
07. 2. Allegro molto (02:40)
08. 3. Adagio ma non troppo-Arioso dolente (03:50)
09. 4. Fuga, Allegro ma non troppo-L'istesso tempo di arioso (07:37)

Piano Sonata No. 32 in C minor Op. 111
10. 1. Maestoso-Allegro con brio ed appassionato (08:11)
11. 2. Arietta, Adagio molto semplice e cantabile (14:50)

CD2:

Sonata No. 4 in E flat major, Op. 7
01. 1. Allegro molto e con brio (08:22)
02. 2. Largo, con gran espressione (07:48)
03. 3. Allegro (05:26)
04. 4. Rondo, Poco allegretto e grazioso (05:47)

Sonata No. 17 in D minor, Op. 31 No. 2 'Sturm'
05. 1. Largo-Allegro (09:23)
06. 2. Adagio (07:26)
07. 3. Allegretto (06:52)

Sonata No. 18 in E flat major, Op. 31 No.3
08. 1. Allegro (09:11)
09. 2. Scherzo, Allegretto vivace (04:36)
10. 3. Menuetto, Moderato e grazioso (04:34)
11. 4. Presto con fuoco (03:59)

CD3:

Piano Sonata No.3 in C major, Op. 2 No.3
01. 1. Allegro con brio (10:28)
02. 2. Adagio (07:53)
03. 3. Scherzo, Allegro (03:29)
04. 4. Allegro assai (05:00)

Piano Sonata No. 28 in A major, Op. 101
05. 1. Etwas lebhaft und mit den innigsten Empfindung (Allegretto ma non troppo) (04:20)
06. 2. Lebaft, Marschmaessig (Vivace alla marcia) (05:32)
07. 3. Langsam und sehnsuchtvoll (Adagio, ma non troppo, con affetto) (02:32)
08. 4. Geschwind, doch nicht zu sehr, und mit Entschlossenheit (Allegro) (06:41)


Franz Liszt (1811-1886)

09. Piano Sonata in B minor, S.178 (29:51)

CD4:

Franz Schubert (1797-1828)

Piano Sonata in B flat major, No. 21 D 960
01. 1. Molto moderato (24:15)
02. 2. Andante sostenuto (09:15)
03. 3. Scherzo, Allegro vivace con delicatezza (03:24)
04. 4. Allegro ma non troppo (06:53)

Piano Sonata in B major, No.9 D 575 (Op. 147)
05. 1. Allegro ma non troppo (07:52)
06. 2. Andante (06:02)
07. 3. Scherzo, Allegretto (06:38)
08. 4. Allegro giusto (04:06)

CD5:

Piano Sonata in E minor, No.6 D 566
01. 1. Moderato (07:09)
02. 2. Scherzo, Allegro vivace (05:40)
03. 3. Allegretto (07:12)

Piano Sonata in G major, No.18 D 894
04. 1. Molto moderato e cantabile (26:18)
05. 2. Andante (07:41)
06. 3. Menuetto (Allegro moderato) (04:18)
07. 4. Allegretto (07:25)
08. 5. Allegretto in C minor, D 915 (07:14)


Tracks 1-01, 1-02 rec. 10/1/1965
Tracks 1-03 to 1-05 rec. 22/1/1972
Tracks 1-06 to 1-09, 2-05 to 2-11, 3-05 to 3-08 rec. 10/10/1965
Tracks 1-10 to 2-04, 3-01 to 3-04 rec. 12/1/1975
Tracks 3-09, 4-05 to 4-08 rec. 12/10/1965
Tracks 4-01 to 4-04 rec. 31/11/1961
Tracks 5-01 to 5-08 rec. 3/5/1978

Exact Audio Copy V0.99 prebeta 5 from 4. May 2009

EAC extraction logfile from 4. July 2011, 19:21

Sviatoslav Richter / Beethoven - Piano Sonatas

Used drive : _NEC DVD_RW ND-3570A Adapter: 3 ID: 1

Read mode : Secure
Utilize accurate stream : Yes
Defeat audio cache : Yes
Make use of C2 pointers : No

Read offset correction : 48
Overread into Lead-In and Lead-Out : No
Fill up missing offset samples with silence : Yes
Delete leading and trailing silent blocks : No
Null samples used in CRC calculations : Yes
Used interface : Installed external ASPI interface
Gap handling : Appended to previous track

Used output format : User Defined Encoder
Selected bitrate : 128 kBit/s
Quality : High
Add ID3 tag : No
Command line compressor : C:\Program Files\Exact Audio Copy\Flac\flac.exe
Additional command line options : -8 -V -T "ARTIST=%a" -T "TITLE=%t" -T "ALBUM=%g" -T "DATE=%y" -T "TRACKNUMBER=%n" -T "GENRE=%m" -T "COMMENT=EAC FLAC -8" %s


TOC of the extracted CD

Track | Start | Length | Start sector | End sector
––––––––––––––––––––––––––––-
1 | 0:00.00 | 5:45.57 | 0 | 25931
2 | 5:45.57 | 6:43.66 | 25932 | 56222
3 | 12:29.48 | 3:22.11 | 56223 | 71383
4 | 15:51.59 | 2:24.50 | 71384 | 82233
5 | 18:16.34 | 12:34.47 | 82234 | 138830
6 | 30:51.06 | 6:16.35 | 138831 | 167065
7 | 37:07.41 | 2:40.31 | 167066 | 179096
8 | 39:47.72 | 3:50.38 | 179097 | 196384
9 | 43:38.35 | 7:37.53 | 196385 | 230712
10 | 51:16.13 | 8:11.07 | 230713 | 267544
11 | 59:27.20 | 14:50.29 | 267545 | 334323


Track 1

Filename F:\Exact Audio Copy\Sviatoslav Richter in Concert - Beethoven, Schubert, Liszt\01 - 1. Piano Sonata in E minor Op. 90 - 1. Mit Lebhaftigkeit und durchaus mit Empfindung und Ausdruck.wav

Pre-gap length 0:00:02.00

Peak level 80.2 %
Track quality 100.0 %
Test CRC 0C89882E
Copy CRC 0C89882E
Accurately ripped (confidence 20) [584CC140]
Copy OK

Track 2

Filename F:\Exact Audio Copy\Sviatoslav Richter in Concert - Beethoven, Schubert, Liszt\02 - 2. Piano Sonata in E minor Op. 90 - 2. Nicht zu geschwind und sehr singbar vorzutragen.wav

Peak level 56.0 %
Track quality 100.0 %
Test CRC 6F0605CC
Copy CRC 6F0605CC
Accurately ripped (confidence 20) [1D6B6FF1]
Copy OK

Track 3

Filename F:\Exact Audio Copy\Sviatoslav Richter in Concert - Beethoven, Schubert, Liszt\03 - 3. Piano Sonata in E major Op. 109 - 1. Vivace ma non troppo-Adagio espressivo-tempo I.wav

Pre-gap length 0:00:03.25

Peak level 92.3 %
Track quality 100.0 %
Test CRC F3B43D33
Copy CRC F3B43D33
Accurately ripped (confidence 20) [4894416C]
Copy OK

Track 4

Filename F:\Exact Audio Copy\Sviatoslav Richter in Concert - Beethoven, Schubert, Liszt\04 - 4. Piano Sonata in E major Op. 109 - 2. Prestissimo.wav

Peak level 82.8 %
Track quality 100.0 %
Test CRC 5B9D21E1
Copy CRC 5B9D21E1
Accurately ripped (confidence 20) [96077C0B]
Copy OK

Track 5

Filename F:\Exact Audio Copy\Sviatoslav Richter in Concert - Beethoven, Schubert, Liszt\05 - 5. Piano Sonata in E major Op. 109 - 3. Andante molto cantabile ed espressivo.wav

Peak level 77.3 %
Track quality 100.0 %
Test CRC D017C524
Copy CRC D017C524
Accurately ripped (confidence 20) [B40F1A52]
Copy OK

Track 6

Filename F:\Exact Audio Copy\Sviatoslav Richter in Concert - Beethoven, Schubert, Liszt\06 - 6. Piano Sonata in A flat Major Op. 110 - 1. Moderato cantabile molto espressivo.wav

Pre-gap length 0:00:02.68

Peak level 81.2 %
Track quality 100.0 %
Test CRC 1452E30D
Copy CRC 1452E30D
Accurately ripped (confidence 20) [CFD393F5]
Copy OK

Track 7

Filename F:\Exact Audio Copy\Sviatoslav Richter in Concert - Beethoven, Schubert, Liszt\07 - 7. Piano Sonata in A flat Major Op. 110 - 2. Allegro molto.wav

Peak level 85.2 %
Track quality 100.0 %
Test CRC 826120C4
Copy CRC 826120C4
Accurately ripped (confidence 20) [8242ED79]
Copy OK

Track 8

Filename F:\Exact Audio Copy\Sviatoslav Richter in Concert - Beethoven, Schubert, Liszt\08 - 8. Piano Sonata in A flat Major Op. 110 - 3. Adagio ma non troppo-Arioso dolente.wav

Peak level 27.4 %
Track quality 100.0 %
Test CRC 018511CF
Copy CRC 018511CF
Accurately ripped (confidence 20) [264F0A1B]
Copy OK

Track 9

Filename F:\Exact Audio Copy\Sviatoslav Richter in Concert - Beethoven, Schubert, Liszt\09 - 9. Piano Sonata in A flat Major Op. 110 - 4. Fuga, Allegro ma non troppo-L'istesso tempo di arioso.wav

Peak level 84.0 %
Track quality 100.0 %
Test CRC E0CD7DCE
Copy CRC E0CD7DCE
Accurately ripped (confidence 20) [E0A310F2]
Copy OK

Track 10

Filename F:\Exact Audio Copy\Sviatoslav Richter in Concert - Beethoven, Schubert, Liszt\10 - 10. Piano Sonata in C minor Op. 111 - 1. Maestoso-Allegro con brio ed appassionato.wav

Pre-gap length 0:00:04.20

Peak level 75.5 %
Track quality 99.9 %
Test CRC 1B7C2660
Copy CRC 1B7C2660
Accurately ripped (confidence 21) [5717C06C]
Copy OK

Track 11

Filename F:\Exact Audio Copy\Sviatoslav Richter in Concert - Beethoven, Schubert, Liszt\11 - 11. Piano Sonata in C minor Op. 111 - 2. Arietta, Adagio molto semplice e cantabile.wav

Peak level 65.7 %
Track quality 100.0 %
Test CRC 383A2E78
Copy CRC 383A2E78
Accurately ripped (confidence 19) [EB96514B]
Copy OK


All tracks accurately ripped

No errors occurred

End of status report

foobar2000 1.3.8 / Dynamic Range Meter 1.1.1
log date: 2015-06-10 16:47:04

––––––––––––––––––––––––––––––––––––––––
Analyzed: Sviatoslav Richter / Beethoven - Piano Sonatas
––––––––––––––––––––––––––––––––––––––––

DR Peak RMS Duration Track
––––––––––––––––––––––––––––––––––––––––
DR15 -1.91 dB -25.09 dB 5:46 01-1. Piano Sonata in E minor Op. 90 - 1. Mit Lebhaftigkeit und durchaus mit Empfindung und Ausdruck
DR15 -5.03 dB -24.55 dB 6:44 02-2. Piano Sonata in E minor Op. 90 - 2. Nicht zu geschwind und sehr singbar vorzutragen
DR12 -0.69 dB -20.73 dB 3:22 03-3. Piano Sonata in E major Op. 109 - 1. Vivace ma non troppo-Adagio espressivo-tempo I
DR12 -1.63 dB -18.87 dB 2:25 04-4. Piano Sonata in E major Op. 109 - 2. Prestissimo
DR11 -2.23 dB -22.11 dB 12:35 05-5. Piano Sonata in E major Op. 109 - 3. Andante molto cantabile ed espressivo
DR13 -1.80 dB -22.67 dB 6:16 06-6. Piano Sonata in A flat Major Op. 110 - 1. Moderato cantabile molto espressivo
DR14 -1.39 dB -20.37 dB 2:40 07-7. Piano Sonata in A flat Major Op. 110 - 2. Allegro molto
DR13 -11.23 dB -29.06 dB 3:51 08-8. Piano Sonata in A flat Major Op. 110 - 3. Adagio ma non troppo-Arioso dolente
DR12 -1.51 dB -20.21 dB 7:38 09-9. Piano Sonata in A flat Major Op. 110 - 4. Fuga, Allegro ma non troppo-L'istesso tempo di arioso
DR12 -2.44 dB -20.24 dB 8:11 10-10. Piano Sonata in C minor Op. 111 - 1. Maestoso-Allegro con brio ed appassionato
DR14 -3.65 dB -23.67 dB 14:50 11-11. Piano Sonata in C minor Op. 111 - 2. Arietta, Adagio molto semplice e cantabile
––––––––––––––––––––––––––––––––––––––––

Number of tracks: 11
Official DR value: DR13

Samplerate: 44100 Hz
Channels: 2
Bits per sample: 16
Bitrate: 537 kbps
Codec: FLAC
================================================================================


Exact Audio Copy V0.99 prebeta 5 from 4. May 2009

EAC extraction logfile from 4. July 2011, 19:45

Sviatoslav Richter / Beethoven - Sonatas

Used drive : _NEC DVD_RW ND-3570A Adapter: 3 ID: 1

Read mode : Secure
Utilize accurate stream : Yes
Defeat audio cache : Yes
Make use of C2 pointers : No

Read offset correction : 48
Overread into Lead-In and Lead-Out : No
Fill up missing offset samples with silence : Yes
Delete leading and trailing silent blocks : No
Null samples used in CRC calculations : Yes
Used interface : Installed external ASPI interface
Gap handling : Appended to previous track

Used output format : User Defined Encoder
Selected bitrate : 128 kBit/s
Quality : High
Add ID3 tag : No
Command line compressor : C:\Program Files\Exact Audio Copy\Flac\flac.exe
Additional command line options : -8 -V -T "ARTIST=%a" -T "TITLE=%t" -T "ALBUM=%g" -T "DATE=%y" -T "TRACKNUMBER=%n" -T "GENRE=%m" -T "COMMENT=EAC FLAC -8" %s


TOC of the extracted CD

Track | Start | Length | Start sector | End sector
––––––––––––––––––––––––––––-
1 | 0:00.00 | 8:22.57 | 0 | 37706
2 | 8:22.57 | 7:48.67 | 37707 | 72873
3 | 16:11.49 | 5:26.65 | 72874 | 97388
4 | 21:38.39 | 5:47.41 | 97389 | 123454
5 | 27:26.05 | 9:23.02 | 123455 | 165681
6 | 36:49.07 | 7:26.61 | 165682 | 199192
7 | 44:15.68 | 6:52.17 | 199193 | 230109
8 | 51:08.10 | 9:11.59 | 230110 | 271493
9 | 60:19.69 | 4:36.67 | 271494 | 292260
10 | 64:56.61 | 4:34.35 | 292261 | 312845
11 | 69:31.21 | 3:59.33 | 312846 | 330803


Track 1

Filename F:\Exact Audio Copy\Sviatoslav Richter in Concert - Beethoven, Schubert, Liszt\CD2\01 - 1. Sonata No. 4 in E flat major, Op. 7 - 1. Allegro molto e con brio.wav

Pre-gap length 0:00:02.00

Peak level 73.0 %
Track quality 100.0 %
Test CRC 09B46F23
Copy CRC 09B46F23
Accurately ripped (confidence 19) [A18F0CF0]
Copy OK

Track 2

Filename F:\Exact Audio Copy\Sviatoslav Richter in Concert - Beethoven, Schubert, Liszt\CD2\02 - 2. Sonata No. 4 in E flat major, Op. 7 - 2. Largo, con gran espressione.wav

Peak level 74.6 %
Track quality 100.0 %
Test CRC 1C3ED8E2
Copy CRC 1C3ED8E2
Accurately ripped (confidence 19) [AA497813]
Copy OK

Track 3

Filename F:\Exact Audio Copy\Sviatoslav Richter in Concert - Beethoven, Schubert, Liszt\CD2\03 - 3. Sonata No. 4 in E flat major, Op. 7 - 3. Allegro.wav

Peak level 64.1 %
Track quality 100.0 %
Test CRC 610FAE28
Copy CRC 610FAE28
Accurately ripped (confidence 19) [CCE8248C]
Copy OK

Track 4

Filename F:\Exact Audio Copy\Sviatoslav Richter in Concert - Beethoven, Schubert, Liszt\CD2\04 - 4. Sonata No. 4 in E flat major, Op. 7 - 4. Rondo, Poco allegretto e grazioso.wav

Peak level 74.4 %
Track quality 100.0 %
Test CRC DE792802
Copy CRC DE792802
Accurately ripped (confidence 19) [979F39CE]
Copy OK

Track 5

Filename F:\Exact Audio Copy\Sviatoslav Richter in Concert - Beethoven, Schubert, Liszt\CD2\05 - 5. Sonata No. 17 in D minor, Op. 31 No. 2 'Sturm' - 1. Largo-Allegro.wav

Peak level 77.2 %
Track quality 100.0 %
Test CRC B4C1393D
Copy CRC B4C1393D
Accurately ripped (confidence 19) [AC0844AE]
Copy OK

Track 6

Filename F:\Exact Audio Copy\Sviatoslav Richter in Concert - Beethoven, Schubert, Liszt\CD2\06 - 6. Sonata No. 17 in D minor, Op. 31 No. 2 'Sturm' - 2. Adagio.wav

Peak level 56.9 %
Track quality 100.0 %
Test CRC 0C1F51D5
Copy CRC 0C1F51D5
Accurately ripped (confidence 19) [5494EAD4]
Copy OK

Track 7

Filename F:\Exact Audio Copy\Sviatoslav Richter in Concert - Beethoven, Schubert, Liszt\CD2\07 - 7. Sonata No. 17 in D minor, Op. 31 No. 2 'Sturm' - 3. Allegretto.wav

Peak level 71.5 %
Track quality 100.0 %
Test CRC C8A05245
Copy CRC C8A05245
Accurately ripped (confidence 19) [372BB0B5]
Copy OK

Track 8

Filename F:\Exact Audio Copy\Sviatoslav Richter in Concert - Beethoven, Schubert, Liszt\CD2\08 - 8. Sonata No. 18 in E flat major, Op. 31 No. 3 - 1. Allegro.wav

Peak level 75.9 %
Track quality 100.0 %
Test CRC 45D87C3E
Copy CRC 45D87C3E
Accurately ripped (confidence 19) [AC6C536F]
Copy OK

Track 9

Filename F:\Exact Audio Copy\Sviatoslav Richter in Concert - Beethoven, Schubert, Liszt\CD2\09 - 9. Sonata No. 18 in E flat major, Op. 31 No. 3 - 2. Scherzo, Allegretto vivace.wav

Peak level 99.9 %
Track quality 100.0 %
Test CRC EB35488A
Copy CRC EB35488A
Accurately ripped (confidence 19) [C5897FB0]
Copy OK

Track 10

Filename F:\Exact Audio Copy\Sviatoslav Richter in Concert - Beethoven, Schubert, Liszt\CD2\10 - 10. Sonata No. 18 in E flat major, Op. 31 No. 3 - 3. Menuetto, Moderato e grazioso.wav

Peak level 62.0 %
Track quality 100.0 %
Test CRC 386A00C8
Copy CRC 386A00C8
Accurately ripped (confidence 19) [B1CDD9D3]
Copy OK

Track 11

Filename F:\Exact Audio Copy\Sviatoslav Richter in Concert - Beethoven, Schubert, Liszt\CD2\11 - 11. Sonata No. 18 in E flat major, Op. 31 No. 3 - 4. Presto con fuoco.wav

Peak level 68.2 %
Track quality 99.9 %
Test CRC 2C5F42CA
Copy CRC 2C5F42CA
Accurately ripped (confidence 18) [D13A2096]
Copy OK


All tracks accurately ripped

No errors occurred

End of status report

foobar2000 1.3.8 / Dynamic Range Meter 1.1.1
log date: 2015-06-10 16:48:30

––––––––––––––––––––––––––––––––––––––––
Analyzed: Sviatoslav Richter / Beethoven - Sonatas
––––––––––––––––––––––––––––––––––––––––

DR Peak RMS Duration Track
––––––––––––––––––––––––––––––––––––––––
DR14 -2.73 dB -21.56 dB 8:23 01-1. Sonata No. 4 in E flat major, Op. 7 - 1. Allegro molto e con brio
DR17 -2.54 dB -26.30 dB 7:49 02-2. Sonata No. 4 in E flat major, Op. 7 - 2. Largo, con gran espressione
DR13 -3.86 dB -23.06 dB 5:27 03-3. Sonata No. 4 in E flat major, Op. 7 - 3. Allegro
DR14 -2.56 dB -21.82 dB 5:48 04-4. Sonata No. 4 in E flat major, Op. 7 - 4. Rondo, Poco allegretto e grazioso
DR14 -2.24 dB -22.55 dB 9:23 05-5. Sonata No. 17 in D minor, Op. 31 No. 2 'Sturm' - 1. Largo-Allegro
DR14 -4.89 dB -26.64 dB 7:27 06-6. Sonata No. 17 in D minor, Op. 31 No. 2 'Sturm' - 2. Adagio
DR12 -2.91 dB -19.27 dB 6:52 07-7. Sonata No. 17 in D minor, Op. 31 No. 2 'Sturm' - 3. Allegretto
DR15 -2.39 dB -22.70 dB 9:12 08-8. Sonata No. 18 in E flat major, Op. 31 No. 3 - 1. Allegro
DR20 -0.01 dB -24.51 dB 4:37 09-9. Sonata No. 18 in E flat major, Op. 31 No. 3 - 2. Scherzo, Allegretto vivace
DR17 -4.15 dB -27.59 dB 4:34 10-10. Sonata No. 18 in E flat major, Op. 31 No. 3 - 3. Menuetto, Moderato e grazioso
DR12 -3.32 dB -19.89 dB 3:59 11-11. Sonata No. 18 in E flat major, Op. 31 No. 3 - 4. Presto con fuoco
––––––––––––––––––––––––––––––––––––––––

Number of tracks: 11
Official DR value: DR15

Samplerate: 44100 Hz
Channels: 2
Bits per sample: 16
Bitrate: 482 kbps
Codec: FLAC
================================================================================


Exact Audio Copy V0.99 prebeta 5 from 4. May 2009

EAC extraction logfile from 4. July 2011, 20:17

Sviatoslav Richter / Beethoven & Liszt - Piano Sonatas

Used drive : _NEC DVD_RW ND-3570A Adapter: 3 ID: 1

Read mode : Secure
Utilize accurate stream : Yes
Defeat audio cache : Yes
Make use of C2 pointers : No

Read offset correction : 48
Overread into Lead-In and Lead-Out : No
Fill up missing offset samples with silence : Yes
Delete leading and trailing silent blocks : No
Null samples used in CRC calculations : Yes
Used interface : Installed external ASPI interface
Gap handling : Appended to previous track

Used output format : User Defined Encoder
Selected bitrate : 128 kBit/s
Quality : High
Add ID3 tag : No
Command line compressor : C:\Program Files\Exact Audio Copy\Flac\flac.exe
Additional command line options : -8 -V -T "ARTIST=%a" -T "TITLE=%t" -T "ALBUM=%g" -T "DATE=%y" -T "TRACKNUMBER=%n" -T "GENRE=%m" -T "COMMENT=EAC FLAC -8" %s


TOC of the extracted CD

Track | Start | Length | Start sector | End sector
––––––––––––––––––––––––––––-
1 | 0:00.00 | 10:28.68 | 0 | 47167
2 | 10:28.68 | 7:53.68 | 47168 | 82710
3 | 18:22.61 | 3:29.31 | 82711 | 98416
4 | 21:52.17 | 5:00.67 | 98417 | 120983
5 | 26:53.09 | 4:20.67 | 120984 | 140550
6 | 31:14.01 | 5:32.45 | 140551 | 165495
7 | 36:46.46 | 2:32.53 | 165496 | 176948
8 | 39:19.24 | 6:41.06 | 176949 | 207029
9 | 46:00.30 | 29:51.09 | 207030 | 341363


Track 1

Filename F:\Exact Audio Copy\Sviatoslav Richter in Concert - Beethoven, Schubert, Liszt\CD3\01 - 1. Beethoven - Piano Sonata in C major, Op. 2 No. 3 - 1. Allegro con brio.wav

Pre-gap length 0:00:02.00

Peak level 82.0 %
Track quality 99.9 %
Test CRC EEDDA47A
Copy CRC EEDDA47A
Accurately ripped (confidence 18) [65D503DA]
Copy OK

Track 2

Filename F:\Exact Audio Copy\Sviatoslav Richter in Concert - Beethoven, Schubert, Liszt\CD3\02 - 2. Beethoven - Piano Sonata in C major, Op. 2 No. 3 - 2. Adagio.wav

Peak level 86.5 %
Track quality 100.0 %
Test CRC DAB604A8
Copy CRC DAB604A8
Accurately ripped (confidence 18) [27620C8D]
Copy OK

Track 3

Filename F:\Exact Audio Copy\Sviatoslav Richter in Concert - Beethoven, Schubert, Liszt\CD3\03 - 3. Beethoven - Piano Sonata in C major, Op. 2 No. 3 - 3. Scherzo, Allegro.wav

Peak level 72.7 %
Track quality 100.0 %
Test CRC ACA11C60
Copy CRC ACA11C60
Accurately ripped (confidence 18) [8387E6E0]
Copy OK

Track 4

Filename F:\Exact Audio Copy\Sviatoslav Richter in Concert - Beethoven, Schubert, Liszt\CD3\04 - 4. Beethoven - Piano Sonata in C major, Op. 2 No. 3 - 4. Allegro assai.wav

Peak level 78.0 %
Track quality 100.0 %
Test CRC 1A42E19D
Copy CRC 1A42E19D
Accurately ripped (confidence 18) [EDBCC4AA]
Copy OK

Track 5

Filename F:\Exact Audio Copy\Sviatoslav Richter in Concert - Beethoven, Schubert, Liszt\CD3\05 - 5. Beethoven - Piano Sonata in A major, Op. 101 - 1. Etwas lebhaft und mit den innigsten Empfindung (Allegretto ma non troppo).wav

Peak level 75.9 %
Track quality 100.0 %
Test CRC B67B3C78
Copy CRC B67B3C78
Accurately ripped (confidence 17) [6BECDC8C]
Copy OK

Track 6

Filename F:\Exact Audio Copy\Sviatoslav Richter in Concert - Beethoven, Schubert, Liszt\CD3\06 - 6. Beethoven - Piano Sonata in A major, Op. 101 - 2. Lebaft, Marschmaessig (Vivace alla marcia).wav

Peak level 88.4 %
Track quality 100.0 %
Test CRC 3B814E02
Copy CRC 3B814E02
Accurately ripped (confidence 17) [6C46D146]
Copy OK

Track 7

Filename F:\Exact Audio Copy\Sviatoslav Richter in Concert - Beethoven, Schubert, Liszt\CD3\07 - 7. Beethoven - Piano Sonata in A major, Op. 101 - 3. Langsam und sehnsuchtvoll (Adagio, ma non troppo, con affetto).wav

Peak level 36.2 %
Track quality 100.0 %
Test CRC 870B9691
Copy CRC 870B9691
Accurately ripped (confidence 16) [15E3B095]
Copy OK

Track 8

Filename F:\Exact Audio Copy\Sviatoslav Richter in Concert - Beethoven, Schubert, Liszt\CD3\08 - 8. Beethoven - Piano Sonata in A major, Op. 101 - 4. Geschwind, doch nicht zu sehr, und mit Entschlossenheit (Allegro).wav

Peak level 81.2 %
Track quality 100.0 %
Test CRC B5460D43
Copy CRC B5460D43
Accurately ripped (confidence 17) [1E8DB7E8]
Copy OK

Track 9

Filename F:\Exact Audio Copy\Sviatoslav Richter in Concert - Beethoven, Schubert, Liszt\CD3\09 - 9. Liszt - Piano Sonata in B minor, S.178.wav

Peak level 97.5 %
Track quality 100.0 %
Test CRC A94F0DC8
Copy CRC A94F0DC8
Accurately ripped (confidence 16) [D642BBB0]
Copy OK


All tracks accurately ripped

No errors occurred

End of status report

foobar2000 1.3.8 / Dynamic Range Meter 1.1.1
log date: 2015-06-10 16:49:36

––––––––––––––––––––––––––––––––––––––––
Analyzed: Sviatoslav Richter / Beethoven & Liszt - Piano Sonatas
––––––––––––––––––––––––––––––––––––––––

DR Peak RMS Duration Track
––––––––––––––––––––––––––––––––––––––––
DR12 -1.71 dB -19.01 dB 10:29 01-1. Beethoven - Piano Sonata in C major, Op. 2 No. 3 - 1. Allegro con brio
DR16 -1.25 dB -25.92 dB 7:54 02-2. Beethoven - Piano Sonata in C major, Op. 2 No. 3 - 2. Adagio
DR12 -2.77 dB -19.57 dB 3:29 03-3. Beethoven - Piano Sonata in C major, Op. 2 No. 3 - 3. Scherzo, Allegro
DR13 -2.16 dB -20.06 dB 5:01 04-4. Beethoven - Piano Sonata in C major, Op. 2 No. 3 - 4. Allegro assai
DR14 -2.39 dB -25.64 dB 4:21 05-5. Beethoven - Piano Sonata in A major, Op. 101 - 1. Etwas lebhaft und mit den innigsten Empfindung (Allegretto ma non troppo)
DR15 -1.07 dB -21.35 dB 5:33 06-6. Beethoven - Piano Sonata in A major, Op. 101 - 2. Lebaft, Marschmaessig (Vivace alla marcia)
DR13 -8.81 dB -27.81 dB 2:33 07-7. Beethoven - Piano Sonata in A major, Op. 101 - 3. Langsam und sehnsuchtvoll (Adagio, ma non troppo, con affetto)
DR15 -1.80 dB -21.55 dB 6:41 08-8. Beethoven - Piano Sonata in A major, Op. 101 - 4. Geschwind, doch nicht zu sehr, und mit Entschlossenheit (Allegro)
DR15 -0.22 dB -20.91 dB 29:51 09-9. Liszt - Piano Sonata in B minor, S.178
––––––––––––––––––––––––––––––––––––––––

Number of tracks: 9
Official DR value: DR14

Samplerate: 44100 Hz
Channels: 2
Bits per sample: 16
Bitrate: 474 kbps
Codec: FLAC
================================================================================


Exact Audio Copy V0.99 prebeta 5 from 4. May 2009

EAC extraction logfile from 4. July 2011, 21:09

Sviatoslav Richter / Schubert - Sonatas

Used drive : _NEC DVD_RW ND-3570A Adapter: 3 ID: 1

Read mode : Secure
Utilize accurate stream : Yes
Defeat audio cache : Yes
Make use of C2 pointers : No

Read offset correction : 48
Overread into Lead-In and Lead-Out : No
Fill up missing offset samples with silence : Yes
Delete leading and trailing silent blocks : No
Null samples used in CRC calculations : Yes
Used interface : Installed external ASPI interface
Gap handling : Appended to previous track

Used output format : User Defined Encoder
Selected bitrate : 128 kBit/s
Quality : High
Add ID3 tag : No
Command line compressor : C:\Program Files\Exact Audio Copy\Flac\flac.exe
Additional command line options : -8 -V -T "ARTIST=%a" -T "TITLE=%t" -T "ALBUM=%g" -T "DATE=%y" -T "TRACKNUMBER=%n" -T "GENRE=%m" -T "COMMENT=EAC FLAC -8" %s


TOC of the extracted CD

Track | Start | Length | Start sector | End sector
––––––––––––––––––––––––––––-
1 | 0:00.00 | 24:15.67 | 0 | 109191
2 | 24:15.67 | 9:15.58 | 109192 | 150874
3 | 33:31.50 | 3:24.49 | 150875 | 166223
4 | 36:56.24 | 6:53.52 | 166224 | 197250
5 | 43:50.01 | 7:52.00 | 197251 | 232650
6 | 51:42.01 | 6:02.48 | 232651 | 259848
7 | 57:44.49 | 6:38.73 | 259849 | 289771
8 | 64:23.47 | 4:06.38 | 289772 | 308259


Track 1

Filename F:\Exact Audio Copy\Sviatoslav Richter in Concert - Beethoven, Schubert, Liszt\CD4\01 - 1. Piano Sonata in B flat major, No. 21 D 960 - 1. Molto moderato.wav

Pre-gap length 0:00:02.00

Peak level 92.1 %
Track quality 100.0 %
Test CRC 94A07395
Copy CRC 94A07395
Accurately ripped (confidence 18) [D3EF1B4C]
Copy OK

Track 2

Filename F:\Exact Audio Copy\Sviatoslav Richter in Concert - Beethoven, Schubert, Liszt\CD4\02 - 2. Piano Sonata in B flat major, No. 21 D 960 - 2. Andante sostenuto.wav

Peak level 54.7 %
Track quality 100.0 %
Test CRC E26337CC
Copy CRC E26337CC
Accurately ripped (confidence 18) [17767775]
Copy OK

Track 3

Filename F:\Exact Audio Copy\Sviatoslav Richter in Concert - Beethoven, Schubert, Liszt\CD4\03 - 3. Piano Sonata in B flat major, No. 21 D 960 - 3. Scherzo, Allegro vivace con delicatezza.wav

Peak level 53.7 %
Track quality 100.0 %
Test CRC E5779FCF
Copy CRC E5779FCF
Accurately ripped (confidence 18) [84CC6614]
Copy OK

Track 4

Filename F:\Exact Audio Copy\Sviatoslav Richter in Concert - Beethoven, Schubert, Liszt\CD4\04 - 4. Piano Sonata in B flat major, No. 21 D 960 - 4. Allegro ma non troppo.wav

Peak level 96.3 %
Track quality 100.0 %
Test CRC C9130547
Copy CRC C9130547
Accurately ripped (confidence 18) [94CA0B66]
Copy OK

Track 5

Filename F:\Exact Audio Copy\Sviatoslav Richter in Concert - Beethoven, Schubert, Liszt\CD4\05 - 5. Piano Sonata in B major, No.9 D 575 (Op. 147) - 1. Allegro ma non troppo.wav

Peak level 77.9 %
Track quality 100.0 %
Test CRC 381A2496
Copy CRC 381A2496
Accurately ripped (confidence 18) [617D11AD]
Copy OK

Track 6

Filename F:\Exact Audio Copy\Sviatoslav Richter in Concert - Beethoven, Schubert, Liszt\CD4\06 - 6. Piano Sonata in B major, No.9 D 575 (Op. 147) - 2. Andante.wav

Peak level 84.7 %
Track quality 100.0 %
Test CRC 2D54B502
Copy CRC 2D54B502
Accurately ripped (confidence 18) [2F054935]
Copy OK

Track 7

Filename F:\Exact Audio Copy\Sviatoslav Richter in Concert - Beethoven, Schubert, Liszt\CD4\07 - 7. Piano Sonata in B major, No.9 D 575 (Op. 147) - 3. Scherzo, Allegretto.wav

Peak level 73.4 %
Track quality 100.0 %
Test CRC A84FE33C
Copy CRC A84FE33C
Accurately ripped (confidence 18) [A7299403]
Copy OK

Track 8

Filename F:\Exact Audio Copy\Sviatoslav Richter in Concert - Beethoven, Schubert, Liszt\CD4\08 - 8. Piano Sonata in B major, No.9 D 575 (Op. 147) - 4. Allegro giusto.wav

Peak level 70.0 %
Track quality 100.0 %
Test CRC 5197D157
Copy CRC 5197D157
Accurately ripped (confidence 16) [40A4E88F]
Copy OK


All tracks accurately ripped

No errors occurred

End of status report

foobar2000 1.3.8 / Dynamic Range Meter 1.1.1
log date: 2015-06-10 16:50:55

––––––––––––––––––––––––––––––––––––––––
Analyzed: Sviatoslav Richter / Schubert - Sonatas
––––––––––––––––––––––––––––––––––––––––

DR Peak RMS Duration Track
––––––––––––––––––––––––––––––––––––––––
DR15 -0.71 dB -21.36 dB 24:16 01-1. Piano Sonata in B flat major, No. 21 D 960 - 1. Molto moderato
DR15 -5.23 dB -25.80 dB 9:16 02-2. Piano Sonata in B flat major, No. 21 D 960 - 2. Andante sostenuto
DR14 -5.39 dB -23.80 dB 3:25 03-3. Piano Sonata in B flat major, No. 21 D 960 - 3. Scherzo, Allegro vivace con delicatezza
DR14 -0.32 dB -20.51 dB 6:54 04-4. Piano Sonata in B flat major, No. 21 D 960 - 4. Allegro ma non troppo
DR17 -2.16 dB -24.19 dB 7:52 05-5. Piano Sonata in B major, No.9 D 575 (Op. 147) - 1. Allegro ma non troppo
DR17 -1.44 dB -24.26 dB 6:03 06-6. Piano Sonata in B major, No.9 D 575 (Op. 147) - 2. Andante
DR17 -2.68 dB -24.28 dB 6:39 07-7. Piano Sonata in B major, No.9 D 575 (Op. 147) - 3. Scherzo, Allegretto
DR13 -3.09 dB -21.67 dB 4:07 08-8. Piano Sonata in B major, No.9 D 575 (Op. 147) - 4. Allegro giusto
––––––––––––––––––––––––––––––––––––––––

Number of tracks: 8
Official DR value: DR15

Samplerate: 44100 Hz
Channels: 2
Bits per sample: 16
Bitrate: 475 kbps
Codec: FLAC
================================================================================


Exact Audio Copy V0.99 prebeta 5 from 4. May 2009

EAC extraction logfile from 4. July 2011, 20:45

Sviatoslav Richter / Schubert - Piano Sonatas

Used drive : _NEC DVD_RW ND-3570A Adapter: 3 ID: 1

Read mode : Secure
Utilize accurate stream : Yes
Defeat audio cache : Yes
Make use of C2 pointers : No

Read offset correction : 48
Overread into Lead-In and Lead-Out : No
Fill up missing offset samples with silence : Yes
Delete leading and trailing silent blocks : No
Null samples used in CRC calculations : Yes
Used interface : Installed external ASPI interface
Gap handling : Appended to previous track

Used output format : User Defined Encoder
Selected bitrate : 128 kBit/s
Quality : High
Add ID3 tag : No
Command line compressor : C:\Program Files\Exact Audio Copy\Flac\flac.exe
Additional command line options : -8 -V -T "ARTIST=%a" -T "TITLE=%t" -T "ALBUM=%g" -T "DATE=%y" -T "TRACKNUMBER=%n" -T "GENRE=%m" -T "COMMENT=EAC FLAC -8" %s


TOC of the extracted CD

Track | Start | Length | Start sector | End sector
––––––––––––––––––––––––––––-
1 | 0:00.00 | 7:09.63 | 0 | 32237
2 | 7:09.63 | 5:40.41 | 32238 | 57778
3 | 12:50.29 | 7:12.44 | 57779 | 90222
4 | 20:02.73 | 26:18.70 | 90223 | 208642
5 | 46:21.68 | 7:41.24 | 208643 | 243241
6 | 54:03.17 | 4:18.44 | 243242 | 262635
7 | 58:21.61 | 7:25.47 | 262636 | 296057
8 | 65:47.33 | 7:14.44 | 296058 | 328651


Track 1

Filename F:\Exact Audio Copy\Sviatoslav Richter in Concert - Beethoven, Schubert, Liszt\CD4\01 - 1. Piano Sonata in E minor, No.6 D 566 - 1. Moderato.wav

Pre-gap length 0:00:02.00

Peak level 72.2 %
Track quality 100.0 %
Test CRC 969F8D2E
Copy CRC 969F8D2E
Accurately ripped (confidence 19) [8BEF3742]
Copy OK

Track 2

Filename F:\Exact Audio Copy\Sviatoslav Richter in Concert - Beethoven, Schubert, Liszt\CD4\02 - 2. Piano Sonata in E minor, No.6 D 566 - 2. Scherzo, Allegro vivace.wav

Peak level 63.6 %
Track quality 100.0 %
Test CRC 6240C511
Copy CRC 6240C511
Accurately ripped (confidence 19) [0AEFF664]
Copy OK

Track 3

Filename F:\Exact Audio Copy\Sviatoslav Richter in Concert - Beethoven, Schubert, Liszt\CD4\03 - 3. Piano Sonata in E minor, No.6 D 566 - 3. Allegretto.wav

Peak level 70.8 %
Track quality 100.0 %
Test CRC D6CEAF76
Copy CRC D6CEAF76
Accurately ripped (confidence 19) [347010BA]
Copy OK

Track 4

Filename F:\Exact Audio Copy\Sviatoslav Richter in Concert - Beethoven, Schubert, Liszt\CD4\04 - 4. Piano Sonata in G major, No.18 D 894 - 1. Molto moderato e cantabile.wav

Peak level 79.5 %
Track quality 99.9 %
Test CRC 31C52253
Copy CRC 31C52253
Accurately ripped (confidence 19) [B377F883]
Copy OK

Track 5

Filename F:\Exact Audio Copy\Sviatoslav Richter in Concert - Beethoven, Schubert, Liszt\CD4\05 - 5. Piano Sonata in G major, No.18 D 894 - 2. Andante.wav

Peak level 80.1 %
Track quality 100.0 %
Test CRC C002AAE3
Copy CRC C002AAE3
Accurately ripped (confidence 19) [10CEB819]
Copy OK

Track 6

Filename F:\Exact Audio Copy\Sviatoslav Richter in Concert - Beethoven, Schubert, Liszt\CD4\06 - 6. Piano Sonata in G major, No.18 D 894 - 3. Menuetto (Allegro moderato).wav

Peak level 76.2 %
Track quality 100.0 %
Test CRC 342F03A2
Copy CRC 342F03A2
Accurately ripped (confidence 19) [9EC0241D]
Copy OK

Track 7

Filename F:\Exact Audio Copy\Sviatoslav Richter in Concert - Beethoven, Schubert, Liszt\CD4\07 - 7. Piano Sonata in G major, No.18 D 894 - 4. Allegretto.wav

Peak level 89.0 %
Track quality 99.9 %
Test CRC B7C6C8C0
Copy CRC B7C6C8C0
Accurately ripped (confidence 19) [E93DD436]
Copy OK

Track 8

Filename F:\Exact Audio Copy\Sviatoslav Richter in Concert - Beethoven, Schubert, Liszt\CD4\08 - 8. Piano Sonata in G major, No.18 D 894 - 5. Allegretto in C minor, D 915.wav

Peak level 81.7 %
Track quality 100.0 %
Test CRC 543BAE10
Copy CRC 543BAE10
Accurately ripped (confidence 19) [B39E3507]
Copy OK


All tracks accurately ripped

No errors occurred

End of status report

foobar2000 1.3.8 / Dynamic Range Meter 1.1.1
log date: 2015-06-10 16:51:52

––––––––––––––––––––––––––––––––––––––––
Analyzed: Sviatoslav Richter / Schubert - Piano Sonatas
––––––––––––––––––––––––––––––––––––––––

DR Peak RMS Duration Track
––––––––––––––––––––––––––––––––––––––––
DR13 -2.83 dB -21.49 dB 7:10 01-1. Piano Sonata in E minor, No.6 D 566 - 1. Moderato
DR13 -3.92 dB -20.51 dB 5:41 02-2. Piano Sonata in E minor, No.6 D 566 - 2. Scherzo, Allegro vivace
DR13 -2.99 dB -20.64 dB 7:13 03-3. Piano Sonata in E minor, No.6 D 566 - 3. Allegretto
DR14 -1.99 dB -23.02 dB 26:19 04-4. Piano Sonata in G major, No.18 D 894 - 1. Molto moderato e cantabile
DR13 -1.92 dB -21.70 dB 7:41 05-5. Piano Sonata in G major, No.18 D 894 - 2. Andante
DR12 -2.36 dB -20.49 dB 4:19 06-6. Piano Sonata in G major, No.18 D 894 - 3. Menuetto (Allegro moderato)
DR12 -1.01 dB -18.39 dB 7:26 07-7. Piano Sonata in G major, No.18 D 894 - 4. Allegretto
DR11 -1.75 dB -19.80 dB 7:15 08-8. Piano Sonata in G major, No.18 D 894 - 5. Allegretto in C minor, D 915
––––––––––––––––––––––––––––––––––––––––

Number of tracks: 8
Official DR value: DR13

Samplerate: 44100 Hz
Channels: 2
Bits per sample: 16
Bitrate: 518 kbps
Codec: FLAC
================================================================================

Sviatoslav Richter in Concert: Beethoven, Schubert, Liszt (2004) 5CD Box Set [Historic Russian Archives] Re-Up

All thanks to original releaser - Святогор Иванович

More interesting music in My Blog